#TITLE:the disappearance of CV01;
#SUBTITLE:;
#ARTIST:cosMo@bousouP;
#TITLETRANSLIT:;
#SUBTITLETRANSLIT:;
#ARTISTTRANSLIT:;
#CREDIT:M.L-INS;
#BANNER:../Tachyon DIVA.png;
#BACKGROUND:../Tachyon DIVA-bg.png;
#LYRICSPATH:;
#CDTITLE:;
#MUSIC:the disappearance of CV01.ogg;
#OFFSET:0.000;
#SAMPLESTART:100.000;
#SAMPLELENGTH:12.000;
#SELECTABLE:YES;
#BPMS:0.000=240.003;
#STOPS:;
#BGCHANGES:;
// cache tags:
#FIRSTBEAT:28.000;
#LASTBEAT:562.500;
#SONGFILENAME:Songs/Tachyon DIVA/~N-ĩ[M.L-INS]/the disappearance of CV01.sm;
#HASMUSIC:1;
#HASBANNER:1;
#MUSICLENGTH:144.335;
// end cache tags

//---------------dance-single - ----------------
#NOTES:
     dance-single:
     :
     Challenge:
     16:
     1.000,1.000,0.042,1.000,1.000,1274.000,6.000,288.000,87.000,6.000:
0000
0000
0000
0000
,
0000
0000
0000
0000
,
0000
0000
0000
0000
,
0000
0000
0000
0000
,
0000
0000
0000
0000
,
0000
0000
0000
0000
,
0000
0000
0000
0000
,
0100
0100
0100
0100
,
1000
0000
0001
0000
0010
0000
0100
0000
1000
0010
1000
0000
0100
0000
0010
0000
,
0001
0000
0100
0000
0010
0000
1000
0000
0001
0100
0001
0000
0010
0000
0100
0000
,
1000
0000
0010
0000
0100
0000
0001
0000
1000
0100
1000
0000
0010
0000
0100
0000
,
0001
0000
1000
0000
0100
0000
0010
0000
0001
0100
0001
0000
0010
0000
0100
0000
,
1000
0000
0100
0000
0010
0000
0001
0000
0100
0010
0100
0000
0001
0000
1000
0000
,
0100
0000
0010
0000
0100
0000
1000
0000
0001
0100
0001
0000
0010
0000
0100
0000
,
2000
3200
0320
0230
2300
3002
0203
0302
,
2003
0000
3200
0000
0320
0000
0230
0000
1300
0100
1000
0100
0010
0001
0010
0001
,
1000
0000
0100
0000
0010
0000
0100
0000
1000
0001
1000
0000
0010
0000
0100
0000
,
0001
0000
0010
0000
0100
0000
0010
0000
0001
0100
0001
0000
0010
0000
0100
0000
,
1000
0000
0010
0000
0100
0000
0001
0000
0010
0100
0010
0000
0001
0000
1000
0000
,
0100
0000
0010
0000
0001
0000
0100
0000
0010
1000
0010
0000
0100
0000
0001
0000
,
1000
0000
0100
0000
0010
0000
0001
0000
0100
0000
0010
1000
0010
0000
0100
0000
,
0001
0000
0010
0000
0100
0000
0010
0000
0001
0000
1000
0100
1000
0000
0001
0000
,
0100
0000
0010
0000
1000
0000
0100
0000
0010
0000
0001
0100
0001
0000
0010
0000
,
0100
1000
0100
0000
0010
0001
0010
0000
0100
1000
0001
0100
0001
0010
0100
0010
,
0001
0000
1000
0100
1000
0000
0001
0000
0010
0000
0100
1000
0100
0000
0010
0000
,
0001
0000
0100
0010
0100
0000
0001
0000
1000
0010
1000
0000
0001
0100
0001
0000
,
0010
0000
0100
1000
0100
0000
0010
0000
0001
0000
1000
0100
1000
0000
0001
0000
,
0010
0000
0100
1000
0100
0000
0010
0000
0001
0100
0001
0000
0010
0100
0010
0000
,
0001
0000
1000
0010
1000
0000
0100
0000
0010
0000
0001
0100
0001
0000
1000
0000
,
0001
0000
0010
0100
0010
0000
0001
0000
1000
0100
1000
0000
0001
0100
0001
0000
,
1000
0000
0010
0100
0010
0000
1000
0000
0001
0000
0100
0010
0100
0000
0001
0000
,
0010
0000
0100
1000
0100
0000
0010
0000
0001
0100
0001
0000
0010
0100
0010
0000
,
0001
0000
1000
0010
0100
0000
0001
0000
0010
0000
0100
1000
0010
0000
0100
0000
,
0001
0000
0010
0100
1000
0000
0010
0000
0100
0001
0010
0000
0100
1000
0010
0000
,
1000
0000
0001
0010
0100
0000
1000
0000
0010
0000
0100
0001
0010
0000
0100
0000
,
1000
0000
0010
0100
0001
0000
1000
0000
0100
0010
0001
0000
1000
0100
0010
0000
,
0001
0000
1000
0010
0100
0000
0001
0000
0010
0000
0100
1000
0010
0000
0100
0000
,
0001
0000
0100
0010
1000
0000
0001
0000
0100
0010
1000
0000
0001
0100
0010
0000
,
1000
0000
0010
0100
0001
0000
0010
0000
0100
0000
1000
0010
0100
0000
0001
0000
,
1000
0000
0100
0010
0001
0000
1000
0000
0004
0010
0000
0010
0403
0010
0000
0010
,
0302
2003
3200
2300
3002
0203
0320
2030
,
3200
2300
3002
0023
0230
0320
0032
2003
,
3020
0230
0302
2003
3200
2300
3002
0023
,
0032
0203
0302
2003
3020
2030
3200
2300
,
3002
0023
0230
2300
00M0
3200
0320
0032
,
2003
3200
2300
3002
0203
0302
2003
3200
,
2300
3002
0203
0302
2003
3200
0320
0032
,
0203
0000
0320
0000
2030
0000
3002
0000
0023
0000
0230
0000
0310
0001
0010
0001
,
2000
3002
0203
0320
2030
3200
2300
3002
,
0203
0302
2003
3200
2300
3020
0230
0302
,
0203
0320
2030
3002
0203
0320
2030
3200
,
0320
0032
0203
0320
2030
3020
0230
0302
,
0023
0230
2300
3200
000M
2300
3002
0203
,
0302
2003
3200
2300
3020
0230
0302
2003
,
3200
0320
0032
0203
0320
2030
3002
0023
,
0230
0000
2300
0000
3002
0000
0023
0000
0130
1000
0100
0010
0001
0010
0100
2000
,
00M0
00M0
00M0
0000
0002
0000
0000
0000
3023
0000
2030
0000
3200
0000
0320
0000
,
0032
0203
0320
2030
3200
2300
3002
0023
,
0032
0203
0320
0230
0302
2003
3200
2300
,
3002
0203
0302
0023
0032
2003
3200
2300
,
3002
0203
0302
0023
0032
2003
3020
2030
,
3200
0320
0032
0203
0320
2030
3002
0023
,
0230
2300
3002
0203
0320
2030
3002
0203
,
0320
2030
3200
0320
0032
0203
0320
2030
,
3002
0203
2300
3002
0023
2030
3002
0203
,
2300
3002
0023
2030
3002
2003
3002
4003
,
3400
0304
4003
3040
0034
4003
3400
0304
,
4003
3040
0034
2003
3020
0230
0302
0023
,
0230
0000
1300
2000
0000
0001
0000
0002
,
0000
0000
0000
0000
0000
0000
0000
0000
0000
0000
0000
0000
0000
0000
0000
0000
0000
0000
0000
0000
0000
0000
0000
0000
0020
0000
0000
0000
0000
0000
0000
0000
0000
0000
0000
0000
0000
0000
0000
0000
0000
0000
0000
0000
0000
0000
0000
0000
0000
0000
0000
0000
0000
0000
0000
0000
0000
0000
0000
0000
0000
0000
0000
0000
0000
0000
0000
0000
0000
0000
0000
0000
0200
0000
0000
0000
0000
0000
0000
0000
0000
0000
0000
0000
0000
0000
0000
0000
0000
0000
0000
0000
0000
0000
0000
0000
0000
0000
0000
0000
0000
0000
0000
0000
0000
0000
0000
0000
0000
0000
0000
0000
0000
0000
0000
0000
0000
0000
0000
0300
0200
0000
0000
0000
0000
0000
0000
0000
0000
0000
0000
0000
0000
0000
0000
0000
0000
0000
0000
0000
0000
0000
0000
0030
0020
0000
0000
0000
0000
0000
0000
0000
0000
0000
0000
0000
0000
0000
0000
0000
0000
0000
0000
0000
0000
0000
0000
3003
4004
0000
0000
0000
0000
0000
0000
0000
0000
0000
0000
0000
0000
0000
0000
0000
0000
0000
0000
0000
0000
0000
0000
0000
,
0000
0000
0000
0000
,
0000
0000
3333
M000
0M00
00M0
000M
0M00
,
1000
0100
0010
0000
0001
0000
0100
0000
0010
1000
0100
0000
0010
0000
0001
0000
,
0100
0010
1000
0000
0001
0100
0010
0000
1000
0100
0010
0000
0001
0010
0100
0000
,
1000
0100
0010
0000
0100
0000
1000
0000
0001
0100
0010
0000
1000
0000
0100
0000
,
0010
0001
0100
0000
0010
1000
0100
0000
0010
0001
1000
0000
0001
1000
0100
0000
,
1000
0001
0010
0000
0100
0000
1000
0000
0010
1000
0100
0000
0010
0000
0001
0000
,
0100
0010
1000
0000
0100
0010
0001
0000
1000
0100
0010
0000
0001
0100
0010
0000
,
1000
0001
0100
0000
0010
0000
1000
0000
0001
0010
0100
0000
0010
0000
0001
0000
,
1000
0100
0010
0000
0001
0100
0010
0000
1000
0010
0100
0010
1000
0001
0100
0001
,
1000
0010
0100
0001
0100
0001
0010
0001
0100
0010
1000
0010
,
1000
0100
1000
0001
0100
0001
0010
0100
0010
0001
1000
0010
,
1000
0010
0100
0001
0010
0100
0010
0001
1000
0100
1000
0010
,
1000
0100
0010
0001
0100
0010
1000
0001
0010
0100
0010
0001
,
1000
0010
0100
0010
1000
0001
0100
0010
1000
0100
1000
0001
,
0100
0001
0010
0100
0010
0001
1000
0100
0010
0100
1000
0001
,
0100
0000
0100
0000
0010
0000
0010
0000
1000
0000
1000
0000
0004
0010
0000
0010
,
0403
1000
0000
1000
0340
0100
0000
0100
0034
1000
0000
1000
0000
0100
0000
0100
,
0003
1000
0010
0100
0001
1000
0100
0010
0100
1000
0001
0100
,
0001
0010
0100
0010
0001
1000
0100
0010
0001
0010
0100
1000
,
0020
M00M
0030
0010
0100
0010
0001
1000
0100
1000
0001
0100
,
0001
0010
0100
0010
0001
1000
0100
1000
0001
0100
0001
1000
,
0100
1000
0010
1000
0100
0010
0100
1000
0001
0100
0010
0100
,
0001
1000
0100
0010
0001
0010
0100
1000
0001
0100
0010
1000
,
0200
M00M
0300
0100
0010
1000
0001
0100
0010
1000
0100
0010
,
0001
0100
0010
1000
0100
1000
0001
0100
0001
1000
0010
1000
,
0001
0100
M010
1000
010M
0010
0100
10M0
0001
0100
M001
0010
,
0M01
1000
010M
0010
0100
10M0
0001
0100
M001
1000
010M
1000
,
0001
M100
0001
0010
010M
0010
0M01
1000
010M
1000
0010
M100
,
0010
1000
010M
0010
0M01
0010
0100
10M0
0001
0100
0010
100M
,
0100
0010
M001
0100
0010
1000
010M
1000
0001
01M0
0001
1000
,
01M0
1000
0001
0100
001M
1000
0100
1000
00M1
1000
0001
M100
,
0010
1000
00M1
1000
0M01
1000
0010
M100
0001
100M
0100
0010
,
M002
0000
0000
0000
0023
0000
0000
0000
0230
0000
0000
0000
2300
0000
0000
0000
3200
0000
0000
0000
0320
0000
0000
0000
0034
0000
0000
0100
0000
0000
0000
0000
0000
1000
0000
0000
0403
0000
0000
1000
0000
0000
0000
0000
0000
0010
0000
0000
,
0301
0100
0010
1000
0100
0010
0100
1000
0001
0100
0010
1000
,
0100
1000
0001
0100
0001
0010
0100
0010
0001
1000
0100
1000
,
0001
0100
0001
1000
0010
0100
0001
1000
0100
0010
0100
1000
,
0001
0100
0001
0010
0100
0010
0001
1000
0100
1000
0001
0100
,
0010
1000
0010
0100
0001
0010
0100
1000
0100
0010
0001
1000
,
0100
0010
0001
0010
0100
1000
0001
0100
0001
1000
0100
0010
,
0100
1000
0001
0100
0010
1000
0010
0100
0001
1000
0010
1000
,
0001
0000
0000
0000
0100
0000
0000
0000
0001
0000
0000
0000
0010
0000
0000
0000
0001
0000
0000
0000
1000
0000
0000
0000
0040
0000
0000
1000
0000
0000
0000
0000
0000
1000
0000
0000
0034
0000
0000
0100
0000
0000
0000
0000
0000
0100
0000
0000
,
0003
1000
00M1
0100
0010
100M
0010
0100
00M1
1000
0100
M010
,
0001
0100
001M
1000
0010
M100
0001
0010
0M01
1000
0010
100M
,
0100
0010
M001
0100
0010
100M
0010
0100
M001
0010
0100
10M0
,
0100
0010
0M01
1000
0100
10M0
0001
0100
0M01
1000
0100
M010
,
0001
0100
001M
1000
0010
0100
00M1
1000
0100
001M
0100
1000
,
0001
M100
0001
0010
010M
1000
0100
0010
M001
0100
0010
M100
,
0001
10M0
0100
0010
M001
0010
0100
10M0
0001
0100
M001
0010
,
0100
10M0
0001
0100
0001
1M00
0010
1000
0001
01M0
0001
1000
,
0002
0203
0320
2030
3200
0320
0032
0203
,
0320
2030
3200
2300
3002
0203
0302
2003
,
3200
0320
0032
2003
3200
2300
3002
0203
,
0302
0000
0023
0000
0032
0000
2003
0000
3020
0000
2030
0000
3001
0100
0001
0100
,
0020
2030
3200
0320
0032
0203
0320
2030
,
3020
0230
0302
0023
0230
2300
3200
0320
,
0032
2003
3200
0320
0230
2300
3002
0203
,
0304
0000
0000
0000
4003
0010
0000
0010
3400
0001
0000
0001
0340
0001
0000
0001
,
1030
0100
1000
0001
0100
0001
0010
0100
0010
0001
1000
0100
0010
0100
1000
0001
,
0100
0001
1000
0010
1000
0100
0010
0100
1000
0001
0100
0010
1000
0100
0010
0001
,
0100
0010
1000
0010
0100
0001
0100
0010
1000
0100
0010
0001
1000
0010
0100
0001
,
0010
0100
1000
0010
0100
0001
0010
0001
1000
0100
1000
0001
0100
0010
1000
0100
,
0010
0001
1000
0010
0100
0001
1000
0100
1000
0001
0100
0010
1000
0010
0100
0001
,
0100
0010
1000
0100
0010
0100
1000
0001
0100
0010
1000
0100
1000
0001
0100
0001
,
0010
0100
1000
0100
0010
0001
1000
0100
0010
0100
1000
0001
0100
0001
1000
0010
,
0200
M000
000M
00M0
M000
00M0
000M
M000
0320
000M
0M00
000M
M000
000M
0M00
0000
,
2222
0000
0000
0000
,
0000
0000
0000
0000
,
0000
0000
0000
0000
,
0000
0000
0000
0000
,
0000
0000
0000
0000
0000
3333
0000
0000
;
