#TITLE:VerTex;
#SUBTITLE:;
#ARTIST:KaW;
#TITLETRANSLIT:;
#SUBTITLETRANSLIT:;
#ARTISTTRANSLIT:;
#CREDIT:;
#BANNER:vertex-banner.png;
#BACKGROUND:VerTex-bg.png;
#LYRICSPATH:;
#CDTITLE:;
#MUSIC:VerTex (beta).ogg;
#OFFSET:0.000;
#SAMPLESTART:100.000;
#SAMPLELENGTH:12.000;
#SELECTABLE:YES;
#BPMS:0.000=250.001,160.000=118.980,168.000=250.001,176.000=118.980,184.000=250.001,193.000=214.500,195.000=172.500,198.000=138.000,200.000=126.620,201.000=85.500,201.500=60.500,202.000=257.421,204.000=250.001,302.000=239.961,302.500=237.721,303.000=249.501,304.000=112.000,336.000=254.001,340.000=254.421,344.000=255.021,346.000=256.001,349.000=255.001,352.000=265.501,354.000=267.001,356.000=268.001,360.000=268.501,361.000=269.501,362.000=271.601,364.000=273.501,366.000=275.001,368.000=278.001,372.000=281.501,376.000=283.501,380.000=284.001,382.000=285.001,384.000=291.501,388.000=296.001,392.000=299.501,396.000=301.102,404.000=302.002,416.000=306.002,432.000=611.997;
#STOPS:202.000=0.380
;
#BGCHANGES:;
// cache tags:
#FIRSTBEAT:16.000;
#LASTBEAT:440.000;
#SONGFILENAME:Songs/toune/VerTex (beta)/VerTex (beta).sm;
#HASMUSIC:1;
#HASBANNER:1;
#MUSICLENGTH:118.886;
// end cache tags

//---------------dance-single - ----------------
#NOTES:
     dance-single:
     :
     Challenge:
     12:
     0.932,1.000,0.252,0.202,0.290,722.000,30.000,24.000,0.000,0.000:
0000
0000
0000
0000
,
0000
0000
0000
0000
,
0000
0000
0000
0000
,
0000
0000
0000
0000
,
1000
0100
0010
0000
0001
0010
0100
0000
,
1000
0100
0010
0000
0001
0010
0100
0000
,
1000
0100
0010
0000
0001
0010
0100
0000
,
0001
1000
0001
1000
0001
1000
0001
1000
0001
1000
0000
0000
,
1000
0100
0010
0001
0100
0010
1000
0001
,
0010
0001
0100
0010
1000
0010
1000
0001
,
0100
0010
1000
0010
0100
0001
0100
0010
,
1000
0001
0100
0000
0001
1000
0100
0000
,
1000
0001
0010
1000
0100
0010
0001
0100
,
0001
0010
0100
0010
1000
0100
0010
0001
,
1000
0100
0010
0001
0100
1000
0010
0001
,
0010
0001
0100
0000
0001
0100
0010
0000
,
0010
0001
1000
0001
0100
0010
1000
0100
,
1000
0001
0010
1000
0100
1000
0001
0010
,
0001
0010
0100
0010
1000
0010
0100
0001
,
1000
0010
0001
0000
0001
0010
1000
0000
,
0100
0010
1000
0010
0100
0001
1000
0001
,
0010
1000
0100
0010
1000
0010
1000
0001
,
0010
1000
0010
0001
0100
0001
0100
0001
,
1000
0100
1000
0000
0001
0010
0001
0000
,
1000
0100
0001
0100
1000
0100
0001
0100
,
1000
0100
0001
0100
1000
0001
1000
0000
,
0001
0100
1000
0100
0001
0100
1000
0100
,
0001
0100
1000
0100
0001
0100
0010
0000
,
1000
0001
0100
0001
1000
0001
0100
0001
,
1000
0001
0100
0001
1000
0100
1000
0000
,
1000
0001
1000
0001
0100
0001
1000
0001
,
0100
0001
1000
0000
0110
0000
0011
0000
,
1000
1000
1000
0100
0000
0000
0000
1100
,
0000
0000
0000
0110
0000
0000
0000
0000
,
0001
0001
0001
0010
0000
0000
0000
0110
,
0000
0000
0000
1100
0000
0000
0000
0000
,
0100
0100
0100
0010
0000
0000
0000
0110
,
0000
0000
0000
0011
0000
0000
0000
0000
,
0010
0010
0010
0100
0000
0000
1000
1000
,
1000
0100
0000
0000
0001
0001
0001
0010
,
0011
0001
1001
1000
,
1100
1000
1001
0001
,
0001
0011
0010
0110
,
0100
1100
1000
1001
,
1100
0000
1000
0100
1100
0000
0100
0000
,
0011
0000
0001
0010
0011
0000
0010
0000
,
2000
3100
0002
0013
,
2000
3100
0002
0013
,
0200
0000
0000
0000
0000
0000
0000
0000
0000
0000
0000
0000
0000
0000
0000
0000
0000
0000
0000
0000
0000
0300
0200
0000
0000
0000
0000
0000
0000
0000
0000
0000
,
0000
0000
0000
0000
0000
0000
0300
0200
0000
0000
0000
0000
0000
0000
0000
0000
0000
0000
0000
0000
0000
0000
0000
0000
0000
0000
0000
0000
0000
0000
0000
0000
,
0300
0200
0000
0000
0000
0000
0000
0000
0000
0000
0000
0000
0000
0000
0000
0000
0000
0000
0000
0000
0000
0000
0000
0000
0300
0000
0000
0000
0000
0000
0000
0000
,
1000
0010
0100
0000
0001
0010
0001
0000
,
1000
0100
1000
0000
0010
0100
0001
0000
,
0100
0010
1000
0000
0001
0100
0001
0000
,
1000
0010
0100
0001
1000
0100
0020
0000
,
0031
0100
0010
0000
0100
0010
1000
0000
,
0001
0100
0001
0000
1000
0010
1000
0000
,
0010
0100
0001
0000
1000
0100
0010
0001
,
0010
0002
0203
0000
,
2300
0000
3010
1000
0100
0010
0001
0100
,
0002
0000
0103
0010
1000
0100
0010
0001
,
1000
0100
0000
0001
0100
1000
0100
0010
,
0001
0010
1000
0001
0200
0000
1300
0000
,
0100
0010
0100
0001
1000
0010
0100
0001
,
0100
0010
1000
0010
1000
0100
1000
0010
,
0100
0001
1000
0010
0100
0010
2000
0000
,
3001
0100
0001
0100
0002
0000
1003
0000
,
0010
0000
0100
0000
0010
0000
1000
0000
0001
0000
0100
0000
0010
0000
1000
0100
,
1000
0000
0010
0000
0100
0000
0001
0000
0100
0000
0010
0000
0100
0000
0001
0010
,
0001
0010
0001
0100
0010
0100
0010
1000
,
0002
0000
0103
0000
0010
1000
0010
0000
,
0100
0000
0001
0000
0100
0000
0001
0000
0010
0000
0001
0000
0100
0000
0010
1000
,
0010
0000
0100
0000
0001
0000
0100
0000
0001
0000
1000
0000
0100
0000
1000
0100
,
1000
0001
0100
0010
1000
0001
1000
0001
,
0000
1000
0100
0010
0001
0000
0001
0000
,
0002
0000
0000
0000
0000
0000
0000
0003
,
1000
0000
0000
0000
0010
0000
0001
0000
0000
0000
0010
0000
0001
0000
0100
0000
0001
0000
0010
0001
0010
0000
0010
0001
0010
0000
0010
0001
0010
0000
0001
0000
,
0011
0000
0000
0110
0000
0000
1100
0000
0000
0110
0000
0000
0001
0001
0001
0001
,
0001
0000
0000
0000
0100
0000
1000
0000
0000
0000
0100
0000
1000
0000
0010
0000
1000
0000
0100
1000
0100
0000
0100
1000
0100
0000
0100
1000
0100
0000
1000
0000
,
1100
0000
0000
0110
0000
0000
0011
0000
0000
0110
0000
0000
1000
1000
1000
1000
,
1000
0000
0000
0000
0001
0000
0100
0000
0000
0000
0001
0000
0100
0000
1000
0000
0100
0000
0001
0100
0001
0000
0001
0100
0001
0000
0001
0100
0001
0000
0100
0000
,
0000
0000
0000
0000
,
1000
0000
0100
0000
0010
0000
0001
0000
0010
0000
0001
0000
0100
0000
1000
0000
0100
0000
0010
0000
0100
0000
0010
0000
0001
0000
0100
0000
1000
0001
1000
0000
,
1000
0000
0100
0000
0010
0000
0001
0000
1000
0000
0100
0000
0010
0000
0001
0000
1000
0000
0100
0000
0010
0000
0001
0000
1000
0000
0100
0000
0010
0001
0010
0000
,
0100
1000
0100
1000
0010
0100
0001
0100
,
0010
1000
0001
0010
0100
1000
0001
0010
,
0001
0010
0100
1000
0100
0010
0001
1000
,
0100
0010
0001
0000
0010
0001
1000
0000
,
0001
1000
0100
1000
0010
0100
0001
0100
,
0010
1000
0001
0010
0100
1000
0001
0010
,
0001
0010
0001
1000
0100
1000
0001
1000
,
0100
0010
0001
0000
1000
0001
0100
0000
,
0010
0100
0001
1000
0100
1000
0010
1000
,
0010
0100
0010
1000
0001
0100
0010
1000
,
0100
1000
0001
0100
0001
1000
0010
0100
,
0001
1000
0001
0000
1000
0100
1000
0000
,
0010
0100
0001
1000
0100
1000
0010
1000
,
0010
0100
0010
1000
0001
0100
0010
1000
,
0100
1000
0001
0100
0001
1000
0010
0100
,
0001
1000
0200
0000
1300
0001
2000
0000
,
3001
0010
0001
1000
0010
1000
0001
0100
,
0010
0100
0001
1000
0001
0100
0001
1000
,
0010
0100
0010
1000
0001
0010
0100
1000
,
0001
0100
0020
0000
1030
0010
2000
0000
,
3001
0100
0001
1000
0100
1000
0001
0100
,
0010
1000
0001
0100
0010
1000
0100
0010
,
0001
0100
0010
1000
0100
1000
0001
0010
,
0100
1000
0001
0100
0010
0000
0110
0000
,
2002
0000
0000
0000
,
0000
0000
0000
0000
,
3003
0000
0000
0000
;
