#TITLE:Gangnam Style;
#SUBTITLE:Sexuality Violation;
#ARTIST:Psy;
#TITLETRANSLIT:;
#SUBTITLETRANSLIT:;
#ARTISTTRANSLIT:;
#CREDIT:;
#BANNER:Gangnam Style-bn.png;
#BACKGROUND:Gangnam Style-bg.png;
#LYRICSPATH:;
#CDTITLE:GazeboCD.png;
#MUSIC:Gangnam Style.ogg;
#OFFSET:-0.941;
#SAMPLESTART:66.800;
#SAMPLELENGTH:29.900;
#SELECTABLE:YES;
#BPMS:0.000=132.000;
#STOPS:;
#BGCHANGES:;
// cache tags:
#FIRSTBEAT:0.000;
#LASTBEAT:468.000;
#SONGFILENAME:Songs/Sexuality Violation 2/Gangnam Style - [Gazebo]/Gangnam Style.sm;
#HASMUSIC:1;
#HASBANNER:1;
#MUSICLENGTH:219.219;
// end cache tags

//---------------dance-single - Gazebo----------------
#NOTES:
     dance-single:
     Gazebo:
     Challenge:
     12:
     0.775,1.000,0.452,0.251,0.775,1019.000,99.000,55.000,28.000,7.000:
0000
0000
0000
0000
,
0000
0000
0000
0000
,
0000
0000
0000
0000
,
0000
0000
1000
1000
0001
0100
0020
0000
,
0030
00M0
0000
0000
0000
0000
0000
0000
,
0000
0000
0000
0000
0001
0100
0020
0000
,
0030
00M0
0000
0000
0000
0000
0000
0000
,
1100
0000
0000
1100
0000
0000
1100
0000
1001
0000
0000
1001
0000
0000
1001
0000
,
1000
0010
0100
0020
0000
1030
1000
0001
,
0010
0100
0010
0100
1000
0001
0000
0001
,
0100
0000
0001
0000
0100
0000
0010
0000
1000
0000
0001
0100
0001
0000
1000
0000
,
0100
0010
0100
0010
0001
1000
0000
1000
,
0010
0100
0100
0010
1000
0001
0010
0100
,
0010
0001
1000
0001
0100
0010
1000
1000
,
0001
0000
0101
0000
1000
1000
0100
0010
,
0011
0000
0000
0011
0000
0000
0011
0000
1001
0000
0000
1001
0000
0000
1001
0000
,
1000
0010
1000
0010
0100
0000
0001
0000
1000
0000
0001
0000
0001
0000
0010
0000
,
0100
0000
1000
0100
1000
0000
0001
0000
0100
0000
0010
1000
0010
0000
1000
0000
,
0001
0010
0001
0010
0100
0000
1000
0000
0001
0000
1000
0000
1000
0000
0010
0000
,
0100
0000
0001
0100
0001
0000
1000
0000
0100
0000
0010
0001
0010
0000
0001
0000
,
1000
0010
1000
0010
0100
0000
0001
0000
1000
0000
0001
0000
0001
0000
0010
0000
,
0100
0000
1000
0100
1000
0000
0001
0000
0100
0000
0010
1000
0010
0000
1000
0000
,
0001
0010
0001
0010
0100
0000
1000
0000
0001
0000
0001
0000
1000
0010
1000
0010
,
0100
0000
0000
0101
0000
0000
0101
0000
1001
0000
0000
1001
0000
0000
1001
0000
,
2000
0000
0000
3100
0000
0010
0010
0010
,
0020
0000
0000
0031
0000
0000
0001
0001
,
0100
0000
0000
0000
0000
0000
0000
0000
0000
0001
0100
0010
1000
0100
0010
0001
0000
0000
1000
0000
0000
0001
0000
0000
,
1000
0000
0000
0000
0000
0000
0000
0000
0000
0001
0100
0010
1000
0100
0010
0001
0000
0000
1000
0000
0000
1000
0000
0000
,
0020
0000
0000
0130
0000
0001
0001
0001
,
0002
0000
0000
1003
0000
0000
1000
1000
,
1100
0000
0000
0000
0000
0000
0000
0000
0000
0001
0010
0100
1000
0010
0100
0001
0000
0000
1000
0000
0000
0001
0000
0000
,
0101
0000
0000
0000
0000
0000
0000
0000
0000
1000
0010
0100
0001
0010
0100
1000
0000
0000
0001
0000
0000
1000
0000
0000
,
1100
0001
0011
1000
1010
0001
0101
1000
,
2010
3010
2001
3001
2100
3100
2001
3001
,
1000
0010
1000
0001
1000
0100
0010
0001
0100
0001
1000
0001
0100
0010
1000
0100
,
0020
0030
0000
0000
,
0000
0000
0000
0000
,
0001
0010
0001
1000
0100
1000
0001
1000
0001
0100
0010
0100
0010
1000
0100
0010
,
0001
0100
0001
1000
0010
1000
0001
1000
0100
0010
0100
0010
0001
0010
0001
1000
,
0010
0100
0010
0000
1000
0000
0001
0000
1000
0000
0001
0000
0010
0100
0010
0000
0001
0000
1000
0000
0010
0100
0010
0000
1000
0000
0001
0000
0010
0100
0010
0000
,
0001
1000
0100
1000
0001
0010
0100
1000
0010
0100
0010
0100
0001
0100
0001
1000
,
0001
0010
0001
1000
0100
1000
0001
1000
0001
0100
0010
0100
0010
1000
0100
0010
,
0001
0100
0001
1000
0010
1000
0001
1000
0100
0010
0100
0010
0001
0010
0001
1000
,
0010
0100
0010
0000
1000
0000
0001
0000
1000
0000
0001
0000
0010
0100
0010
0000
0001
0000
1000
0000
0010
0100
0010
0000
1000
0000
0001
0000
0010
0100
0010
0000
,
0001
0000
0000
0011
0000
0000
0011
0000
1001
0000
0000
1001
0000
0000
1001
0000
,
0001
0010
0001
0100
0010
1000
0100
1000
0010
0100
0001
0010
0001
0100
0010
1000
0100
1000
0010
0100
0001
0010
0001
0100
,
0010
1000
0100
1000
0000
0000
0001
0000
0000
1000
0000
0000
2020
0000
0000
3030
0000
0000
2020
0000
0000
3030
0000
0000
,
0001
000M
0000
0001
000M
0001
000M
0001
,
000M
0000
0001
0001
0010
0100
2000
0000
,
3001
0100
0001
0010
0100
1000
0010
1000
0100
0010
0001
0100
0001
0010
0100
1000
0010
1000
0100
0010
0001
0100
0001
0010
,
0100
1000
0010
1000
0000
0000
0001
0000
0000
1000
0000
0000
2200
0000
0000
3300
0000
0000
2200
0000
0000
3300
0000
0000
,
0001
000M
0000
0001
000M
0001
000M
0001
,
0101
0000
0000
0101
0000
0000
0101
0000
1001
0000
0000
1001
0000
0000
1001
0000
,
1000
0000
0000
0100
0000
0000
0010
0000
0100
0000
1000
0000
0001
0000
0001
0000
,
0100
0010
0100
0010
1000
0001
0000
0001
,
0010
0100
0010
0100
1000
0001
0100
0100
,
0010
1000
0100
0010
0001
1000
0000
1000
,
0010
0100
0001
0001
1000
0001
0010
0100
,
0010
0001
0100
0001
1000
0001
0010
0100
,
1000
0000
1100
0000
1000
0001
0100
0010
,
1010
0000
0000
1010
0000
0000
1010
0000
1001
0000
0000
1001
0000
0000
1001
0000
,
0001
0010
0001
0010
0100
0000
1000
0000
0001
0000
1000
0000
0010
0000
0010
0000
,
0100
0000
0001
0100
0001
0000
1000
0000
0100
0000
0010
0001
0010
0000
0001
0000
,
1000
0010
1000
0010
0100
0000
0001
0000
1000
0000
0100
0000
1000
0000
0100
0000
,
0010
0000
0001
1000
0010
0000
0100
0000
0010
0000
0100
0001
0100
0000
0001
0000
,
1000
0100
1000
0100
0010
0000
0001
0000
1000
0000
0001
0000
1000
0000
0010
0000
,
0100
0000
0001
0100
0001
0000
1000
0000
0100
0000
0010
0001
0010
0000
0001
0000
,
1000
0010
1000
0010
0100
0000
0001
0000
1000
0000
1000
0000
0001
0010
0001
0010
,
0100
0000
0000
1100
0000
0000
1100
0000
1001
0000
0000
1001
0000
0000
1001
0000
,
0002
0000
0000
0103
0000
0010
0010
0010
,
0020
0000
0000
1030
0000
0000
1000
1000
,
0100
0000
0000
0000
0000
0000
0000
0000
0000
1000
0100
0010
0001
0100
0010
1000
0000
0000
0001
0000
0000
1000
0000
0000
,
0001
0000
0000
0000
0000
0000
0000
0000
0000
1000
0100
0010
0001
0100
0010
1000
0000
0000
0001
0000
0000
0001
0000
0000
,
0020
0000
0000
0130
0000
1000
1000
1000
,
2000
0000
0000
3001
0000
0000
0001
0001
,
0101
0000
0000
0000
0000
0000
0000
0000
0000
1000
0010
0100
0001
0010
0100
1000
0000
0000
0001
0000
0000
1000
0000
0000
,
1100
0000
0000
0000
0000
0000
0000
0000
0000
0001
0010
0100
1000
0010
0100
0001
0000
0000
1000
0000
0000
0001
0000
0000
,
0101
1000
1010
0001
0011
1000
1100
0001
,
0012
0013
1002
1003
0102
0103
1002
1003
,
0001
0010
0001
1000
0001
0100
0010
1000
0100
1000
0001
1000
0100
0010
0001
0100
,
0020
0030
0000
0000
,
0000
0000
0000
0000
,
1000
0010
1000
0001
0100
0001
1000
0001
1000
0100
0010
0100
0010
0001
0100
0010
,
1000
0100
1000
0001
0010
0001
1000
0001
0100
0010
0100
0010
1000
0010
1000
0001
,
0010
0100
0010
0000
0001
0000
1000
0000
0001
0000
1000
0000
0010
0100
0010
0000
1000
0000
0001
0000
0010
0100
0010
0000
0001
0000
1000
0000
0010
0100
0010
0000
,
1000
0001
0100
0001
1000
0010
0100
0001
0010
0100
0010
0100
1000
0100
1000
0001
,
1000
0010
1000
0001
0100
0001
1000
0001
1000
0100
0010
0100
0010
0001
0100
0010
,
1000
0100
1000
0001
0010
0001
1000
0001
0100
0010
0100
0010
1000
0010
1000
0001
,
0010
0100
0010
0000
0001
0000
1000
0000
0001
0000
1000
0000
0010
0100
0010
0000
1000
0000
0001
0000
0010
0100
0010
0000
0001
0000
1000
0000
0010
0100
0010
0000
,
1000
0000
0000
1010
0000
0000
1010
0000
1001
0000
0000
1001
0000
0000
1001
0000
,
1000
0010
1000
0100
0010
0001
0100
0001
0010
0100
1000
0010
1000
0100
0010
0001
0100
0001
0010
0100
1000
0010
1000
0100
,
0010
0001
0100
0001
0000
0000
1000
0000
0000
0001
0000
0000
0022
0000
0000
0033
0000
0000
0022
0000
0000
0033
0000
0000
,
1000
M000
0000
1000
M000
1000
M000
1000
,
M000
0000
1000
1000
0010
0100
0002
0000
,
1003
0100
1000
0010
0100
0001
0010
0001
0100
0010
1000
0100
1000
0010
0100
0001
0010
0001
0100
0010
1000
0100
1000
0010
,
0100
0001
0010
0001
0000
0000
1000
0000
0000
0001
0000
0000
0202
0000
0000
0303
0000
0000
0202
0000
0000
0303
0000
0000
,
1000
M000
0000
1000
M000
1000
M000
1000
,
1100
0000
0000
1100
0000
0000
1100
0000
1001
0000
0000
1001
0000
0000
1001
0000
,
0001
0100
0010
00M0
0000
0001
0010
0001
,
0100
0010
1000
M000
0000
0000
1000
0001
,
1000
0001
0010
0100
2000
0000
3001
0000
,
0100
0010
1000
M000
0000
0000
0000
0000
,
1000
0100
0010
00M0
0000
1000
0010
1000
,
0100
0010
0001
000M
0000
0000
0001
1000
,
0001
1000
0010
0100
0002
0000
1003
0000
,
0100
0010
0002
0203
0302
0203
0320
0030
,
4004
3003
0000
0000
0000
0000
0000
0000
,
1111
0000
0000
1111
0000
0000
1111
0000
1111
0000
0000
1111
0000
0000
1111
0000
,
0001
0100
0001
0010
0100
1000
0010
1000
0100
0010
0001
0100
0001
0010
0100
1000
0010
1000
0100
0010
0001
0100
0001
0010
,
0100
1000
0010
1000
0000
0000
0001
0000
0000
1000
0000
0000
2200
0000
0000
3300
0000
0000
2200
0000
0000
3300
0000
0000
,
0001
000M
0000
0001
000M
0001
000M
0001
,
000M
0000
0001
0001
0100
0010
2000
0000
,
3001
0010
0001
0100
0010
1000
0100
1000
0010
0100
0001
0010
0001
0100
0010
1000
0100
1000
0010
0100
0001
0010
0001
0100
,
0010
1000
0100
1000
0000
0000
0001
0000
0000
1000
0000
0000
2020
0000
0000
3030
0000
0000
2020
0000
0000
3030
0000
0000
,
0001
000M
0000
0001
000M
0001
000M
0001
,
0011
0000
0000
0011
0000
0000
0011
0000
1001
0000
0000
1001
0000
0000
1001
0000
,
0440
0330
0000
0000
0000
0000
0000
0000
,
1111
0000
0000
0000
;

//---------------dance-single - Gazebo----------------
#NOTES:
     dance-single:
     Gazebo:
     Hard:
     10:
     0.660,0.881,0.461,0.278,0.447,849.000,101.000,61.000,56.000,0.000:
0000
0000
0000
0000
,
0000
0000
0000
0000
,
0000
0000
0000
0000
,
0000
0000
1000
1000
0001
0100
0020
0000
,
0030
00M0
0000
0000
0000
0000
0000
0000
,
0000
0000
0000
0000
0001
0100
0020
0000
,
0030
00M0
0000
0000
0000
0000
0000
0000
,
1100
0000
0000
1100
0000
0000
1100
0000
1001
0000
0000
1001
0000
0000
1001
0000
,
1000
0010
0100
0020
0000
1030
1000
0001
,
0010
0100
0010
0100
1000
0001
0000
0001
,
0100
0000
0001
0000
0100
0000
0010
0000
1000
0000
0001
0100
0001
0000
1000
0000
,
0100
0010
0100
0010
0001
1000
0000
1000
,
0010
0100
0100
0010
1000
0001
0010
0100
,
0010
0001
1000
0001
0100
0010
1000
1000
,
0001
0000
0101
0000
1000
1000
0100
0010
,
0011
0000
0000
0011
0000
0000
0011
0000
1001
0000
0000
1001
0000
0000
1001
0000
,
1000
0010
1000
0010
0100
0000
0001
0000
1000
0000
0001
0000
0001
0000
0010
0000
,
0100
0000
1000
0100
1000
0000
0001
0000
0100
0000
0010
1000
0010
0000
1000
0000
,
0001
0010
0001
0010
0100
0000
1000
0000
0001
0000
1000
0000
1000
0000
0010
0000
,
0100
0000
0001
0100
0001
0000
1000
0000
0100
0000
0010
0001
0010
0000
0001
0000
,
1000
0010
1000
0010
0100
0000
0001
0000
1000
0000
0001
0000
0001
0000
0010
0000
,
0100
0000
1000
0100
1000
0000
0001
0000
0100
0000
0010
1000
0010
0000
1000
0000
,
0001
0010
0001
0010
0100
0000
1000
0000
0001
0000
0001
0000
1000
0010
1000
0010
,
0100
0000
0000
0101
0000
0000
0101
0000
1001
0000
0000
1001
0000
0000
1001
0000
,
2000
0000
0000
3100
0000
0010
0010
0010
,
0020
0000
0000
0031
0000
0000
0001
0001
,
0100
0000
0000
0000
0000
0000
0010
1000
0100
1000
0010
0000
1000
0000
0001
0000
,
1000
0000
0000
0000
0000
0000
0001
0100
0001
0010
0001
0000
1000
0000
1000
0000
,
0020
0000
0000
0130
0000
0001
0001
0001
,
0002
0000
0000
1003
0000
0000
1000
1000
,
1100
0000
0000
0000
0000
0000
0001
0100
0001
0010
0001
0000
1000
0000
0001
0000
,
0101
0000
0000
0000
0000
0000
1000
0100
1000
0010
1000
0000
0001
0000
1000
0000
,
1100
0001
0011
1000
1010
0001
0101
1000
,
2010
3010
2001
3001
2100
3100
2001
3001
,
1000
0010
1000
0001
1000
0100
0010
0001
0100
0001
1000
0001
0100
0010
1000
0100
,
0020
0030
0000
0000
,
0000
0000
0000
0000
,
0001
0010
0001
1000
0100
1000
0001
1000
0001
0100
0010
0100
0010
1000
0100
0010
,
0001
0100
0001
1000
0010
1000
0001
1000
0100
0000
0100
0000
0200
0000
0000
0000
,
1300
M000
0000
1000
M000
1000
M000
1000
,
M000
0000
1000
1000
0010
0100
0002
0000
,
1003
0100
1000
0001
0010
0001
1000
0001
1000
0010
0100
0010
0100
0001
0010
0100
,
1000
0010
1000
0001
0100
0001
1000
0001
0010
0000
0010
0000
0020
0000
0000
0000
,
0031
000M
0000
0001
000M
0001
000M
0001
,
0011
0000
0000
0011
0000
0000
0011
0000
1001
0000
0000
1001
0000
0000
1001
0000
,
0001
0010
0001
0100
0010
1000
0100
1000
0010
0100
0001
0010
0001
0100
0010
1000
,
0100
1000
0010
0100
0001
0000
1000
0000
2020
0000
3030
0000
2020
0000
3030
0000
,
0001
000M
0000
0001
000M
0001
000M
0001
,
000M
0000
0001
0001
0010
0100
2000
0000
,
3001
0100
0001
0010
0100
1000
0010
1000
0100
0010
0001
0100
0001
0010
0100
1000
,
0010
1000
0100
0010
0001
0000
1000
0000
2200
0000
3300
0000
2200
0000
3300
0000
,
0001
000M
0000
0001
000M
0001
000M
0001
,
0101
0000
0000
0101
0000
0000
0101
0000
1001
0000
0000
1001
0000
0000
1001
0000
,
1000
0000
0000
0100
0000
0000
0010
0000
0100
0000
1000
0000
0001
0000
0001
0000
,
0100
0010
0100
0010
1000
0001
0000
0001
,
0010
0100
0010
0100
1000
0001
0100
0100
,
0010
1000
0100
0010
0001
1000
0000
1000
,
0010
0100
0001
0001
1000
0001
0010
0100
,
0010
0001
0100
0001
1000
0001
0010
0100
,
1000
0000
1100
0000
1000
0001
0100
0010
,
1010
0000
0000
1010
0000
0000
1010
0000
1001
0000
0000
1001
0000
0000
1001
0000
,
0001
0010
0001
0010
0100
0000
1000
0000
0001
0000
1000
0000
0010
0000
0010
0000
,
0100
0000
0001
0100
0001
0000
1000
0000
0100
0000
0010
0001
0010
0000
0001
0000
,
1000
0010
1000
0010
0100
0000
0001
0000
1000
0000
0100
0000
1000
0000
0100
0000
,
0010
0000
0001
1000
0010
0000
0100
0000
0010
0000
0100
0001
0100
0000
0001
0000
,
1000
0100
1000
0100
0010
0000
0001
0000
1000
0000
0001
0000
1000
0000
0010
0000
,
0100
0000
0001
0100
0001
0000
1000
0000
0100
0000
0010
0001
0010
0000
0001
0000
,
1000
0010
1000
0010
0100
0000
0001
0000
1000
0000
1000
0000
0001
0010
0001
0010
,
0100
0000
0000
1100
0000
0000
1100
0000
1001
0000
0000
1001
0000
0000
1001
0000
,
0002
0000
0000
0103
0000
0010
0010
0010
,
0020
0000
0000
1030
0000
0000
1000
1000
,
0100
0000
0000
0000
0000
0000
0010
0001
0100
0001
0010
0000
0001
0000
1000
0000
,
0001
0000
0000
0000
0000
0000
1000
0100
1000
0010
1000
0000
0001
0000
0001
0000
,
0020
0000
0000
0130
0000
1000
1000
1000
,
2000
0000
0000
3001
0000
0000
0001
0001
,
0101
0000
0000
0000
0000
0000
1000
0100
1000
0010
1000
0000
0001
0000
1000
0000
,
1100
0000
0000
0000
0000
0000
0001
0100
0001
0010
0001
0000
1000
0000
0001
0000
,
0101
1000
1010
0001
0011
1000
1100
0001
,
0012
0013
1002
1003
0102
0103
1002
1003
,
0001
0010
0001
1000
0001
0100
0010
1000
0100
1000
0001
1000
0100
0010
0001
0100
,
0020
0030
0000
0000
,
0000
0000
0000
0000
,
1000
0010
1000
0001
0100
0001
1000
0001
1000
0100
0010
0100
0010
0001
0100
0010
,
1000
0100
1000
0001
0010
0001
1000
0001
0100
0000
0100
0000
0200
0000
0000
0000
,
0301
000M
0000
0001
000M
0001
000M
0001
,
000M
0000
0001
0001
0010
0100
2000
0000
,
3001
0100
0001
1000
0010
1000
0001
1000
0001
0010
0100
0010
0100
1000
0010
0100
,
0001
0010
0001
1000
0100
1000
0001
1000
0010
0000
0010
0000
0020
0000
0000
0000
,
1030
M000
0000
1000
M000
1000
M000
1000
,
1010
0000
0000
1010
0000
0000
1010
0000
1001
0000
0000
1001
0000
0000
1001
0000
,
1000
0010
1000
0100
0010
0001
0100
0001
0010
0100
1000
0010
1000
0100
0010
0001
,
0100
0001
0010
0100
1000
0000
0001
0000
0022
0000
0033
0000
0022
0000
0033
0000
,
1000
M000
0000
1000
M000
1000
M000
1000
,
M000
0000
1000
1000
0010
0100
0002
0000
,
1003
0100
1000
0010
0100
0001
0010
0001
0100
0010
1000
0100
1000
0010
0100
0001
,
0010
0001
0100
0010
1000
0000
0001
0000
0202
0000
0303
0000
0202
0000
0303
0000
,
1000
M000
0000
1000
M000
1000
M000
1000
,
1100
0000
0000
1100
0000
0000
1100
0000
1001
0000
0000
1001
0000
0000
1001
0000
,
0001
0100
0010
00M0
0000
0001
0010
0001
,
0100
0010
1000
M000
0000
0000
1000
0001
,
1000
0001
0010
0100
2000
0000
3001
0000
,
0100
0010
1000
M000
0000
0000
0000
0000
,
1000
0100
0010
00M0
0000
1000
0010
1000
,
0100
0010
0001
000M
0000
0000
0001
1000
,
0001
1000
0010
0100
0002
0000
1003
0000
,
0100
0010
0002
0203
0302
0203
0320
0030
,
4004
3003
0000
0000
0000
0000
0000
0000
,
1MM1
0000
0000
1MM1
0000
0000
1MM1
0000
1MM1
0000
0000
1MM1
0000
0000
1MM1
0000
,
0001
0100
0001
0010
0100
1000
0010
1000
0100
0010
0001
0100
0001
0010
0100
1000
,
0010
1000
0100
0010
0001
0000
1000
0000
2200
0000
3300
0000
2200
0000
3300
0000
,
0001
000M
0000
0001
000M
0001
000M
0001
,
000M
0000
0001
0001
0100
0010
2000
0000
,
3001
0010
0001
0100
0010
1000
0100
1000
0010
0100
0001
0010
0001
0100
0010
1000
,
0100
1000
0010
0100
0001
0000
1000
0000
2020
0000
3030
0000
2020
0000
3030
0000
,
0001
000M
0000
0001
000M
0001
000M
0001
,
0011
0000
0000
0011
0000
0000
0011
0000
1001
0000
0000
1001
0000
0000
1001
0000
,
0440
0330
0000
0000
0000
0000
0000
0000
,
1MM1
0000
0000
0000
;

//---------------dance-single - Gangnam----------------
#NOTES:
     dance-single:
     Gangnam:
     Edit:
     12:
     0.656,1.000,0.461,0.251,0.484,835.000,101.000,55.000,28.000,7.000:
0000
0000
0000
0000
,
0000
0000
0000
0000
,
0000
0000
0000
0000
,
0000
0000
1000
1000
0001
0100
0020
0000
,
0030
00M0
0000
0000
0000
0000
0000
0000
,
0000
0000
0000
0000
0001
0100
0020
0000
,
0030
00M0
0000
0000
0000
0000
0000
0000
,
1100
0000
0000
1100
0000
0000
1100
0000
1001
0000
0000
1001
0000
0000
1001
0000
,
1000
0010
0100
0020
0000
1030
1000
0001
,
0010
0100
0010
0100
1000
0001
0000
0001
,
0100
0000
0001
0000
0100
0000
0010
0000
1000
0000
0001
0100
0001
0000
1000
0000
,
0100
0010
0100
0010
0001
1000
0000
1000
,
0010
0100
0100
0010
1000
0001
0010
0100
,
0010
0001
1000
0001
0100
0010
1000
1000
,
0001
0000
0101
0000
1000
1000
0100
0010
,
0011
0000
0000
0011
0000
0000
0011
0000
1001
0000
0000
1001
0000
0000
1001
0000
,
1000
0010
1000
0010
0100
0000
0001
0000
1000
0000
0001
0000
0001
0000
0010
0000
,
0100
0000
1000
0100
1000
0000
0001
0000
0100
0000
0010
1000
0010
0000
1000
0000
,
0001
0010
0001
0010
0100
0000
1000
0000
0001
0000
1000
0000
1000
0000
0010
0000
,
0100
0000
0001
0100
0001
0000
1000
0000
0100
0000
0010
0001
0010
0000
0001
0000
,
1000
0010
1000
0010
0100
0000
0001
0000
1000
0000
0001
0000
0001
0000
0010
0000
,
0100
0000
1000
0100
1000
0000
0001
0000
0100
0000
0010
1000
0010
0000
1000
0000
,
0001
0010
0001
0010
0100
0000
1000
0000
0001
0000
0001
0000
1000
0010
1000
0010
,
0100
0000
0000
0101
0000
0000
0101
0000
1001
0000
0000
1001
0000
0000
1001
0000
,
2000
0000
0000
3100
0000
0010
0010
0010
,
0020
0000
0000
0031
0000
0000
0001
0001
,
0100
0000
0000
0000
0000
0000
0000
0000
0000
0001
0100
0010
1000
0100
0010
0001
0000
0000
1000
0000
0000
0001
0000
0000
,
1000
0000
0000
0000
0000
0000
0000
0000
0000
0001
0100
0010
1000
0100
0010
0001
0000
0000
1000
0000
0000
1000
0000
0000
,
0020
0000
0000
0130
0000
0001
0001
0001
,
0002
0000
0000
1003
0000
0000
1000
1000
,
1100
0000
0000
0000
0000
0000
0000
0000
0000
0001
0010
0100
1000
0010
0100
0001
0000
0000
1000
0000
0000
0001
0000
0000
,
0101
0000
0000
0000
0000
0000
0000
0000
0000
1000
0010
0100
0001
0010
0100
1000
0000
0000
0001
0000
0000
1000
0000
0000
,
1100
0001
0011
1000
1010
0001
0101
1000
,
2010
3010
2001
3001
2100
3100
2001
3001
,
1000
0010
1000
0001
1000
0100
0010
0001
0100
0001
1000
0001
0100
0010
1000
0100
,
0020
0030
0000
0000
,
0000
0000
0000
0000
,
0001
1000
0001
0001
,
1000
0001
1000
1000
,
0001
1000
0001
0001
,
1000
0001
1000
1000
,
0001
1000
0001
0001
,
1000
0001
1000
1000
,
0001
1000
0001
0001
,
1010
0000
0000
1010
0000
0000
1010
0000
1001
0000
0000
1001
0000
0000
1001
0000
,
0001
0010
0001
0100
0010
1000
0100
1000
0010
0100
0001
0010
0001
0100
0010
1000
0100
1000
0010
0100
0001
0010
0001
0100
,
0010
1000
0100
1000
0000
0000
0001
0000
0000
1000
0000
0000
2020
0000
0000
3030
0000
0000
2020
0000
0000
3030
0000
0000
,
0001
000M
0000
0001
000M
0001
000M
0001
,
000M
0000
0001
0001
0010
0100
2000
0000
,
3001
0100
0001
0010
0100
1000
0010
1000
0100
0010
0001
0100
0001
0010
0100
1000
0010
1000
0100
0010
0001
0100
0001
0010
,
0100
1000
0010
1000
0000
0000
0001
0000
0000
1000
0000
0000
2200
0000
0000
3300
0000
0000
2200
0000
0000
3300
0000
0000
,
0001
000M
0000
0001
000M
0001
000M
0001
,
0101
0000
0000
0101
0000
0000
0101
0000
1001
0000
0000
1001
0000
0000
1001
0000
,
1000
0000
0000
0100
0000
0000
0010
0000
0100
0000
1000
0000
0001
0000
0001
0000
,
0100
0010
0100
0010
1000
0001
0000
0001
,
0010
0100
0010
0100
1000
0001
0100
0100
,
0010
1000
0100
0010
0001
1000
0000
1000
,
0010
0100
0001
0001
1000
0001
0010
0100
,
0010
0001
0100
0001
1000
0001
0010
0100
,
1000
0000
1100
0000
1000
0001
0100
0010
,
1010
0000
0000
1010
0000
0000
1010
0000
1001
0000
0000
1001
0000
0000
1001
0000
,
0001
0010
0001
0010
0100
0000
1000
0000
0001
0000
1000
0000
0010
0000
0010
0000
,
0100
0000
0001
0100
0001
0000
1000
0000
0100
0000
0010
0001
0010
0000
0001
0000
,
1000
0010
1000
0010
0100
0000
0001
0000
1000
0000
0100
0000
1000
0000
0100
0000
,
0010
0000
0001
1000
0010
0000
0100
0000
0010
0000
0100
0001
0100
0000
0001
0000
,
1000
0100
1000
0100
0010
0000
0001
0000
1000
0000
0001
0000
1000
0000
0010
0000
,
0100
0000
0001
0100
0001
0000
1000
0000
0100
0000
0010
0001
0010
0000
0001
0000
,
1000
0010
1000
0010
0100
0000
0001
0000
1000
0000
1000
0000
0001
0010
0001
0010
,
0100
0000
0000
1100
0000
0000
1100
0000
1001
0000
0000
1001
0000
0000
1001
0000
,
0002
0000
0000
0103
0000
0010
0010
0010
,
0020
0000
0000
1030
0000
0000
1000
1000
,
0100
0000
0000
0000
0000
0000
0000
0000
0000
1000
0100
0010
0001
0100
0010
1000
0000
0000
0001
0000
0000
1000
0000
0000
,
0001
0000
0000
0000
0000
0000
0000
0000
0000
1000
0100
0010
0001
0100
0010
1000
0000
0000
0001
0000
0000
0001
0000
0000
,
0020
0000
0000
0130
0000
1000
1000
1000
,
2000
0000
0000
3001
0000
0000
0001
0001
,
0101
0000
0000
0000
0000
0000
0000
0000
0000
1000
0010
0100
0001
0010
0100
1000
0000
0000
0001
0000
0000
1000
0000
0000
,
1100
0000
0000
0000
0000
0000
0000
0000
0000
0001
0010
0100
1000
0010
0100
0001
0000
0000
1000
0000
0000
0001
0000
0000
,
0101
1000
1010
0001
0011
1000
1100
0001
,
0012
0013
1002
1003
0102
0103
1002
1003
,
0001
0010
0001
1000
0001
0100
0010
1000
0100
1000
0001
1000
0100
0010
0001
0100
,
0020
0030
0000
0000
,
0000
0000
0000
0000
,
1000
0001
1000
1000
,
0001
1000
0001
0001
,
1000
0001
1000
1000
,
0001
1000
0001
0001
,
1000
0001
1000
1000
,
0001
1000
0001
0001
,
1000
0001
1000
1000
,
0011
0000
0000
0011
0000
0000
0011
0000
1001
0000
0000
1001
0000
0000
1001
0000
,
1000
0010
1000
0100
0010
0001
0100
0001
0010
0100
1000
0010
1000
0100
0010
0001
0100
0001
0010
0100
1000
0010
1000
0100
,
0010
0001
0100
0001
0000
0000
1000
0000
0000
0001
0000
0000
0022
0000
0000
0033
0000
0000
0022
0000
0000
0033
0000
0000
,
1000
M000
0000
1000
M000
1000
M000
1000
,
M000
0000
1000
1000
0010
0100
0002
0000
,
1003
0100
1000
0010
0100
0001
0010
0001
0100
0010
1000
0100
1000
0010
0100
0001
0010
0001
0100
0010
1000
0100
1000
0010
,
0100
0001
0010
0001
0000
0000
1000
0000
0000
0001
0000
0000
0202
0000
0000
0303
0000
0000
0202
0000
0000
0303
0000
0000
,
1000
M000
0000
1000
M000
1000
M000
1000
,
1100
0000
0000
1100
0000
0000
1100
0000
1001
0000
0000
1001
0000
0000
1001
0000
,
0001
0100
0010
00M0
0000
0001
0010
0001
,
0100
0010
1000
M000
0000
0000
1000
0001
,
1000
0001
0010
0100
2000
0000
3001
0000
,
0100
0010
1000
M000
0000
0000
0000
0000
,
1000
0100
0010
00M0
0000
1000
0010
1000
,
0100
0010
0001
000M
0000
0000
0001
1000
,
0001
1000
0010
0100
0002
0000
1003
0000
,
0100
0010
0002
0203
0302
0203
0320
0030
,
4004
3003
0000
0000
0000
0000
0000
0000
,
1111
0000
0000
1111
0000
0000
1111
0000
1111
0000
0000
1111
0000
0000
1111
0000
,
0001
0100
0001
0010
0100
1000
0010
1000
0100
0010
0001
0100
0001
0010
0100
1000
0010
1000
0100
0010
0001
0100
0001
0010
,
0100
1000
0010
1000
0000
0000
0001
0000
0000
1000
0000
0000
2200
0000
0000
3300
0000
0000
2200
0000
0000
3300
0000
0000
,
0001
000M
0000
0001
000M
0001
000M
0001
,
000M
0000
0001
0001
0100
0010
2000
0000
,
3001
0010
0001
0100
0010
1000
0100
1000
0010
0100
0001
0010
0001
0100
0010
1000
0100
1000
0010
0100
0001
0010
0001
0100
,
0010
1000
0100
1000
0000
0000
0001
0000
0000
1000
0000
0000
2020
0000
0000
3030
0000
0000
2020
0000
0000
3030
0000
0000
,
0001
000M
0000
0001
000M
0001
000M
0001
,
0011
0000
0000
0011
0000
0000
0011
0000
1001
0000
0000
1001
0000
0000
1001
0000
,
0440
0330
0000
0000
0000
0000
0000
0000
,
1111
0000
0000
0000
;

//---------------dance-single - Gazebo----------------
#NOTES:
     dance-single:
     Gazebo:
     Beginner:
     3:
     0.203,0.400,0.005,0.000,0.000,311.000,1.000,0.000,0.000,0.000:
0001
1000
0001
0001
,
1000
0001
1000
1000
,
0001
1000
0001
0001
,
1000
0001
1000
1000
,
0001
1000
0001
0001
,
1000
0001
1000
1000
,
0001
1000
0001
0001
,
0000
0000
0000
0000
,
1000
0001
1000
1000
,
0001
1000
0001
0001
,
1000
0001
1000
1000
,
0001
1000
0001
0001
,
1000
0001
1000
1000
,
0001
1000
0001
0001
,
1000
0001
1000
1000
,
0001
1000
0001
0001
,
1000
0001
1000
1000
,
0001
1000
0001
0001
,
1000
0001
1000
1000
,
0001
1000
0001
0001
,
1000
0001
1000
1000
,
0001
1000
0001
0001
,
1000
0001
1000
1000
,
0001
1000
0001
0001
,
0000
0000
0000
0000
,
0000
0000
0000
0000
,
0000
0000
0000
0000
,
0000
0000
0000
0000
,
0000
0000
0000
0000
,
0000
0000
0000
0000
,
0000
0000
0000
0000
,
0000
0000
0000
0000
,
0000
0000
0000
0000
,
0000
0000
0000
0000
,
0000
0000
0000
0000
,
0000
0000
0000
0000
,
0000
0000
0000
0000
,
0001
1000
0001
0001
,
1000
0001
1000
1000
,
0001
1000
0001
0001
,
1000
0001
1000
1000
,
0001
1000
0001
0001
,
1000
0001
1000
1000
,
0001
1000
0001
0001
,
1000
0001
1000
1000
,
0001
1000
0001
1000
0001
1000
0001
1000
,
0001
1000
0001
1000
0001
1000
0001
0000
,
0000
0000
0000
0000
,
0000
0000
0000
0000
,
1000
0001
1000
0001
1000
0001
1000
0001
,
1000
0001
1000
0001
1000
0001
1000
0000
,
0000
0000
0000
0000
,
0000
0000
0000
0000
,
0001
1000
0001
0001
,
1000
0001
1000
1000
,
0001
1000
0001
0001
,
1000
0001
1000
1000
,
0001
1000
0001
0001
,
1000
0001
1000
1000
,
0001
1000
0001
0001
,
1000
0001
1000
1000
,
0001
1000
0001
0001
,
1000
0001
1000
1000
,
0001
1000
0001
0001
,
1000
0001
1000
1000
,
0001
1000
0001
0001
,
1000
0001
1000
1000
,
0001
1000
0001
0001
,
1000
0001
1000
1000
,
0000
0000
0000
0000
,
0000
0000
0000
0000
,
0000
0000
0000
0000
,
0000
0000
0000
0000
,
0000
0000
0000
0000
,
0000
0000
0000
0000
,
0000
0000
0000
0000
,
0000
0000
0000
0000
,
0000
0000
0000
0000
,
0000
0000
0000
0000
,
0000
0000
0000
0000
,
0000
0000
0000
0000
,
0000
0000
0000
0000
,
1000
0001
1000
1000
,
0001
1000
0001
0001
,
1000
0001
1000
1000
,
0001
1000
0001
0001
,
1000
0001
1000
1000
,
0001
1000
0001
0001
,
1000
0001
1000
1000
,
0001
1000
0001
0001
,
1000
0001
1000
0001
1000
0001
1000
0001
,
1000
0001
1000
0001
1000
0001
1000
0000
,
0000
0000
0000
0000
,
0000
0000
0000
0000
,
0001
1000
0001
1000
0001
1000
0001
1000
,
0001
1000
0001
1000
0001
1000
0001
0000
,
0000
0000
0000
0000
,
0000
0000
0000
0000
,
0000
0000
0000
0000
,
0000
0000
0000
0000
,
0000
0000
0000
0000
,
0000
0000
0000
0000
,
0000
0000
0000
0000
,
0000
0000
0000
0000
,
0000
0000
0000
0000
,
0000
0000
0000
0000
,
0000
0000
0000
0000
,
0000
0000
0000
0000
,
1000
0001
1000
0001
1000
0001
1000
0001
,
1000
0001
1000
0001
1000
0001
1000
0000
,
0000
0000
0000
0000
,
0000
0000
0000
0000
,
0001
1000
0001
1000
0001
1000
0001
1000
,
0001
1000
0001
1000
0001
1000
0001
0000
,
0000
0000
0000
0000
,
0000
0000
0000
0000
,
0000
0000
0000
0000
,
1001
0000
0000
0000
;
