#TITLE:Decisive Battle in the Blue Sky;
#SUBTITLE:Atelier Iris Eternal Mana 2 (2005);
#ARTIST:Ken Nakagawa, Daisuke Achiwa;
#TITLETRANSLIT:;
#SUBTITLETRANSLIT:;
#ARTISTTRANSLIT:;
#CREDIT:;
#BANNER:Decisive Battle in the Blue Sky.png;
#BACKGROUND:Decisive Battle in the Blue Sky-bg.png;
#LYRICSPATH:;
#CDTITLE:!dewdon.png;
#MUSIC:Decisive Battle in the Blue Sky.mp3;
#OFFSET:1.020;
#SAMPLESTART:41.727;
#SAMPLELENGTH:24.000;
#SELECTABLE:YES;
#BPMS:0.000=153.370;
#STOPS:;
#BGCHANGES:;
// cache tags:
#FIRSTBEAT:3.667;
#LASTBEAT:188.000;
#SONGFILENAME:Songs/VGMP 3/Decisive Battle in the Blue Sky (Dew & dondon151)/Decisive Battle in the Blue Sky.sm;
#HASMUSIC:1;
#HASBANNER:1;
#MUSICLENGTH:81.815;
// end cache tags

//---------------dance-single - Blank----------------
#NOTES:
     dance-single:
     Blank:
     Hard:
     11:
     1.000,1.000,1.000,0.000,1.000,617.000,108.000,0.000,0.000,0.000:
0000
0000
0000
0000
0000
0000
0000
0000
0000
0000
0000
0000
0000
0000
0000
0000
0000
0000
0000
0000
0000
0000
0100
0010
,
1001
0000
0000
0001
1000
0100
0010
0000
1000
0000
0010
0000
0010
0000
0000
0000
0010
0000
0010
0000
0000
0000
1000
0100
,
0011
0000
0000
0001
1000
0100
0010
0000
1000
0000
0010
0000
0010
0000
0000
0000
0010
0000
0010
0000
0000
0000
0100
0000
,
0011
0000
0000
0001
1000
0100
0010
0000
1000
0000
0010
0000
0010
0000
0000
0000
0010
0000
0010
0000
0000
0000
1000
0100
,
0011
0000
0000
0001
0100
0010
1000
0100
0010
0001
1000
0100
0010
0100
1000
0100
0010
0001
1000
0001
0010
0001
1000
0100
,
0011
0000
0000
0001
1000
0100
0010
0000
1000
0000
0010
0000
0010
0000
0000
0000
0010
0000
0010
0000
0000
0000
1000
0100
,
0011
0000
0000
0001
1000
0100
0010
0000
1000
0000
0010
0000
0010
0000
0000
0000
0010
0000
0010
0000
0000
0000
0100
0000
,
0011
0000
0000
0001
1000
0100
0010
0000
1000
0000
0010
0000
0010
0000
0000
0000
0010
0000
0010
0000
0000
0000
1000
0100
,
0011
0000
0000
0001
0100
0010
1000
0100
0010
0001
1000
0100
0010
0100
1000
0100
0010
0001
1000
0001
0010
0001
1000
0100
,
0011
0011
0011
1100
0100
0100
0010
0010
0010
1000
1000
1000
,
0011
0011
0011
1100
0100
0100
0010
0001
1000
0001
1000
0100
,
0011
0011
0011
1100
0100
0100
0010
0010
0010
1000
1000
1000
,
0011
0011
0011
1100
0100
0100
1000
0100
0010
0100
0010
0001
,
1010
1000
1000
0011
1000
1000
0100
0100
0100
0011
0100
0100
,
0010
0010
0010
0101
0010
0010
1001
0000
0001
0000
0001
0001
,
0010
0100
1000
0001
0010
0100
0010
0100
1000
0001
0010
0100
1000
0100
0010
0100
0010
0001
1000
0100
0010
0001
1000
0100
,
0011
0100
1001
0010
0100
0010
1000
0100
0010
0001
0010
0100
,
0011
0100
1001
0010
0100
0010
1000
0001
0110
1000
0011
1000
,
0110
0001
1010
0100
0010
1000
0001
0010
0100
1000
0010
1000
,
0110
0001
1010
0100
0010
0100
1001
0010
0101
1000
0011
0100
,
1001
0010
0101
1000
0100
0010
0001
0100
0010
0100
0001
0010
,
1001
0010
0101
1000
0100
0010
0001
0100
1010
0100
1001
0010
,
1100
0010
0101
1000
0100
0010
0001
0100
0010
1000
0001
0010
,
1100
0010
0101
1000
0100
0010
1001
0100
0010
1000
0100
1000
,
0011
0100
1001
0010
0100
0010
1000
0100
0010
0001
0010
0100
,
0011
0100
1001
0010
0100
0010
1100
0001
0110
1000
0011
1000
,
0110
0001
1010
0100
0010
1000
0001
0010
0100
1000
0010
1000
,
0110
0001
1010
0100
0010
0100
1001
0010
0101
1000
0011
0100
,
1001
0010
0101
1000
0100
0010
0001
0100
0010
0100
0001
0010
,
1001
0010
0101
1000
0100
0010
1001
0010
1100
0010
0101
0010
,
1100
0010
0101
1000
0100
0010
0001
0100
0010
1000
0001
0010
,
1100
0000
0010
0000
0101
0000
0010
0000
1000
0000
0100
0000
0010
0001
1000
0100
0010
0001
1000
0010
0100
0010
1000
0100
,
0011
0011
0011
1100
0100
0100
0010
0010
0010
1000
1000
1000
,
0011
0011
0011
1100
0100
0100
0010
0001
1000
0001
1000
0100
,
0011
0011
0011
1100
0100
0100
0010
0010
0010
1000
1000
1000
,
0011
0011
0011
1100
0100
0100
1000
0100
0010
0100
0010
0001
,
1010
1000
1000
0011
1000
1000
0100
0100
0100
0011
0100
0100
,
0010
0010
0010
0101
0010
0010
1001
0000
0001
0000
0001
0001
,
0010
0100
1000
0001
0010
0100
0010
0100
1000
0001
0010
0100
1000
0100
0010
0100
0010
0001
1000
0100
0010
0001
1000
0100
,
0011
0000
0000
0001
1000
0100
0010
0000
1000
0000
0010
0000
0010
0000
0000
0000
0010
0000
0010
0000
0000
0000
1000
0100
,
0011
0000
0000
0001
1000
0100
0010
0000
1000
0000
0010
0000
0010
0000
0000
0000
0010
0000
0010
0000
0000
0000
0100
0000
,
0011
0000
0000
0001
1000
0100
0010
0000
1000
0000
0010
0000
0010
0000
0000
0000
0010
0000
0010
0000
0000
0000
1000
0100
,
0011
0000
0000
0001
0100
0010
1000
0100
0010
0001
1000
0100
0010
0100
1000
0100
0010
0001
1000
0001
0010
0001
1000
0100
,
0011
0000
0000
0001
1000
0100
0010
0000
1000
0000
0010
0000
0010
0000
0000
0000
0010
0000
0010
0000
0000
0000
1000
0100
,
0011
0000
0000
0001
1000
0100
0010
0000
1000
0000
0010
0000
0010
0000
0000
0000
0010
0000
0010
0000
0000
0000
0100
0000
,
0011
0000
0000
0001
1000
0100
0010
0000
1000
0000
0010
0000
0010
0000
0000
0000
0010
0000
0010
0000
0000
0000
1000
0100
,
0011
0000
0000
0001
0100
0010
1000
0100
0010
0001
1000
0100
0010
0100
1000
0100
0010
0001
1000
0001
0010
0001
1000
0100
,
0011
0000
0000
0000
;

//---------------dance-single - Blank----------------
#NOTES:
     dance-single:
     Blank:
     Challenge:
     12:
     1.000,1.000,1.000,0.000,1.000,617.000,283.000,0.000,0.000,0.000:
0000
0000
0000
0000
0000
0000
0000
0000
0000
0000
0000
0000
0000
0000
0000
0000
0000
0000
0000
0000
0000
0000
0100
0010
,
1001
0000
0000
0001
1000
0100
0010
0000
1000
0000
0010
0000
0010
0000
0000
0000
0010
0000
0010
0000
0000
0000
1000
0100
,
0011
0000
0000
0001
1000
0100
0010
0000
1000
0000
0010
0000
0010
0000
0000
0000
0010
0000
0010
0000
0000
0000
1100
0000
,
0011
0000
0000
0001
1000
0100
0010
0000
1000
0000
0010
0000
0010
0000
0000
0000
0010
0000
0010
0000
0000
0000
1000
0100
,
0011
0000
0000
0001
1000
0100
0011
1000
0100
0010
0001
0010
1100
0010
0001
1000
0110
0001
1010
0100
0011
0100
1001
0100
,
0011
0000
0000
0001
1000
0100
0010
0000
1000
0000
0010
0000
0010
0000
0000
0000
0010
0000
0010
0000
0000
0000
1000
0100
,
0011
0000
0000
0001
1000
0100
0010
0000
1000
0000
0010
0000
0010
0000
0000
0000
0010
0000
0010
0000
0000
0000
1100
0000
,
0011
0000
0000
0001
1000
0100
0010
0000
1000
0000
0010
0000
0010
0000
0000
0000
0010
0000
0010
0000
0000
0000
1000
0100
,
0011
0000
0000
0001
1000
0100
0011
1000
0100
0010
0001
0010
1100
0010
0001
1000
0110
0001
1010
0100
0011
0100
1001
0100
,
0011
0011
0011
1100
0100
0100
0010
0010
0010
1000
1000
1000
,
0011
0011
0011
1100
0100
0100
1100
0110
0011
1010
0110
0101
,
1001
1001
1001
0110
0100
0100
0010
0010
0010
1000
1000
1000
,
0011
0011
0011
1100
0100
0100
1100
0110
0011
1010
0110
0101
,
1010
1000
1000
0011
1100
1100
1010
1010
1010
0011
0110
0110
,
0101
0101
0101
0011
1001
1001
0011
0000
0011
0000
0011
0011
,
1001
0010
0100
1000
0001
0010
0100
1000
0101
0010
1100
0001
0110
1000
0101
0010
1100
0001
0110
1000
0101
0010
1001
0100
,
0011
0110
1000
0011
1010
0100
0011
0100
1010
0001
0110
1000
,
0110
0011
1000
0110
0011
1000
0101
1000
0011
0100
1001
0100
,
0011
0101
1000
0011
0101
0010
0101
1000
0101
0010
0101
1000
,
0011
0101
1000
0011
0101
0010
0101
1010
1100
1010
0110
1100
,
0110
1001
0010
1100
1010
0001
1100
0001
1010
0100
1001
0010
,
1001
1100
0010
1001
1100
0010
0101
0010
1100
0001
0110
0001
,
1100
0101
0010
1100
0101
1000
0101
0010
0101
1000
0101
0010
,
1100
0101
0010
1100
0101
1000
0101
1010
0110
1001
1010
0110
,
0011
0110
1000
0011
1010
0100
0011
0100
1010
0001
0110
1000
,
0110
0011
1000
0110
0011
1000
0101
1000
0011
0100
1001
0100
,
0011
0101
1000
0011
0101
0010
0101
1000
0101
0010
0101
1000
,
0011
0101
1000
0011
0101
0010
0101
1010
1001
0110
1010
1100
,
0101
1100
0010
0101
1100
0010
0101
0010
1100
0010
0101
1000
,
0101
1100
0010
0101
1100
0010
1100
0010
0101
1000
0011
0100
,
0011
0101
1000
0011
0101
1000
0101
0010
0101
1000
0101
0010
,
0101
0000
1001
0000
0010
0000
0101
0000
1001
0000
0100
0000
1001
0010
0101
1000
0011
0100
1001
0010
1100
0001
1010
0100
,
0011
0011
0011
1100
0100
0100
0010
0010
0010
1000
1000
1000
,
0011
0011
0011
1100
0100
0100
1100
0110
0011
1010
0110
0101
,
1001
1001
1001
0110
0100
0100
0010
0010
0010
1000
1000
1000
,
0011
0011
0011
1100
0100
0100
1100
0110
0011
1010
0110
0101
,
1010
1000
1000
0011
1100
1100
1010
1010
1010
0011
0110
0110
,
0101
0101
0101
0011
1001
1001
0011
0000
0011
0000
0011
0011
,
1001
0010
0100
1000
0001
0010
0100
1000
0101
0010
1100
0001
0110
1000
0101
0010
1100
0001
0110
1000
0101
0010
1001
0100
,
0011
0000
0000
0001
1000
0100
0010
0000
1000
0000
0010
0000
0010
0000
0000
0000
0010
0000
0010
0000
0000
0000
1000
0100
,
0011
0000
0000
0001
1000
0100
0010
0000
1000
0000
0010
0000
0010
0000
0000
0000
0010
0000
0010
0000
0000
0000
1100
0000
,
0011
0000
0000
0001
1000
0100
0010
0000
1000
0000
0010
0000
0010
0000
0000
0000
0010
0000
0010
0000
0000
0000
1000
0100
,
0011
0000
0000
0001
1000
0100
0011
1000
0100
0010
0001
0010
1100
0010
0001
1000
0110
0001
1010
0100
0011
0100
1001
0100
,
0011
0000
0000
0001
1000
0100
0010
0000
1000
0000
0010
0000
0010
0000
0000
0000
0010
0000
0010
0000
0000
0000
1000
0100
,
0011
0000
0000
0001
1000
0100
0010
0000
1000
0000
0010
0000
0010
0000
0000
0000
0010
0000
0010
0000
0000
0000
1100
0000
,
0011
0000
0000
0001
1000
0100
0010
0000
1000
0000
0010
0000
0010
0000
0000
0000
0010
0000
0010
0000
0000
0000
1000
0100
,
0011
0000
0000
0001
1000
0100
0011
1000
0100
0010
0001
0010
1100
0010
0001
1000
0110
0001
1010
0100
0011
0100
1001
0100
,
0011
0000
0000
0000
;
