#TITLE:My Oh My;
#SUBTITLE:(Shpadoinkle);
#ARTIST:Aqua;
#TITLETRANSLIT:;
#SUBTITLETRANSLIT:;
#ARTISTTRANSLIT:;
#CREDIT:;
#BANNER:../thisandthat-bn.png;
#BACKGROUND:../thisnthat-bg.png;
#LYRICSPATH:;
#CDTITLE:;
#MUSIC:My Oh My.ogg;
#OFFSET:-0.383;
#SAMPLESTART:45.496;
#SAMPLELENGTH:12.000;
#SELECTABLE:YES;
#DISPLAYBPM:133.000;
#BPMS:0.000=133.000,63.000=266.000,63.500=133.000,167.000=266.000,167.500=133.000;
#STOPS:63.000=0.113
,167.000=0.113
;
#BGCHANGES:;
// cache tags:
#FIRSTBEAT:8.000;
#LASTBEAT:447.000;
#SONGFILENAME:Songs/Seph, Gson & Shpadoinkle's Pack of This 'n That/My Oh My (10)/My Oh My.sm;
#HASMUSIC:1;
#HASBANNER:1;
#MUSICLENGTH:105.000;
// end cache tags

//---------------dance-single - Shpadoinkle----------------
#NOTES:
     dance-single:
     Shpadoinkle:
     Challenge:
     10:
     1.000,1.000,0.600,1.000,0.786,834.000,63.000,159.000,50.000,1.000:

0000
0000
0000
0000
,
0000
0000
0000
0000
,
1001
0000
1000
0100
0010
0000
0001
0000
0011
0000
0010
0000
0100
0000
1000
0000
,
1010
0000
0000
0000
0000
0000
0010
0000
0000
0100
0000
0000
0010
0000
0000
0000
0000
0000
1000
0000
0000
0000
0000
0000
0001
0000
1000
0000
0001
0000
1000
0000
0001
0000
1000
0000
0001
0000
0000
0000
0000
0000
0000
0000
0000
0000
0000
0000
,
1010
0000
1000
0001
0010
0000
0001
0000
0101
0000
0100
0000
0001
0000
1000
0000
,
0010
0000
0000
1000
0000
0000
0100
0000
0000
0010
0000
0000
0001
0010
0001
0010
0001
0010
0001
0000
0000
1000
0000
0000
,
0120
0030
2100
3000
0201
0300
1000
0010
,
0100
0001
0010
0100
2100
3000
M000
1000
,
0020
0030
0200
0300
0001
1000
0001
1000
,
0022
0000
0033
0000
2200
0000
3300
0000
0220
0000
0330
0000
0000
MMMM
0000
0000
,
1000
0100
0010
0001
1000
0010
0100
0001
1000
0100
0010
0001
0010
0001
0100
0010
,
1000
0001
0010
0100
1000
0001
0100
0010
2000
0000
0000
0000
0000
3000
0000
0000
,
0001
0010
0100
1000
0001
0100
0010
1000
0001
0010
0100
1000
0100
1000
0010
0100
,
0001
0000
0000
1000
0000
0000
0100
0000
0000
0010
0000
0000
0001
0000
0000
1000
0000
0000
0010
0000
0000
0100
0000
0000
0002
0000
0000
0000
0000
0000
0000
0000
0000
0000
0000
0000
0000
0000
0000
0000
0003
0000
0000
0000
0000
0000
0000
0000
,
1000
0000
0001
0010
0100
0000
2000
0000
3000
0000
0100
0000
0010
0000
0001
0000
,
1000
0100
1000
0100
1000
0010
1000
0010
1000
0001
1000
0001
0100
0000
0000
0000
,
0102
0003
2010
3000
0120
0030
1000
0001
,
1000
0001
1000
0010
2010
3000
0000
0001
,
2000
3000
0200
0300
0010
0001
1000
0010
,
0220
0330
2200
3300
0202
0303
MMMM
0000
,
2100
3000
0120
0030
2001
3000
0001
0010
,
0001
1000
0001
1000
0200
0300
0000
1000
,
0002
0003
0020
0030
0100
1000
0100
1000
,
2020
3030
0202
0303
0120
0130
0001
1000
,
0010
0000
1000
0100
0010
0000
0001
0000
1000
0000
0010
0000
0100
0000
0001
0000
,
1000
0000
0000
0001
0010
0000
0100
0000
1000
0000
0010
0100
0010
0000
1000
0000
,
0001
0000
0000
0010
0100
0000
1000
0000
0100
0000
0010
0001
0010
0000
0001
0000
,
1000
0000
0000
0010
0100
0000
0001
0000
0010
0000
0001
0100
0001
0000
1000
0000
,
0010
0000
0000
0100
0010
0000
1000
0000
0001
0000
0010
0100
0010
0000
0001
0000
,
1000
0000
0000
0010
0100
0000
0001
0000
0010
0000
0100
1000
0010
0000
0100
0000
,
0001
0000
0000
0010
0100
0000
1000
0000
0010
0000
0100
0010
1000
0000
0001
0000
,
0100
0000
0000
0010
1000
0000
0001
0000
0010
0000
0100
1000
0001
0000
0100
0000
,
0010
0000
0000
1000
0010
0000
0100
0000
0001
0000
1000
0100
0010
0000
0001
0000
,
1000
0000
0010
0000
0100
0000
0020
0000
0030
0000
1000
0000
0100
0000
0020
0030
,
00M0
0010
0001
1000
0010
0100
0010
2000
,
3001
0010
0100
2000
3000
0100
0010
0002
,
0003
0000
1000
0000
0010
0000
0100
0000
0002
0000
0000
0000
0200
0303
0000
0000
,
0000
0001
1000
0002
0003
1000
0010
2000
,
3000
0001
1000
0010
0100
1000
0100
0002
,
0003
1000
0100
0020
0030
0100
1000
0020
,
0030
0000
0100
0000
0001
0000
0010
0000
0200
0000
0000
0000
2000
3300
0000
0000
,
0001
0010
0001
0010
0001
0100
0001
0100
0001
1000
0001
1000
0010
0000
0000
0000
,
2010
3000
0012
0003
0120
0030
1000
0001
,
0010
0100
0010
0100
2000
3000
0000
0001
,
0200
0300
0020
0030
0002
0013
1000
0100
,
0220
0330
2002
3003
0022
0033
MMMM
0000
,
1002
0003
2010
3000
0102
0003
1000
0001
,
0010
0100
1000
0001
0200
0300
0000
0001
,
0020
0030
2000
3000
0020
0031
0010
0100
,
2200
0000
3300
0000
0220
0000
0330
0000
0202
0003
0301
0000
1000
0000
0010
0000
,
0100
0001
0010
0100
1000
0001
0100
0010
1000
0100
0010
0001
1000
0100
0010
0001
,
1000
0000
0010
0000
1000
0000
0010
0000
1000
0000
0010
0000
1000
0100
0010
0001
,
0100
0000
0001
0000
0100
0000
0001
0000
0100
0000
0001
0000
0010
0100
1000
0100
,
0010
0000
0100
0000
0010
0000
0100
0000
0010
0000
0100
0000
0010
0001
0010
0100
,
1000
0000
0001
0000
1000
0000
0001
0000
1000
0000
0001
0000
1000
0010
0100
0010
,
1000
0000
0100
0000
1000
0000
0100
0000
1000
0000
0100
0000
1000
0001
0100
0010
,
0100
0000
0001
0000
0100
0000
0001
0000
0100
0000
0001
0000
0100
0001
0010
0001
,
0100
0000
0010
0000
0100
0000
0010
0000
0100
0000
0010
0000
1000
0001
0010
0100
,
1000
0000
0100
0000
1000
0000
0100
0000
1000
0000
0100
0000
1000
0001
0100
0001
,
1000
0000
0000
0010
1000
0000
0001
0000
0010
0000
0100
1000
0100
0000
0010
0000
,
0001
0000
0000
1000
0010
0000
0100
0000
0001
0000
0010
0100
1000
0000
0001
0000
,
0010
0000
0000
0100
0010
0000
0001
0000
1000
0000
0010
0100
1000
0000
0100
0000
,
0001
0000
0000
0010
0100
0000
1000
0000
0001
0000
0100
0010
1000
0000
0001
0000
,
0010
0000
0000
0001
1000
0000
0010
0000
0100
0000
0001
0010
0100
0000
1000
0000
,
0010
0000
0000
0100
0010
0000
1000
0000
0001
0000
0100
0010
0001
0000
0010
0000
,
1000
0000
0000
0100
1000
0000
0010
0000
0100
0000
0001
0010
0100
0000
1000
0000
,
0010
0000
0000
0100
0001
0000
0010
0000
0001
0000
1000
0010
1000
0000
0001
0000
,
1000
0000
0100
0000
0010
0000
0002
0000
0003
0000
1000
0000
0100
0000
0020
0030
,
00M0
0010
0001
1000
0001
0010
0100
2000
,
3000
0001
0010
0200
0300
1000
0010
0200
,
0300
0000
0001
0000
0010
0000
0100
0000
2000
0000
0000
0000
0020
3030
0000
0000
,
0000
1000
0001
2000
3000
0100
0010
0200
,
0300
1000
0001
0010
0001
0100
0010
2000
,
3000
0001
0100
2000
3000
0100
0001
0020
,
0030
0000
0001
0000
1000
0000
0010
0000
0200
0000
0000
0000
0020
0330
0000
0000
,
1000
0010
1000
0010
0100
0001
0100
0001
0010
0100
0010
0100
1000
0000
0000
0000
,
0022
0033
0001
0000
0202
0303
1000
0000
,
0200
0000
0320
0032
0000
0003
MMMM
0000
,
2002
3003
1000
0000
0220
0330
0010
0000
,
2000
0000
3002
0023
0000
0030
0000
0000
,
1000
0001
0010
0001
0100
0001
1000
0001
0010
0100
1000
0010
0100
0010
0100
0010
,
2000
0000
0000
0000
3200
0000
0000
0300
,
1000
0100
0010
0001
1000
0010
0100
0001
0010
0100
1000
0100
0010
0001
0010
0100
,
2000
0200
0020
3330
,
2100
3000
0012
0003
0210
0300
1000
0010
,
1000
0010
1000
0100
0020
0030
0000
0001
,
2000
3000
0020
0030
0200
1300
0100
0010
,
2020
3030
0202
0303
0220
0330
MMMM
0000
,
0210
0300
1002
0003
2100
3000
0001
0010
,
0001
0010
0001
1000
0020
0030
0000
1000
,
0002
0003
0020
0030
2000
3010
0001
0100
,
0220
0330
2002
3003
2200
3300
0000
0000
,
1002
0000
0100
0000
1003
0000
0001
1000
,
0010
0100
0010
0100
0002
0003
0000
1000
,
2020
0030
0002
0003
3010
1000
0001
0010
,
2200
3300
0220
0330
0022
0033
MMMM
0000
,
0210
0000
1000
0000
0310
0000
1000
0100
,
1000
0100
1000
0010
0200
0000
0000
0310
,
0200
0300
0002
0003
0020
1030
0010
0001
,
2002
3003
0220
0330
2200
3300
0000
0000
,
1000
0001
1000
0001
1000
0010
1000
0010
0100
0001
0100
0001
1000
0100
1000
0100
,
1000
0000
0010
0000
1000
0000
0010
0000
1000
0000
0010
0000
1000
0100
0010
0001
,
0010
0000
0001
0000
0010
0000
0001
0000
0010
0000
0001
0000
0010
0100
1000
0001
,
0100
0000
0010
0000
0100
0000
0010
0000
0100
0000
0010
0000
1000
0100
1000
0010
,
0100
0000
1000
0000
0100
0000
1000
0000
0100
0000
1000
0000
0100
0010
1000
0100
,
0010
0000
0001
0000
0010
0000
0001
0000
0010
0000
0001
0000
0010
0001
0010
0100
,
1000
0000
0001
0000
1000
0000
0001
0000
1000
0000
0001
0000
1000
0010
0100
0001
,
0010
0000
1000
0000
0010
0000
1000
0000
0010
0000
1000
0000
0010
0001
0100
0010
,
1000
0000
0010
0000
1000
0000
0010
0000
1000
0000
0010
0000
1000
0001
0100
0001
,
0010
0001
0010
0001
1000
0001
1000
0001
0100
0010
0100
0010
1000
0000
0000
0000
,
1MM1
0000
0M00
00M0
0M00
0000
M000
0M00
00M0
0000
000M
00M0
0M00
0000
M000
00M0
,
0M00
0000
000M
00M0
0M00
0000
M000
00M0
0M00
0000
M000
000M
0M00
0000
0000
0000
;
