#TITLE:Destination;
#SUBTITLE:~Rapture~;
#ARTIST:ZaG-X Vs. Renard;
#TITLETRANSLIT:;
#SUBTITLETRANSLIT:;
#ARTISTTRANSLIT:;
#CREDIT:;
#BANNER:../bn.png;
#BACKGROUND:../veyron.png;
#LYRICSPATH:;
#CDTITLE:;
#MUSIC:Destination Rapture.ogg;
#OFFSET:0.009;
#SAMPLESTART:20.100;
#SAMPLELENGTH:18.760;
#SELECTABLE:YES;
#BPMS:0.000=215.000,345.000=140.000,379.500=135.000;
#STOPS:;
#BGCHANGES:;
// cache tags:
#FIRSTBEAT:24.000;
#LASTBEAT:381.000;
#SONGFILENAME:Songs/Cirque du Veyron/Zaia - Destination ~Rapture~/Destination Rapture.sm;
#HASMUSIC:1;
#HASBANNER:1;
#MUSICLENGTH:115.486;
// end cache tags

//---------------dance-single - Zaia----------------
#NOTES:
     dance-single:
     Zaia:
     Challenge:
     15:
     0.943,1.000,0.147,0.026,0.970,741.000,17.000,3.000,0.000,1.000:
0000
0000
0000
0000
,
0000
0000
0000
0000
,
0000
0000
0000
0000
,
0000
0000
0000
0000
,
0000
0000
0000
0000
,
0000
0000
0000
0000
,
1000
0000
0000
0000
0100
1000
0100
0000
,
0010
0000
0001
0000
0100
0000
0000
0010
,
1000
0100
0000
1000
,
0001
0100
0001
1000
,
0000
0001
0100
0000
0010
0000
0100
0000
,
0001
0100
0010
1000
,
0001
0000
0000
0000
0010
0100
1000
0000
,
0010
0000
1000
0000
0100
0000
0000
0010
,
0001
0000
1000
0000
0000
0100
0010
0000
,
0001
0010
0100
1000
0010
0100
0001
0100
,
0010
1000
0001
1000
0100
1000
0001
0100
,
0001
1000
0010
0000
0010
0000
0110
0000
,
0100
0010
1000
0000
0001
0000
0010
0000
0000
0000
0100
1000
0001
1000
0100
0000
,
0010
0100
1000
0000
0001
0000
0100
0000
0010
0000
0100
0000
0001
0010
0100
1000
,
0010
0100
0001
0000
1000
0000
0001
0000
0100
0010
0100
0000
0010
0000
1000
0000
,
0001
0010
0100
0010
0001
0000
1000
0000
0000
0000
0010
0000
0100
0001
1000
0000
,
0100
1000
0100
0000
1000
0000
0001
0000
0100
0000
0010
0000
1000
0010
0100
0010
,
0100
0001
1000
0100
0010
0000
0001
0000
1000
0000
0100
0010
0100
0000
1000
0000
,
0001
0100
0010
0000
1000
0000
0001
0000
0000
0000
0010
0000
0001
0000
1000
0100
,
0000
1000
0001
0000
0100
0000
0001
0000
1000
0010
0100
0000
0001
0000
0010
0000
,
0000
0000
0100
0000
1000
0000
0001
0000
1000
0000
0100
0010
0100
1000
0001
1000
,
0010
0100
0001
1000
0010
0000
0100
0000
0000
0000
0001
0000
1000
0000
0100
0010
,
0000
0100
1000
0000
0001
0000
0100
0000
0010
1000
0100
0000
1000
0000
0001
0000
,
0000
0000
1000
0000
0001
0000
0100
0000
0001
0000
0010
0100
1000
0100
0010
0001
,
1000
0100
1000
0001
0100
0010
1000
0100
0010
0001
1000
0001
0100
0010
1000
0001
,
0100
0010
1000
0001
0010
0100
1000
0010
0100
0001
1000
0010
1000
0001
0100
0001
,
1000
0100
0010
0001
0100
0010
1000
0001
0010
0001
1000
0001
0100
0010
1000
0001
,
1000
0100
0010
0100
1000
0010
0100
0001
1000
0001
1000
0010
0100
0001
1000
0001
,
0100
0010
1000
0001
1000
0100
0010
0001
1000
0100
1000
0010
0100
0001
1000
0001
,
0100
0010
1000
0001
0100
0001
0010
0001
1000
0010
0100
0001
1000
0010
0100
0010
,
0100
0001
1000
0100
0010
0100
1000
0010
0100
0001
0010
0100
1000
0001
0100
0001
,
1000
0010
0100
0001
1000
0001
0100
0010
1000
0100
0010
0001
1000
0010
0100
0010
,
1000
0001
0010
0100
1000
0001
1000
0001
0010
0001
0100
0001
1000
0010
1000
0001
,
0010
0100
1000
0001
0100
0010
1000
0010
0100
0001
1000
0100
1000
0010
0100
0010
,
1000
0001
0010
0100
1000
0001
1000
0100
0010
0001
1000
0010
1000
0001
1000
0010
,
0100
0001
1000
0001
1000
0100
0010
0001
1000
0010
0100
0010
1000
0100
0010
0001
,
2000
0000
0000
0000
,
0000
0000
0000
0000
,
0000
0000
0000
0000
,
0111
0000
0000
0000
,
0000
0000
3000
0000
,
0000
1000
0010
0100
0001
1000
0010
1000
,
0001
0000
0000
0010
0100
0000
1000
0000
,
0001
1000
0100
0010
,
0000
0100
1000
0000
0001
0100
0001
0000
,
0100
0000
0010
0000
1000
0001
0010
0000
,
0100
0000
1000
0010
0100
0000
0001
0000
,
0010
0100
1000
0000
0010
0100
0001
0100
,
0010
1000
0100
1000
,
0000
0010
1000
0000
0100
0010
0001
0000
,
1000
0010
0100
0001
,
1000
0100
1000
0000
0001
0000
0100
0000
,
0001
0010
0110
0000
,
0000
1100
0000
0000
,
0101
0000
0100
0010
0000
1000
0010
0000
,
0110
0000
0101
0000
1001
0000
1000
0100
,
0000
0010
0001
0000
1001
0000
0011
0000
,
1100
0100
1000
0001
0000
0100
0010
0000
,
1000
0010
0100
0001
0010
0001
0100
0010
,
1000
0100
0110
0000
1100
0000
1001
0001
,
0100
0010
1000
0100
0010
0001
0100
0000
,
0101
0000
0011
0000
0010
0100
1000
0010
,
0100
0010
1000
0000
0001
0010
0010
0001
,
1000
0010
0100
0001
0000
0010
0100
0000
,
1000
0100
1000
0010
0100
0001
0100
0010
,
1000
0010
0100
0001
0010
0000
0100
0000
,
2000
0000
0000
3001
,
0000
0000
0000
0000
0000
0000
0000
0000
1000
0100
0010
0001
1000
0010
1000
0001
,
0100
0001
1000
0100
1000
0010
0100
0001
1000
0100
0010
0100
1000
0001
0010
0001
,
0100
0010
1000
0001
0010
0001
1000
0100
0010
0100
1000
0001
0010
0100
1000
0001
,
0100
0010
1000
0001
1000
0010
0100
0001
0010
0100
1000
0010
0100
0001
0100
0010
,
1000
0001
1000
0100
0010
0100
1000
0001
0010
0001
0100
0010
1000
0001
0100
0010
,
1000
0001
0010
0100
1000
0010
0100
0001
0010
0001
1000
0100
1000
0001
0100
0010
,
1000
0100
0010
0001
1000
0010
0100
0001
1000
0001
1000
0010
0100
0001
1000
0100
,
0010
0100
1000
0001
0010
0001
0100
0010
1000
0100
0010
0100
1000
0001
0100
0010
,
1000
0010
0100
0001
0010
0100
1000
0010
0100
0001
1000
0001
1000
0010
1000
0001
,
0010
0100
1000
0001
0010
0001
0100
0010
1000
0100
0010
0001
1000
0100
1000
0001
,
0100
0001
1000
0010
0100
0001
1000
0100
1000
0010
0100
0001
0010
0100
0010
0001
,
1000
0010
1000
0001
1000
0100
0010
0001
1000
0001
0010
0001
1000
0010
0100
0001
,
1000
0001
0100
0010
1000
0010
0100
0001
2000
0000
0000
0000
0000
0000
0000
0000
,
0000
3001
0100
0010
,
1000
0100
0010
0100
,
1000
0001
0100
0010
,
1000
0000
0001
0000
0000
0010
0100
0000
,
1000
0001
0010
0100
,
0000
1000
0100
0000
0010
0000
0100
0000
,
1000
0000
0001
0000
0010
0001
0100
0001
,
0010
0000
0100
1000
0010
1000
0001
0100
,
0001
0010
0001
1000
0100
0000
0000
1000
,
0000
1001
0000
0000
;
