#TITLE:Toho Mathematics;
#SUBTITLE:;
#ARTIST:IOSYS;
#TITLETRANSLIT:;
#SUBTITLETRANSLIT:;
#ARTISTTRANSLIT:;
#CREDIT:Cloud;
#BANNER:../bn.png;
#BACKGROUND:../bg.png;
#LYRICSPATH:;
#CDTITLE:;
#MUSIC:IOSYS - Toho Mathematics.ogg;
#OFFSET:0.705;
#SAMPLESTART:0.460;
#SAMPLELENGTH:25.800;
#SELECTABLE:YES;
#DISPLAYBPM:75.000:150.000;
#BPMS:0.000=150.000,62.000=120.000,64.000=110.000,66.000=95.000,66.750=130.000,67.000=150.000,68.000=150.000,392.000=98.500,395.000=83.000,397.000=75.000,398.000=60.000,398.250=45.000,398.500=28.000,398.750=24.000,399.000=12.000;
#STOPS:;
#BGCHANGES:;
// cache tags:
#FIRSTBEAT:3.000;
#LASTBEAT:399.250;
#SONGFILENAME:Songs/Cirque du Zonda/Zaia - Toho Mathematics/IOSYS - Toho Mathematics.sm;
#HASMUSIC:1;
#HASBANNER:1;
#MUSICLENGTH:168.515;
// end cache tags

//---------------dance-single - Zaia - 17.2----------------
#NOTES:
     dance-single:
     Zaia - 17.2:
     Challenge:
     17:
     1.000,1.000,0.000,0.202,1.000,1742.000,0.000,34.000,0.000,0.000:
0000
0000
0000
0000
0000
0000
1000
0100
,
0020
0000
0000
0000
0031
1000
0020
0000
,
0230
0000
0000
0000
0000
0301
0100
0010
,
2000
3002
0023
0230
,
2300
0000
0000
0000
0000
0000
0000
3000
,
0001
0100
0010
1000
0010
0100
0001
0010
0001
1000
0100
1000
0001
0010
0100
1000
0100
0010
0001
0100
0001
1000
0100
1000
,
0001
0100
0010
1000
0010
0100
0001
0010
0001
1000
0100
1000
0001
0010
0100
1000
0100
0010
0001
0100
0001
1000
0100
1000
,
0001
0100
0001
1000
0001
1000
0100
1000
0001
0010
0100
0010
0001
1000
0001
1000
0010
0100
0010
1000
0001
0010
0100
1000
,
0001
0100
0010
1000
0001
0010
0100
1000
0001
0100
0010
1000
0100
0010
0100
1000
0001
0010
0100
1000
0001
1000
0010
0100
,
0001
1000
0010
1000
0100
0010
0001
0010
0100
1000
0001
0100
0010
1000
0001
0010
,
0100
1000
0001
0100
0010
1000
0100
1000
0010
0100
0001
1000
0100
0010
0100
1000
,
0001
0100
0010
1000
0100
0010
0001
0010
0100
1000
0001
0100
0010
1000
0001
0010
,
0100
1000
0001
0100
0010
1000
0100
1000
0010
0100
0001
1000
0100
0010
0100
1000
,
0001
0100
0001
0010
0100
1000
0001
0100
0010
0100
0001
1000
0001
0010
0100
1000
,
0010
1000
0100
0010
0001
1000
0010
0100
0010
1000
0001
1000
0100
0010
0001
0100
,
0010
0100
0001
0010
0100
0010
0001
1000
0010
0100
0001
1000
0100
1000
0010
1000
,
0100
0010
0001
0100
0001
0010
0100
1000
0001
0100
0010
1000
0200
0000
0320
0000
,
0032
0000
0000
0000
0203
0320
2030
0000
,
3002
0000
0000
0000
0000
1003
0100
0010
,
0002
0203
0320
2030
,
3002
0000
0000
0000
0000
0000
0000
0003
,
1000
0100
0010
0001
0010
0100
1000
0010
1000
0001
0100
0001
1000
0010
0100
0001
0100
0010
1000
0100
1000
0001
0100
0001
,
1000
0100
0010
0001
0010
0100
1000
0010
1000
0001
0100
0001
1000
0010
0100
0001
0100
0010
1000
0100
1000
0001
0100
0001
,
1000
0100
1000
0001
1000
0001
0100
0001
1000
0010
0100
0010
1000
0001
1000
0001
0010
0100
0010
0001
1000
0010
0100
0001
,
1000
0100
0010
0001
1000
0010
0100
0001
1000
0100
0010
0001
0100
0010
0100
0001
1000
0010
0100
0001
1000
0001
0010
0100
,
1000
0010
0100
0001
1000
0010
0100
0001
1000
0100
1000
0010
1000
0001
0010
0001
,
1000
0100
0010
0001
1000
0100
0010
0001
1000
0010
1000
0100
1000
0001
0100
0010
,
1000
0100
1000
0100
0010
0001
0010
0001
1000
0010
1000
0010
0100
0001
0100
0001
,
1000
0100
1000
0001
1000
0100
1000
0001
0100
0010
1000
0010
0100
0001
0100
0001
,
1000
0100
0010
0100
1000
0001
0100
0001
1000
0100
0010
0001
1000
0001
0100
0010
,
1000
0100
0010
0100
1000
0001
0010
0001
1000
0010
0100
0010
1000
0001
0100
0001
,
1000
0100
1000
0010
0100
0001
1000
0001
0010
0001
0100
0010
1000
0001
0010
0100
,
1000
0001
1000
0010
0100
0001
0010
0100
1000
0010
1000
0001
1000
0100
1000
0001
,
0100
0010
1000
0010
1000
0001
1000
0100
1000
0010
0100
0001
0010
0100
1000
0010
,
1000
0001
0100
0001
1000
0100
0010
0001
1000
0001
0100
0010
1000
0100
1000
0001
,
0010
0100
1000
0100
1000
0001
1000
0010
1000
0100
0010
0001
0100
0010
1000
0100
,
1000
0001
0010
0001
1000
0010
0100
0001
1000
0001
0010
0100
1000
0010
0100
0001
,
1000
0100
1000
0001
1000
0010
0100
0001
1000
0100
1000
0001
0010
0100
0010
0001
1000
0100
1000
0001
0100
0010
0100
0001
,
1000
0001
0100
0001
1000
0100
1000
0001
0010
0100
1000
0001
1000
0010
0100
0001
1000
0100
1000
0001
0100
0001
1000
0001
,
0010
0100
1000
0001
1000
0100
0010
0001
1000
0010
1000
0001
0100
0010
0100
0001
1000
0010
1000
0001
0010
0100
0010
0001
,
1000
0001
0010
0001
1000
0010
1000
0001
0100
0010
1000
0001
1000
0100
0010
0001
1000
0010
1000
0001
0010
0001
1000
0100
,
0010
0001
1000
0100
1000
0010
0100
0001
0010
0001
0100
0010
1000
0001
1000
0010
0100
0001
1000
0100
0010
0001
0100
0001
,
0010
0100
1000
0010
1000
0001
0100
0001
0010
0001
1000
0100
1000
0010
0100
0001
0010
0001
0100
0010
1000
0001
0010
0100
,
1000
0001
1000
0010
1000
0100
0010
0001
0100
0001
0010
0100
1000
0001
1000
0100
0010
0001
1000
0010
0100
0001
0010
0001
,
0100
0010
1000
0100
1000
0001
0010
0001
0100
0001
1000
0010
1000
0100
0010
0001
0100
0001
0010
0100
1000
0001
0100
0010
,
1000
0001
1000
0100
1000
0010
0100
0001
0010
0001
0100
0010
1000
0001
1000
0010
0100
0001
1000
0100
0010
0001
0100
0001
,
0010
0100
1000
0010
1000
0001
0100
0001
0010
0001
1000
0100
1000
0010
0100
0001
0010
0001
0100
0010
1000
0001
0010
0100
,
1000
0001
1000
0010
1000
0100
0010
0001
0100
0001
0010
0100
1000
0001
1000
0100
0010
0001
1000
0010
0100
0001
0010
0001
,
0100
0010
1000
0100
1000
0001
0010
0001
0100
0001
1000
0010
1000
0100
0010
0001
0100
0001
0010
0100
1000
0001
0100
0010
,
2000
0000
0000
0000
0000
0000
3010
0000
0000
0000
0100
0010
0100
0000
0001
1000
,
0001
0010
0100
1000
0001
0010
0100
1000
0001
0100
0010
1000
0001
1000
0010
0100
,
0001
1000
0100
1000
0001
0100
0001
1000
0100
0010
0100
1000
0010
0100
0001
0010
,
0001
1000
0010
0100
0001
1000
0010
0100
0001
1000
0100
0010
0001
1000
0001
0010
,
0100
1000
0001
0100
0001
1000
0100
1000
0001
0100
0010
0100
0001
0010
0100
1000
,
0001
0100
0010
1000
0001
0100
0010
1000
0001
0010
0100
0010
0100
1000
0001
1000
,
0010
0100
0001
0010
0001
1000
0100
1000
0010
1000
0001
0100
0010
1000
0001
0010
,
0100
1000
0001
0100
0001
1000
0100
1000
0001
0010
0001
1000
0010
0100
0001
0010
,
0100
0010
0001
0100
0010
1000
0100
0010
0001
1000
0010
1000
0001
0010
0100
1000
,
0001
0100
0010
1000
0001
0100
0010
1000
0001
0010
0100
1000
0001
1000
0100
0010
,
0001
1000
0010
1000
0001
0010
0001
1000
0010
0100
0010
1000
0100
0010
0001
0100
,
0001
1000
0100
0010
0001
1000
0100
0010
0001
1000
0010
0100
0001
1000
0001
0100
,
0010
1000
0001
0010
0001
1000
0010
1000
0001
0010
0100
0010
0001
0100
0010
1000
,
0001
0010
0100
1000
0001
0010
0100
1000
0001
0100
0010
0100
0010
1000
0001
1000
,
0100
0010
0001
0100
0001
1000
0010
1000
0100
1000
0001
0010
0100
1000
0001
0100
,
0010
1000
0001
0010
0001
1000
0010
1000
0001
0100
0001
1000
0100
0010
0001
0100
,
0010
0100
0001
0010
0100
1000
0010
0100
0001
1000
0100
1000
0001
0100
0010
1000
,
0001
0100
0010
1000
0001
1000
0010
0100
0001
1000
0001
0100
0001
1000
0100
0010
0100
1000
0001
0010
0100
1000
0001
0010
,
0001
1000
0010
0100
0001
1000
0001
0100
0010
1000
0001
1000
0010
0100
0001
1000
0001
0100
0010
1000
0001
1000
0010
0100
,
0001
1000
0100
0010
0100
1000
0001
0010
0100
1000
0001
1000
0010
0100
0001
1000
0001
0100
0010
0100
0001
1000
0001
0100
,
0001
1000
0100
1000
0001
0010
0100
1000
0001
1000
0100
0010
0001
1000
0100
1000
0001
0010
0001
1000
0100
0010
0001
1000
,
0001
0100
0010
1000
0010
0100
0001
0010
0001
1000
0100
1000
0001
0010
0100
1000
0100
0010
0001
0100
0001
1000
0100
1000
,
0001
0100
0010
1000
0010
0100
0001
0010
0001
1000
0100
1000
0001
0010
0100
1000
0100
0010
0001
0100
0001
1000
0100
1000
,
0001
0100
0001
1000
0001
1000
0100
1000
0001
0010
0100
0010
0001
1000
0001
1000
0010
0100
0010
1000
0001
0010
0100
1000
,
0001
0100
0010
1000
0001
0010
0100
1000
0001
0100
0010
1000
0100
0010
0100
1000
0001
0010
0100
1000
0001
1000
0010
0100
,
0001
0010
0100
1000
0001
0010
0100
1000
0001
0100
0001
0010
0001
1000
0010
1000
,
0001
0100
0010
1000
0001
0100
0010
1000
0001
0010
0001
0100
0001
1000
0100
0010
,
0001
0100
0001
0100
0010
1000
0010
1000
0001
0010
0001
0010
0100
1000
0100
1000
,
0001
0100
0001
1000
0001
0100
0001
1000
0100
0010
0001
0010
0100
1000
0100
1000
,
0001
0100
0010
0100
0001
1000
0100
1000
0001
0100
0010
1000
0001
1000
0100
0010
,
0001
0100
0010
0100
0001
1000
0010
1000
0001
0010
0100
0010
0001
1000
0100
1000
,
0001
0100
0001
0010
0100
1000
0001
1000
0010
1000
0100
0010
0001
1000
0010
0100
,
0001
1000
0001
0010
0100
1000
0010
0100
0001
0010
0001
1000
0001
0100
0001
1000
,
0001
0010
0100
1000
0001
1000
0100
0010
0001
1000
0001
0010
0001
1000
0010
0100
0010
1000
0001
0100
0010
1000
0001
0100
,
0001
1000
0100
0010
0001
1000
0001
0010
0100
1000
0001
1000
0100
0010
0001
1000
0001
0010
0100
1000
0001
1000
0100
0010
,
0001
1000
0010
0100
0010
1000
0001
0100
0010
1000
0001
1000
0100
0010
0001
1000
0001
0010
0100
0010
0001
1000
0001
0010
,
0001
1000
0010
1000
0001
0100
0010
1000
0001
1000
0010
0100
0001
1000
0010
1000
0001
0100
0001
1000
0010
0100
0001
1000
,
0001
0010
0100
1000
0100
0010
0001
0100
0001
1000
0010
1000
0001
0100
0010
1000
0010
0100
0001
0010
0001
1000
0010
1000
,
0001
0010
0100
1000
0100
0010
0001
0100
0001
1000
0010
1000
0001
0100
0010
1000
0010
0100
0001
0010
0001
1000
0010
1000
,
0001
0010
0001
1000
0001
1000
0010
1000
0001
0100
0010
0100
0001
1000
0001
1000
0100
0010
0100
1000
0001
0100
0010
1000
,
0001
0010
0100
1000
0001
0100
0010
1000
0001
0010
0100
1000
0010
0100
0010
1000
0001
0100
0010
1000
0001
1000
0100
0010
,
0001
0100
0010
1000
0001
0100
0010
1000
0001
0010
0001
0100
0001
1000
0100
1000
,
0001
0010
0100
1000
0001
0010
0100
1000
0001
0100
0001
0010
0001
1000
0010
0100
,
0001
0010
0001
0010
0100
1000
0100
1000
0001
0100
0001
0100
0010
1000
0010
1000
,
0001
0010
0001
1000
0001
0010
0001
1000
0010
0100
0001
0100
0010
1000
0010
1000
,
0001
0010
0100
0010
0001
1000
0010
1000
0001
0010
0100
1000
0001
1000
0010
0100
,
0001
0010
0100
0010
0001
1000
0100
1000
0001
0100
0010
0100
0001
1000
0010
1000
,
0001
0010
0001
0100
0010
1000
0001
1000
0100
1000
0010
0100
0001
1000
0100
0010
,
0001
1000
0001
0100
0010
1000
0100
0010
0001
0100
0001
1000
0001
0010
0001
1000
,
0200
0320
0032
2003
3020
0230
0302
0023
,
0230
0000
2300
0000
3002
0000
0203
0000
0320
0000
0000
0000
0000
0030
0000
0000
;

//---------------dance-single - Zaia - 15.5----------------
#NOTES:
     dance-single:
     Zaia - 15.5:
     Hard:
     15:
     1.000,1.000,0.000,0.671,1.000,1464.000,0.000,113.000,0.000,0.000:
0000
0000
0000
0000
0000
0000
1000
0100
,
0020
0000
0000
0000
0031
1000
0020
0000
,
0230
0000
0000
0000
0000
0301
0100
0010
,
2000
3002
0023
0230
,
2300
0000
0000
0000
0000
0000
0000
3000
,
0001
0100
0010
1000
0010
0100
0001
0010
0001
1000
0100
1000
0001
0010
0100
1000
0100
0010
0001
0100
0001
1000
0100
1000
,
0001
0100
0010
1000
0010
0100
0001
0010
0001
1000
0100
1000
0001
0010
0100
1000
0100
0010
0001
0100
0001
1000
0100
1000
,
0002
2003
3020
0230
0302
0023
0230
2300
,
3001
0100
0010
1000
0001
0010
0100
1000
0001
0100
0010
1000
0100
0010
0100
1000
0001
0010
0100
1000
0001
1000
0010
0100
,
0001
1000
0010
1000
0100
0010
0001
0010
0100
1000
0001
0100
0010
1000
0001
0010
,
0100
1000
0001
0100
0010
1000
0100
1000
0010
0100
0001
1000
0100
0010
0100
1000
,
0001
0100
0010
1000
0100
0010
0001
0010
0100
1000
0001
0100
0010
1000
0001
0010
,
0100
1000
0001
0100
0010
1000
0100
1000
0010
0100
0001
1000
0100
0010
0100
1000
,
0001
0100
0001
0010
0100
1000
0001
0100
0010
0100
0001
1000
0001
0010
0100
1000
,
0010
1000
0100
0010
0001
1000
0010
0100
0010
1000
0001
1000
0100
0010
0001
0100
,
0010
0100
0001
0010
0100
0010
0001
1000
0010
0100
0001
1000
0100
1000
0010
1000
,
0100
0010
0001
0100
0001
0010
0100
1000
0001
0100
0010
1000
0200
0000
0320
0000
,
0032
0000
0000
0000
0203
0320
2030
0000
,
3002
0000
0000
0000
0000
1003
0100
0010
,
0002
0203
0320
2030
,
3002
0000
0000
0000
0000
0000
0000
0003
,
1000
0100
0010
0001
0010
0100
1000
0010
1000
0001
0100
0001
1000
0010
0100
0001
0100
0010
1000
0100
1000
0001
0100
0001
,
1000
0100
0010
0001
0010
0100
1000
0010
1000
0001
0100
0001
1000
0010
0100
0001
0100
0010
1000
0100
1000
0001
0100
0001
,
2000
3002
0023
0230
2300
3020
0230
0302
,
1003
0100
0010
0001
1000
0010
0100
0001
1000
0100
0010
0001
0100
0010
0100
0001
1000
0010
0100
0001
1000
0001
0010
0100
,
1000
0010
0100
0001
1000
0010
0100
0001
1000
0100
1000
0010
1000
0001
0010
0001
,
1000
0100
0010
0001
1000
0100
0010
0001
1000
0010
1000
0100
1000
0001
0100
0010
,
1000
0100
1000
0100
0010
0001
0010
0001
1000
0010
1000
0010
0100
0001
0100
0001
,
1000
0100
1000
0001
1000
0100
1000
0001
0100
0010
1000
0010
0100
0001
0100
0001
,
1000
0100
0010
0100
1000
0001
0100
0001
1000
0100
0010
0001
1000
0001
0100
0010
,
1000
0100
0010
0100
1000
0001
0010
0001
1000
0010
0100
0010
1000
0001
0100
0001
,
1000
0100
1000
0010
0100
0001
1000
0001
0010
0001
0100
0010
1000
0001
0010
0100
,
1000
0001
1000
0010
0100
0001
0010
0100
1000
0010
1000
0001
1000
0100
1000
0001
,
0100
0010
1000
0010
1000
0001
1000
0100
1000
0010
0100
0001
0010
0100
1000
0010
,
1000
0001
0100
0001
1000
0100
0010
0001
1000
0001
0100
0010
1000
0100
1000
0001
,
0010
0100
1000
0100
1000
0001
1000
0010
1000
0100
0010
0001
0100
0010
1000
0100
,
1000
0001
0010
0001
1000
0010
0100
0001
1000
0001
0010
0100
1000
0010
0100
0001
,
2000
3200
2300
3002
0203
0320
2030
3002
,
0023
0230
0320
0032
0203
0320
2030
3002
,
0023
0230
2300
3020
2030
3200
0320
0032
,
0203
0320
2030
3002
0023
0230
2300
3020
,
1030
0001
1000
0100
1000
0010
0100
0001
0010
0001
0100
0010
1000
0001
1000
0010
0100
0001
1000
0100
0010
0001
0100
0001
,
0010
0100
1000
0010
1000
0001
0100
0001
0010
0001
1000
0100
1000
0010
0100
0001
0010
0001
0100
0010
1000
0001
0010
0100
,
1000
0001
1000
0010
1000
0100
0010
0001
0100
0001
0010
0100
1000
0001
1000
0100
0010
0001
1000
0010
0100
0001
0010
0001
,
0100
0010
1000
0100
1000
0001
0010
0001
0100
0001
1000
0010
1000
0100
0010
0001
0100
0001
0010
0100
1000
0001
0100
0010
,
1000
0001
1000
0100
1000
0010
0100
0001
0010
0001
0100
0010
1000
0001
1000
0010
0100
0001
1000
0100
0010
0001
0100
0001
,
0010
0100
1000
0010
1000
0001
0100
0001
0010
0001
1000
0100
1000
0010
0100
0001
0010
0001
0100
0010
1000
0001
0010
0100
,
1000
0001
1000
0010
1000
0100
0010
0001
0100
0001
0010
0100
1000
0001
1000
0100
0010
0001
1000
0010
0100
0001
0010
0001
,
0100
0010
1000
0100
1000
0001
0010
0001
0100
0001
1000
0010
1000
0100
0010
0001
0100
0001
0010
0100
1000
0001
0100
0010
,
2000
0000
0000
0000
0000
0000
3010
0000
0000
0000
0100
0010
0100
0000
0001
1000
,
0001
0010
0100
1000
0001
0010
0100
1000
0001
0100
0010
1000
0001
1000
0010
0100
,
0001
1000
0100
1000
0001
0100
0001
1000
0100
0010
0100
1000
0010
0100
0001
0010
,
0001
1000
0010
0100
0001
1000
0010
0100
0001
1000
0100
0010
0001
1000
0001
0010
,
0100
1000
0001
0100
0001
1000
0100
1000
0001
0100
0010
0100
0001
0010
0100
1000
,
0001
0100
0010
1000
0001
0100
0010
1000
0001
0010
0100
0010
0100
1000
0001
1000
,
0010
0100
0001
0010
0001
1000
0100
1000
0010
1000
0001
0100
0010
1000
0001
0010
,
0100
1000
0001
0100
0001
1000
0100
1000
0001
0010
0001
1000
0010
0100
0001
0010
,
0100
0010
0001
0100
0010
1000
0100
0010
0001
1000
0010
1000
0001
0010
0100
1000
,
0001
0100
0010
1000
0001
0100
0010
1000
0001
0010
0100
1000
0001
1000
0100
0010
,
0001
1000
0010
1000
0001
0010
0001
1000
0010
0100
0010
1000
0100
0010
0001
0100
,
0001
1000
0100
0010
0001
1000
0100
0010
0001
1000
0010
0100
0001
1000
0001
0100
,
0010
1000
0001
0010
0001
1000
0010
1000
0001
0010
0100
0010
0001
0100
0010
1000
,
0001
0010
0100
1000
0001
0010
0100
1000
0001
0100
0010
0100
0010
1000
0001
1000
,
0100
0010
0001
0100
0001
1000
0010
1000
0100
1000
0001
0010
0100
1000
0001
0100
,
0010
1000
0001
0010
0001
1000
0010
1000
0001
0100
0001
1000
0100
0010
0001
0100
,
0010
0100
0001
0010
0100
1000
0010
0100
0001
1000
0100
1000
0001
0100
0010
1000
,
0002
0000
0000
0000
0203
0320
2030
0000
,
3200
0000
0000
0000
0300
0010
0001
1000
,
0020
0230
0302
2003
,
3200
0000
0000
0000
0000
0000
0000
0300
,
1000
0100
0010
0001
0010
0100
1000
0010
1000
0001
0100
0001
1000
0010
0100
0001
0100
0010
1000
0100
1000
0001
0100
0001
,
1000
0100
0010
0001
0010
0100
1000
0010
1000
0001
0100
0001
1000
0010
0100
0001
0100
0010
1000
0100
1000
0001
0100
0001
,
2000
3200
0320
0032
2003
3020
0230
0302
,
1003
0100
0010
0001
1000
0010
0100
0001
1000
0100
0010
0001
0100
0010
0100
0001
1000
0010
0100
0001
1000
0001
0010
0100
,
1000
0100
0010
0001
1000
0100
0010
0001
1000
0010
1000
0100
1000
0001
0100
0001
,
1000
0010
0100
0001
1000
0010
0100
0001
1000
0100
1000
0010
1000
0001
0010
0100
,
1000
0010
1000
0010
0100
0001
0100
0001
1000
0100
1000
0100
0010
0001
0010
0001
,
1000
0010
1000
0001
1000
0010
1000
0001
0010
0100
1000
0100
0010
0001
0010
0001
,
1000
0010
0100
0010
1000
0001
0010
0001
1000
0010
0100
0001
1000
0001
0010
0100
,
1000
0010
0100
0010
1000
0001
0100
0001
1000
0100
0010
0100
1000
0001
0010
0001
,
1000
0010
1000
0100
0010
0001
1000
0001
0100
0001
0010
0100
1000
0001
0100
0010
,
1000
0001
1000
0100
0010
0001
0100
0010
1000
0100
1000
0001
1000
0010
1000
0001
,
0200
0000
0000
0000
0302
0023
0230
0000
,
2300
0000
0000
0000
3000
0100
0010
0001
,
1000
0000
0010
0000
0100
0000
0001
0100
0000
0001
1000
0000
0100
0000
0010
0000
,
0001
0000
1000
0001
0000
0100
0010
1000
0001
0000
0010
0100
0000
0010
0001
1000
,
0001
0100
0010
1000
0010
0100
0001
0010
0001
1000
0100
1000
0001
0010
0100
1000
0100
0010
0001
0100
0001
1000
0100
1000
,
0001
0100
0010
1000
0010
0100
0001
0010
0001
1000
0100
1000
0001
0010
0100
1000
0100
0010
0001
0100
0001
1000
0100
1000
,
0002
0023
0230
2300
3002
0203
0320
2030
,
3001
0100
0010
1000
0001
0010
0100
1000
0001
0100
0010
1000
0100
0010
0100
1000
0001
0010
0100
1000
0001
1000
0010
0100
,
0001
0100
0010
1000
0001
0100
0010
1000
0001
0010
0001
0100
0001
1000
0100
1000
,
0001
0010
0100
1000
0001
0010
0100
1000
0001
0100
0001
0010
0001
1000
0010
0100
,
0001
0010
0001
0010
0100
1000
0100
1000
0001
0100
0001
0100
0010
1000
0010
1000
,
0001
0010
0001
1000
0001
0010
0001
1000
0010
0100
0001
0100
0010
1000
0010
1000
,
0001
0010
0100
0010
0001
1000
0010
1000
0001
0010
0100
1000
0001
1000
0010
0100
,
0001
0010
0100
0010
0001
1000
0100
1000
0001
0100
0010
0100
0001
1000
0010
1000
,
0001
0010
0001
0100
0010
1000
0001
1000
0100
1000
0010
0100
0001
1000
0100
0010
,
0001
1000
0001
0100
0010
1000
0100
0010
0001
0100
0001
1000
0001
0010
0001
1000
,
0200
0320
0032
2003
3020
0230
0302
0023
,
0230
0000
2300
0000
3002
0000
0203
0000
0320
0000
0000
0000
0000
0030
0000
0000
;
