#TITLE:Rottel-the-mercury;
#SUBTITLE:;
#ARTIST:sampling masters MEGA;
#TITLETRANSLIT:;
#SUBTITLETRANSLIT:;
#ARTISTTRANSLIT:;
#CREDIT:;
#BANNER:RTM BN.png;
#BACKGROUND:R-T-M BG.png;
#LYRICSPATH:;
#CDTITLE:!Snowcrafta CDtitle 3.png;
#MUSIC:07 - sampling masters mega - rottel-the-mercury.mp3;
#OFFSET:-0.400;
#SAMPLESTART:29.819;
#SAMPLELENGTH:12.000;
#SELECTABLE:YES;
#BPMS:0.000=200.000;
#STOPS:;
#BGCHANGES:;
// cache tags:
#FIRSTBEAT:0.000;
#LASTBEAT:359.500;
#SONGFILENAME:Songs/Ace Megapack/Rottel the Mercury/RTM.sm;
#HASMUSIC:1;
#HASBANNER:1;
#MUSICLENGTH:111.072;
// end cache tags

//---------------dance-single - ----------------
#NOTES:
     dance-single:
     :
     Hard:
     10:
     1.000,1.000,1.000,0.639,0.252,620.000,291.000,71.000,0.000,2.000:
1000
0110
0001
1100
0010
1000
0000
0100
,
0010
0100
1001
0010
0101
1100
0011
0011
,
0010
1100
0110
0100
0010
0001
1000
0010
,
2100
0000
0000
0000
0000
0000
3000
0000
0001
0100
0001
0100
0001
0100
0001
0100
,
1001
0100
1001
1100
1000
0011
0110
0011
,
1001
0010
1100
1001
0100
1010
0011
1010
,
0011
1000
0100
0011
0100
0001
0100
0010
,
2200
3300
0220
0330
0022
0033
2002
3003
,
0110
0001
0011
0011
1001
0110
1001
0110
,
1001
0010
1001
0100
1010
0001
0110
0110
,
0011
0100
0011
1001
0101
1001
0101
0110
,
1001
0000
0110
0000
0000
0000
0110
0000
0000
0000
0101
0000
1000
0100
1000
0100
,
0012
0000
0000
0003
0000
0000
2100
0000
0000
0000
3000
0000
1000
0000
0010
0000
,
0100
0001
1000
1010
0100
0001
1100
1001
,
0010
0100
1000
0011
0100
0001
1100
0100
,
0010
0000
0022
0000
0033
0000
2100
0000
3100
0010
0000
0000
1000
0100
1000
0100
,
0022
0000
0033
2020
0000
3030
0202
0000
,
0303
1000
0100
1000
0010
0100
0001
1000
,
0012
0000
0000
0000
0010
0000
0000
0000
1003
0100
1000
0100
0000
0000
0001
0000
,
0000
0000
0010
0000
0000
0000
2010
0000
0100
0010
3100
0010
0001
0010
0001
0010
,
1001
0000
1001
0000
,
0110
0000
0011
0101
,
1001
0000
1010
0000
,
1001
0000
0011
0101
,
1010
0100
1001
0010
,
0101
0010
1100
0010
,
0101
0010
0101
1000
0011
0100
0011
0100
,
1010
0000
0100
0000
1001
0000
0100
0000
0011
1000
0100
1000
0100
0010
0001
0010
,
1100
0010
1001
0010
0011
0011
0100
1010
,
1001
0110
0100
1000
0011
0010
1100
1010
,
1001
1010
0101
0100
0011
1001
0000
1100
,
1010
0000
0202
0000
0000
0000
0000
0000
0303
0000
1000
0100
1000
0100
0010
0001
,
1010
0100
1001
0010
1100
0010
1100
1010
,
0001
1010
0110
1000
0011
0010
1100
0010
,
0101
0100
1010
0001
0110
0100
1001
1100
,
0010
0000
1001
0000
0101
0000
0010
0000
1100
0000
0010
0000
0001
0100
0010
1000
,
0011
0100
1010
0100
0011
1000
0110
1001
,
0010
1000
0110
0001
1010
0001
0110
0000
,
0202
0000
0000
0303
2020
0000
3030
0000
,
2001
0010
0100
0010
0001
0010
0100
3010
,
0100
1001
0001
0010
1001
0100
1000
0100
,
0010
1010
0001
0010
1001
0100
0011
0110
,
1000
1001
0100
0010
1001
0001
0010
0110
,
1000
0000
1100
0000
1001
0000
0100
0000
1010
0000
0110
0000
1000
0010
1000
0010
,
1001
1001
0010
0001
1001
0010
0100
0011
,
1000
1100
1100
0010
0101
0001
1010
0110
,
0010
1001
0100
1000
0101
0100
0010
0001
,
1001
0000
1001
0000
0001
0010
0100
1000
0011
0000
0011
0000
0100
0010
0100
0010
,
1001
0100
1010
0010
0101
1000
0101
0010
,
1001
0100
0110
0001
1010
0100
1010
0010
,
0101
1000
0110
0010
0101
0100
1001
0010
,
1010
0100
1100
0001
1001
0010
0110
1000
,
1001
1000
1001
1000
1001
0100
1001
0010
,
1100
0010
1001
0100
0011
0100
1010
0100
,
0101
0101
0000
0000
1100
1100
0000
0000
,
1000
0000
0010
0000
0100
0000
0001
0000
0100
0000
0010
0000
1000
0000
0010
0000
0100
0000
0001
1000
0001
1000
0001
1000
0001
0000
0000
0000
0100
0000
0000
0000
,
1001
0000
0000
1001
0000
0000
1001
0000
0100
0000
0000
0000
1001
0000
0000
0000
,
0101
0000
0100
0001
1000
0010
0100
0001
1000
0010
0100
0001
0010
0100
1000
0000
,
1100
0000
0000
0110
0000
0000
0011
0000
1001
0000
0000
0000
0011
0000
0000
0000
,
1100
0011
0000
1001
0000
1100
0000
1010
,
1001
0000
0000
1001
0000
0000
1001
0000
0100
0000
0000
0000
0100
0000
0000
0000
,
1001
0100
0011
0100
1010
0100
1001
0010
,
1001
0000
0000
0110
0000
0000
1001
0000
1010
0000
0000
0000
0100
0000
0000
0000
,
0100
0011
0000
0110
0000
1010
0000
1100
,
0001
0010
0100
1000
0220
0330
2002
3003
,
1000
0100
0010
0001
2200
3300
0022
0033
,
1000
0010
0100
0001
2020
3030
0202
0303
,
1010
0100
0011
1000
0011
1000
0011
1000
,
0011
1000
0100
0010
0202
0303
0220
0330
,
1000
0010
0100
0001
2200
3300
0220
0330
,
0001
1000
0001
1000
0022
0033
0220
0330
,
2002
3003
2002
0000
0000
0000
3003
0000
,
1010
0100
1001
0010
,
0011
0100
1001
0110
,
1100
0010
1001
0100
,
0011
0100
1001
0011
,
1100
0011
1100
0110
,
0101
1010
0101
0110
,
0222
0333
0222
0333
0022
0033
0022
0033
,
0002
0003
0002
0003
0002
0003
0002
0003
,
1100
0010
1100
0010
1100
0001
0010
0001
,
1010
0001
1010
0001
1010
0001
1000
0100
,
0010
1100
0001
1100
0001
1100
0001
1100
,
0001
1000
0011
1000
0011
0100
1010
1010
,
0100
0011
1000
0011
1000
0011
1000
0010
,
0100
0010
1100
0010
1100
0010
1100
0010
,
1100
1100
0000
0000
0011
0011
0000
0000
,
1001
1001
0000
0000
0110
0110
0000
0000
,
1010
1010
0000
0000
0101
0101
0000
0000
,
1000
0010
0100
0001
1000
0010
0100
0001
0010
0100
1000
0010
0100
0001
0010
0000
;
