#TITLE:Sweet;
#SUBTITLE:;
#ARTIST:DJ Evil;
#TITLETRANSLIT:;
#SUBTITLETRANSLIT:;
#ARTISTTRANSLIT:;
#CREDIT:Frieza;
#BANNER:Sweet.png;
#BACKGROUND:SWEET-BG.png;
#LYRICSPATH:;
#CDTITLE:BGA_BLACK.png;
#MUSIC:(DJ Evil) Sweet [Frieza Remix].mp3;
#OFFSET:1.400;
#SAMPLESTART:90.574;
#SAMPLELENGTH:16.000;
#SELECTABLE:YES;
#BPMS:0.000=171.440;
#STOPS:260.000=1.020
;
#BGCHANGES:0.000=BGA_BLACK.png=1.000=1=0=1,
12.000=BGA_PTS=1.000=0=0=0,
36.000=BGA_SakuraFalling=1.000=0=0=1,
64.000=BGA_Forestscroll=1.000=1=0=0,
132.000=BGA_Mountainscroll=1.000=0=0=0,
164.000=BGA_City=1.000=0=0=0,
192.000=BGA_PTS=1.000=0=0=1,
195.000=BGA_PARIS.png=1.000=0=0=1,
196.000=BGA_Forestscroll=1.000=0=0=0,
203.000=BGA_HONGKONG.png=1.000=0=0=1,
204.000=BGA_City=1.000=0=0=0,
211.000=BGA_LONDON.png=1.000=0=0=1,
212.000=BGA_Mountainscroll=1.000=0=0=0,
219.000=BGA_HONGKONG.png=1.000=0=0=1,
220.000=BGA_LONDON.png=1.000=0=0=1,
222.000=BGA_PARIS.png=1.000=0=0=1,
223.000=BGA_BLACK.png=1.000=1=0=0,
228.000=BGA_WAR=1.000=1=0=0,
259.750=BGA_BLACK.png=1.000=0=0=1,
260.000=BGA_SakuraFalling=1.000=0=0=1,
325.000=SWEET-BG.png=1.000=0=0=1,
99999=-nosongbg-=1.000=0=0=0 // don't automatically add -songbackground-
;
// cache tags:
#FIRSTBEAT:11.000;
#LASTBEAT:325.000;
#SONGFILENAME:Songs/other/Sweet/sweet.sm;
#HASMUSIC:1;
#HASBANNER:1;
#MUSICLENGTH:114.974;
// end cache tags

//---------------dance-single - ----------------
#NOTES:
     dance-single:
     :
     Hard:
     9:
     0.700,0.813,0.200,0.104,0.096,526.000,23.000,12.000,0.000,1.000:































0000
0000
0000
0000
,
0000
0000
0000
0000
,
0000
0000
0000
1000
,
0001
0000
0000
0000
,
0000
0000
0000
0001
,
1000
0000
0000
0000
,
0000
0000
0000
0100
,
0010
0000
0010
0000
,
1001
0011
1001
1010
,
1000
0010
0001
1000
0100
0001
1000
0010
,
0001
1000
0100
0001
1000
0010
0001
1000
,
0100
0001
1000
0010
0001
1000
0100
0001
,
1000
0010
0001
0010
0001
0010
0001
1000
,
0100
0001
1000
0010
0001
1000
0100
0001
,
0100
0001
0100
0001
1000
0010
0001
1000
,
0100
0001
1000
0010
0001
1000
0100
0000
,
1001
0000
1000
1000
,
1000
0010
0100
0001
1000
0010
0100
0001
,
1000
0010
0100
0010
0100
0010
0100
0010
,
1000
0010
0100
0001
1000
0010
0100
0001
,
1000
0010
0100
0001
0100
0001
0100
0001
,
1000
0100
0010
0001
1000
0100
0010
0001
,
1000
0001
1000
0001
0010
0100
0010
0100
,
1000
0100
0010
0001
1000
0100
0010
0001
,
1000
0001
1000
0001
1000
0001
1001
0000
,
1001
0001
1000
0010
0100
0001
1000
0010
,
0100
0001
0010
0001
0010
0001
0010
1000
,
0010
0100
0001
1000
0010
0100
0001
1000
,
0010
0100
0001
0010
0001
0100
0001
1000
,
0001
0100
0010
1000
0001
0100
0010
1000
,
0100
1000
0100
1000
0100
1000
0010
0100
,
0001
1000
0010
0100
0001
1000
0010
0100
,
1001
1100
1001
0101
,
1001
0000
1000
0100
0010
0001
1000
0100
,
0010
0001
1000
0100
0010
0001
1000
0100
,
0010
0001
1000
0100
0010
0001
1000
0100
,
0010
0001
1000
0100
0010
0001
0001
0010
,
0100
1000
0001
0010
0100
1000
0001
0010
,
0100
1000
0001
0010
0100
1000
0001
0010
,
0100
1000
0001
0010
0100
1000
0001
0010
,
0100
1000
0001
0010
0100
0000
1001
0000
,
1000
0001
1000
0000
0001
0000
0100
0000
0010
0000
0100
0000
0010
0000
0000
0000
,
1000
0001
1000
0000
0001
0000
0100
0000
0010
0000
0100
0000
0010
0000
0000
0000
,
1000
0001
1000
0000
0001
0000
0010
0000
0100
0000
0010
0000
0100
0000
0000
0000
,
1000
0001
1000
0000
0001
0000
0010
0000
0100
0000
0010
0000
0100
0000
0000
0000
,
1000
0001
1000
0000
0001
0000
0010
0000
0100
0000
0010
0000
0100
0000
0000
0000
,
1000
0001
1000
0000
0001
0000
0010
0000
0100
0000
0010
0000
0100
0000
0000
0000
,
1000
0001
1000
0000
0001
0000
0100
0000
0010
0000
0100
0000
0010
0000
0000
0000
,
2000
0000
3000
0200
,
1300
0000
0000
0000
,
2000
0000
3000
0200
0300
0000
0002
0000
,
0103
0000
0000
0000
,
2000
0000
3000
0200
0300
0000
0002
0000
,
0103
0000
0000
0000
,
2000
0000
3000
0200
0300
0000
0002
0000
,
0103
1000
0200
0301
,
1001
1100
1001
0101
,
1000
0001
1000
0000
0001
0000
0010
0000
0100
0000
0010
0000
0100
0000
0000
0000
,
1000
0001
1000
0000
0001
0000
0100
0000
0010
0000
0100
0000
0010
0000
0000
0000
,
1000
0001
1000
0000
0001
0000
0010
0000
0100
0000
0010
0000
0100
0000
0000
0000
,
1000
0001
1000
0000
0001
0000
0100
0000
0010
0000
0100
0000
0010
0000
0000
0000
,
1000
0001
1000
0000
0001
0000
0100
0000
0010
0000
0100
0000
0010
0000
0000
0000
,
1000
0001
1000
0000
0001
0000
0100
0000
0010
0000
0100
0000
0010
0000
0000
0000
,
1000
0001
1000
0000
0001
0000
0000
0000
0001
1000
0001
0000
1000
0000
0000
0000
,
1000
0001
1000
0001
1000
0001
1000
0001
1000
0001
1000
0001
1000
0001
0000
0000
,
1001
0000
1000
0010
0100
0001
1000
0010
,
0100
0001
1000
0010
0100
0001
1000
0010
,
0100
0001
0100
0010
1000
0001
0100
0010
,
1000
0001
0100
0010
1000
0001
1000
0001
,
1000
0001
0100
0010
0100
0010
1000
0001
,
1000
0001
1000
0100
1000
0100
1000
0100
,
0010
0001
0010
0100
0010
1000
0010
0100
,
0010
0001
0010
0100
0010
0100
0010
0100
,
0010
0100
1000
0100
0010
0001
0010
0100
,
1000
0100
0010
0001
0010
0100
1000
0100
,
1000
0100
0001
0010
0100
1000
0100
0010
,
0001
0010
0100
1000
0100
1000
0100
1000
,
0001
0100
0010
0100
0010
1000
0001
1000
,
0001
0100
0010
0100
0010
1000
0001
1000
,
0001
1000
0100
0010
0001
1000
0001
1000
,
0001
1001
1100
1001
,
0101
1111
0000
0000
,;

//---------------dance-single - ----------------
#NOTES:
     dance-single:
     :
     Easy:
     3:
     0.321,0.353,0.087,0.017,0.000,246.000,10.000,2.000,0.000,0.000:

0000
0000
0000
0000
,
0000
0000
0000
0000
,
0000
0000
0000
0010
,
0100
0000
0000
0000
,
0000
0000
0000
0010
,
0100
0000
0000
0000
,
0000
0000
0000
0010
,
0100
0000
0100
0000
,
0110
0110
0110
0110
,
0220
0000
0000
0000
,
0000
0000
0000
0000
,
0330
0000
0000
0000
,
0000
0000
1000
1000
,
0001
1000
0001
1000
,
1000
0001
1000
0001
,
0001
1000
0001
1000
,
1001
0000
0000
0000
,
1000
0100
0001
0100
,
1000
0100
0001
0100
,
1000
0100
0001
0100
,
1000
0100
0001
0100
,
1000
0100
0001
0100
,
1000
0100
0001
0100
,
1000
0100
0001
0100
,
1000
0100
0001
0100
,
1000
1000
1000
1000
,
0001
0001
0001
0001
,
0100
0100
0100
0100
,
0010
0010
0010
0010
,
1000
1000
1000
1000
,
0001
0001
0001
0001
,
0100
0100
0100
0100
,
0010
0100
0010
0100
,
0110
1000
0100
0010
,
0001
1000
0100
0010
,
0001
1000
0100
0010
,
0001
1000
0100
0010
,
0001
0010
0100
1000
,
0001
0010
0100
1000
,
0001
0010
0100
1000
,
0001
0010
0100
0000
,
1000
0100
1000
0100
,
0001
0100
0001
0100
,
1000
0100
1000
0100
,
0001
0100
0001
0100
,
1000
0100
1000
0100
,
0001
0100
0001
0100
,
1000
0100
1000
0100
,
1000
0000
0000
1000
,
0001
0000
0000
0000
,
0000
1000
0000
0100
0000
0000
1000
0000
,
0001
0000
0000
0000
,
0001
0100
0000
1000
,
0001
0000
0000
0000
0000
0000
0000
1000
,
0000
0100
0000
1000
,
1000
0100
0010
0001
,
0010
0100
0010
0100
,
0110
0000
0000
0000
,
1000
0000
0000
0000
,
0001
0000
0000
0000
,
1000
0000
0000
0000
,
0001
0000
0000
0000
,
1000
0000
0000
0000
,
0001
0000
0000
0000
,
1000
0000
0000
0000
,
0110
1000
0100
0001
,
0100
1000
0100
0001
,
0100
1000
0100
0001
,
0100
1000
0100
0001
,
0100
1000
0100
0001
,
0100
1000
0100
0001
,
0100
1000
0100
0001
,
0100
1000
0100
1000
,
0100
0001
0100
0001
,
0100
1000
0010
1000
,
0010
0001
0010
0001
,
0010
1000
0001
1000
,
0001
1000
0100
0010
,
0100
0010
0100
0010
,
1000
0001
1000
0001
,
1000
0100
0010
0001
,
0100
0110
0000
0000
,;

//---------------dance-single - ----------------
#NOTES:
     dance-single:
     :
     Medium:
     7:
     0.485,0.601,0.383,0.078,0.000,337.000,44.000,9.000,0.000,0.000:


























0000
0000
0000
0000
,
0000
0000
0000
0000
,
0000
0000
0000
0010
,
0100
0000
0000
0000
,
0000
0000
0000
0100
,
0010
0000
0000
0000
,
0000
0000
0000
0010
,
0100
0000
0100
0000
,
1100
0110
0011
0101
,
0220
0000
0000
0000
,
0000
0000
0000
0330
,
1000
0100
1000
0000
0001
0100
0001
0000
,
1000
0100
1000
0000
1001
0000
1001
0000
,
0001
0100
0001
0000
1000
0100
1000
0000
,
0001
0100
0001
0000
1001
0000
1001
0000
,
1000
0100
1000
0000
0001
0100
0001
0000
,
2002
0000
0000
3003
,
1000
0100
1000
0100
,
0000
0000
1000
0001
1000
0001
1000
0001
,
0010
0100
0010
0100
,
0000
0000
0010
0100
0010
0100
0010
0100
,
1000
0001
1000
0001
,
1000
0001
1000
0001
1000
0001
1000
0000
,
0001
0010
0100
1000
,
0100
1000
0100
1000
0100
1000
0100
1000
,
0001
1000
0001
1000
,
0100
0010
0100
0010
0100
0010
0100
0000
,
1000
0001
1000
0001
,
0001
0010
0001
0010
0001
0010
0001
0010
,
1000
0001
1000
0001
,
0010
0100
0010
0100
0010
0100
0010
0100
,
1000
0001
1000
0001
,
0011
1100
1010
1100
,
2002
0000
0000
0000
,
0000
0000
0000
0000
,
0000
0000
0000
0000
,
0000
0000
0000
3003
,
1000
0100
1000
0100
,
0001
0100
0001
0100
,
1000
0100
1000
0100
,
0001
0100
1001
0000
,
0010
0000
0100
0000
0010
0100
0010
0000
,
1000
0000
0001
0000
1000
0001
1000
0000
,
0100
0000
0010
0000
0100
0010
0100
0000
,
0001
0000
1000
0000
0001
1000
0001
0000
,
0100
0000
0010
0000
0100
0010
0100
0000
,
1000
0000
0001
0000
1000
0001
1000
0000
,
0010
0000
0100
0000
0010
0100
0010
0000
,
1001
0000
0000
0011
,
1100
0000
0000
0000
0000
0000
0000
2000
,
0000
0000
0000
3100
0000
0000
0110
0000
,
1001
0000
0000
0000
0000
0000
0000
0002
,
0000
0103
0000
1001
,
0110
0000
0000
0000
0000
0000
0000
2000
,
0000
3100
0000
1000
,
0100
0100
0010
0001
,
0011
1100
0110
0101
,
1001
0000
0000
0000
,
1100
0000
0000
0000
,
0101
0000
0000
0000
,
0011
0000
0000
0000
,
1010
0000
0000
0000
,
0110
0000
0000
0000
,
0100
0100
0010
0010
,
1100
0101
0011
1010
,
1001
0000
1000
0100
1000
0100
1000
0100
,
1000
0001
1000
0001
1000
0001
1000
0001
,
1000
0001
0100
0010
0100
0010
0100
0010
,
1000
0010
1000
0010
1000
0010
1000
0010
,
1000
0001
1000
0001
1000
0001
1000
0100
,
1000
0100
1000
0100
1000
0100
1000
0100
,
1000
0001
1000
0001
1000
0001
1000
0001
,
1000
0100
1000
0100
1000
0100
1000
0000
,
1001
0000
0001
0100
0001
0100
0001
0100
,
0001
0100
0001
1000
0001
1000
0001
1000
,
0010
1000
0010
1000
0010
1000
0010
1000
,
0001
1000
0001
1000
0001
1000
0001
1000
,
0001
1000
0100
0010
0100
0010
0100
0010
,
1000
0100
0010
0001
0100
0010
0100
0010
,
0100
0010
1000
0001
1000
0001
1000
0001
,
1000
0011
1100
0011
,
0110
1001
0000
0000
,;
