#TITLE:Reach Out For The Light;
#SUBTITLE:;
#ARTIST:Avantasia;
#TITLETRANSLIT:;
#SUBTITLETRANSLIT:;
#ARTISTTRANSLIT:;
#CREDIT:;
#BANNER:(cerdo_claro)Reach Out For The Light-bn.png;
#BACKGROUND:(cerdo_claro)Reach Out For The Light-bg.png;
#LYRICSPATH:;
#CDTITLE:cdtitle.png;
#MUSIC:(cerdo_claro)Reach Out For The Light.mp3;
#OFFSET:-0.220;
#SAMPLESTART:99.480;
#SAMPLELENGTH:12.000;
#SELECTABLE:YES;
#BPMS:0.000=152.800;
#STOPS:;
#BGCHANGES:;
// cache tags:
#FIRSTBEAT:0.000;
#LASTBEAT:987.000;
#SONGFILENAME:Songs/toune 3/(cerdo_claro ) Reach Out For The Light/(cerdo_claro)Reach Out For The Light.sm;
#HASMUSIC:1;
#HASBANNER:1;
#MUSICLENGTH:392.730;
// end cache tags

//---------------dance-single - ----------------
#NOTES:
     dance-single:
     :
     Hard:
     11:
     1.000,1.000,1.000,0.453,1.000,2336.000,456.000,178.000,0.000,45.000:
2100
0000
0000
3002
0000
0000
0023
0000
,
2032
0000
0000
0000
0003
3000
0002
0000
,
1203
0000
0000
2300
0000
0000
3200
0000
,
2310
0000
3002
0000
0013
0100
1000
0001
,
1001
0000
0000
0000
0000
0000
0000
0000
0000
1001
0010
0100
1000
0000
0010
0000
0100
0000
1010
0000
0000
0000
0000
0000
,
2010
0000
0000
3012
,
1103
0000
0000
2001
0000
3000
0210
0000
,
2310
0000
3002
0000
0013
0100
1000
0001
,
1010
0100
0010
0001
0010
0100
1000
0100
1000
0100
0010
0001
0010
0100
1000
0010
,
0100
0010
1000
0100
0010
0100
1000
0001
0010
0001
1000
0010
0100
0001
1000
0001
,
1000
0000
0000
0001
0000
0000
0100
0000
0000
0010
0000
0000
1000
0000
0000
0001
0000
0000
0010
0000
0000
0001
0000
0000
1000
0000
0000
0100
0000
0000
1000
0000
0000
0010
0000
0000
0100
0000
0000
0010
0000
0000
1000
0000
0000
0000
0001
0000
,
0100
0010
1001
0100
0010
0001
1000
0100
0010
0001
1000
0001
1000
0010
0100
0001
1000
0010
0100
0000
0010
0000
0100
0000
,
1000
0001
0010
0100
1000
0100
0010
0100
1000
0001
0100
0001
1000
0010
0100
0001
,
0010
0100
1000
0100
1000
0010
0100
0001
1000
0100
1000
0010
0100
0010
0001
0010
,
0100
0010
0001
0100
0010
0100
1000
0100
0010
0100
0001
0010
0100
1000
0001
1000
,
0001
0000
0010
0000
0100
0000
1000
0000
0100
0000
0010
0000
0001
0000
1000
0000
0010
0000
0100
0000
0001
0000
1000
0000
0010
0000
0100
0000
0001
0000
1000
0000
0001
0000
0010
0000
0100
0000
0000
1000
0000
0000
0010
0000
0000
0100
0000
0000
,
0011
0000
0001
1000
0001
1000
0011
0000
1000
0010
0100
0001
1100
0000
0000
0000
,
0011
0000
1000
0010
0100
0001
1100
0000
0001
0100
0010
1000
0011
0000
0000
0000
,
2100
0000
3001
0011
0000
0000
0110
0000
,
2001
0000
0000
0001
3001
0000
0110
0000
,
1100
0000
0001
1000
0001
1000
0011
0000
1000
0010
0100
0001
1100
0000
0000
0000
,
0011
0000
1000
0010
0100
0001
1100
0000
0001
0100
0010
1000
0011
0000
0000
0000
,
2100
0000
3001
0011
0000
0000
0110
0000
,
2001
0000
0001
0002
0000
3003
0110
0000
,
0101
0000
0010
0100
0010
0100
1010
0000
0100
1000
0001
0010
0101
0000
0000
0000
,
1010
0000
0100
1000
0001
0010
0101
0000
0010
0001
1000
0100
1010
0000
0000
0000
,
0201
0000
0310
1010
0000
0000
1001
0000
,
0210
0000
0000
0010
0310
0000
1001
0000
,
1010
0000
0100
0010
0100
0010
0101
0000
0010
0001
1000
0100
1010
0000
0000
0000
,
0101
0000
0010
0001
1000
0100
1010
0000
0100
1000
0001
0010
0101
0000
0000
0000
,
1020
0000
0130
0101
0000
0110
1001
0000
,
0120
1000
0100
0001
1000
0001
1130
0000
0000
1001
0000
0000
,
2010
3020
0230
0302
,
2103
3020
0230
0302
,
1103
2100
3020
0000
0230
0000
0302
0000
,
2103
3020
0230
0302
,
1103
1000
0010
0100
1001
0010
0100
0001
,
1100
0010
0100
0001
1100
0010
0100
0001
,
1001
0100
0010
0001
1100
0010
0100
0001
,
1010
0000
0000
1000
0100
0010
0001
0000
0000
0001
0010
0100
1000
0000
0000
1000
0100
0010
0001
0000
0000
0010
0000
0000
,
2010
0001
0010
0001
0100
0001
0010
0100
,
3011
1010
0101
1010
,
0102
0000
0000
0010
0000
0000
1000
0000
0000
0010
0000
0000
0100
0000
0000
0010
0000
0000
1000
0000
0000
1003
0100
0010
,
0001
0000
0000
0010
0000
0000
0100
0000
0000
1000
0000
0000
0001
0000
0000
0000
0010
0000
0000
0000
0100
0000
0000
0000
1000
0000
0000
0000
0100
0000
0000
0000
0010
0000
0000
0000
0001
0000
0000
0010
0000
0000
0100
0000
0000
1000
0000
0000
,
0012
0213
2310
3102
,
0223
0000
0000
0000
,
2332
0000
0000
0000
,
3223
0330
0000
0000
,
1100
0010
0001
0100
0010
1000
0001
0010
1100
0010
0001
0100
0010
0100
0001
0100
,
1010
0001
0100
0010
1000
0001
0100
0010
0101
0010
1000
0010
0100
0001
1000
0001
,
1010
0000
0001
0010
0100
1000
0011
0000
1000
0010
0100
0001
1000
0001
0100
0001
,
1100
0000
0001
0010
0100
0000
1001
0000
1001
0000
1000
0010
0100
0001
1000
0001
,
0110
0001
1000
0010
0100
0001
1000
0100
0011
0100
1000
0010
0100
0010
1000
0010
,
0101
1000
0010
0100
0001
1000
0010
0100
1010
0100
0001
0100
0010
1000
0001
1000
,
0101
0000
1000
0100
0010
0001
1100
0000
0001
0100
0010
1000
0001
1000
0010
1000
,
0011
0000
1000
0100
0010
0000
1001
0000
1001
0000
0001
0100
0010
1000
0001
0010
,
1100
0010
0001
0100
0010
1000
0001
0010
1100
0010
0001
0100
0010
0100
0001
0100
,
1010
0001
0100
0010
1000
0001
0100
0010
0101
0010
1000
0010
0100
0001
1000
0001
,
1010
0100
0001
0010
0100
1000
0010
0100
1010
0001
0100
0001
1000
0001
0100
0001
,
1100
0110
0110
1001
1001
1010
1010
1100
,
1010
0001
0100
1000
0001
0010
0100
0001
1100
0010
0100
0001
1000
0001
0100
0010
,
1100
0001
0010
0100
1000
0001
0100
0010
1100
0001
1000
0001
0100
0010
1000
0100
,
0011
0100
1000
0010
0100
0001
1000
0010
1100
0001
0100
0010
1000
0001
1000
0001
,
2020
0000
0000
0000
3232
0000
0000
0303
,
1001
0000
0000
0000
0000
0000
0001
0000
0000
0010
0000
0000
0100
0000
0000
1000
0000
0000
0011
0000
0000
0000
0000
0000
0000
0000
0000
0000
0000
0000
1010
0000
0000
0000
0000
0000
1010
0000
0000
0000
0000
0000
1000
0000
0100
0000
0010
0000
,
0001
0000
0010
0000
0100
0000
1000
0000
0000
0010
0000
0000
0100
0000
0000
0001
0000
0000
1000
0000
0000
0001
0000
0000
1000
0000
0000
0000
0001
0000
0000
0000
0010
0000
0000
0000
2200
0000
0000
0000
0000
0000
0300
0000
0000
3000
0000
0000
,
0011
0000
1000
0010
0100
0001
1100
0000
0001
0100
0010
1000
0011
0000
1000
0010
,
1100
0000
0001
0100
0010
1000
0110
0000
1001
0000
0110
0000
0011
0000
1010
0000
,
0011
0000
1000
0010
0100
0001
1100
0000
0001
0100
0010
1000
0011
0000
1000
0010
,
1100
0000
0001
0100
0010
1000
0110
0000
0011
0000
0110
0000
1100
0000
0110
0000
,
1001
0000
1000
0010
0100
0001
1100
0000
0001
0100
0010
1000
0011
0000
1000
0010
,
1100
0000
0001
0100
0010
1000
0110
0000
0001
1000
0010
0000
0011
0000
1010
0000
,
0011
0000
1000
0010
0100
0001
1100
0000
0001
0100
0010
1000
0011
0000
1000
0010
,
1000
0000
0100
0000
0010
0000
0001
0000
1000
0000
0010
0000
0100
0000
0001
0000
0100
0000
0010
0000
1000
0000
0010
0000
0100
0000
0001
0000
1000
0000
0001
0000
0000
1000
0000
0000
0001
0000
0000
1000
0000
0000
0001
0000
0000
1000
0000
0000
,
0101
0000
0001
1000
0001
1000
0011
0000
1000
0010
0100
0001
1100
0000
0000
0000
,
0011
0000
1000
0010
0100
0001
1100
0000
0001
0100
0010
1000
0011
0000
0000
0000
,
2100
0000
3001
0011
0000
0110
0110
0000
,
2001
0000
0000
0001
3001
0000
0110
0000
,
1100
0000
0001
1000
0001
1000
0011
0000
1000
0010
0100
0001
1100
0000
0000
0000
,
0011
0000
1000
0010
0100
0001
1100
0000
0001
0100
0010
1000
0011
0000
0000
0000
,
2100
0000
3001
0011
0000
0110
0000
0010
,
2100
3210
0302
0113
,
0101
0000
0010
0100
0010
0100
1010
0000
0100
1000
0001
0010
0101
0000
0000
0000
,
1010
0000
0100
1000
0001
0010
0101
0000
0010
0001
1000
0100
1010
0000
0000
0000
,
0201
0000
0310
1010
0000
1001
0000
0000
,
0210
0000
0010
0010
0300
0000
1001
0000
,
1010
0000
0100
0010
0100
0010
0101
0000
0010
0001
1000
0100
1010
0000
0000
0000
,
0101
0000
0010
0001
1000
0100
1010
0000
0100
1000
0001
0010
0101
0000
0000
0000
,
1020
0000
0130
0101
0000
1001
1001
0001
,
0120
1000
0100
0001
1000
0001
1130
0000
0000
1001
0000
0000
,
2010
3020
0230
0302
,
2103
3020
0230
0302
,
1103
2100
3020
0000
0230
0000
0302
0000
,
2103
3020
0230
0302
,
1103
1000
0010
0100
1001
0010
0100
0001
,
1100
0010
0100
0001
1100
0010
0100
0001
,
1001
0100
0010
0001
1100
0010
0100
0001
,
1010
0000
0000
1000
0100
0010
0001
0000
0000
0001
0010
0100
1000
0000
0000
1000
0100
0010
0001
0000
0000
0010
0000
0000
,
0011
0000
0110
0000
1010
0000
0001
0101
,
0000
0000
0000
2002
0000
0000
0003
0000
0000
3000
0000
0000
0101
0000
0000
0000
1010
0000
1010
0000
0000
0000
0000
0000
,
0102
0000
0000
0010
0000
0000
1000
0000
0000
0010
0000
0000
0100
0000
0000
0010
0000
0000
1000
0000
0000
1003
0100
0010
,
0001
0000
0000
0010
0000
0000
0100
0000
0000
1000
0000
0000
0001
0000
0000
0000
0010
0000
0000
0000
0100
0000
0000
0000
1000
0000
0000
0000
0100
0000
0000
0000
0010
0000
0000
0000
0001
0000
0000
0010
0000
0000
0100
0000
0000
1000
0000
0000
,
0012
0213
2310
3102
,
0223
0000
0000
0000
,
2332
0000
0000
0000
,
3223
0000
0000
0000
0000
0000
0000
0330
,
1100
0010
0001
0100
0010
1000
0001
0010
1100
0010
0001
0100
0010
0100
0001
0100
,
1010
0001
0100
0010
1000
0001
0100
0010
0101
0010
1000
0010
0100
0001
1000
0001
,
1010
0000
0001
0010
0100
1000
0011
0000
1000
0010
0100
0001
1000
0001
0100
0001
,
1100
0000
0001
0010
0100
0000
1001
0000
1001
0000
1000
0010
0100
0001
1000
0001
,
0110
0001
1000
0010
0100
0001
1000
0100
0011
0100
1000
0010
0100
0010
1000
0010
,
0101
1000
0010
0100
0001
1000
0010
0100
1010
0100
0001
0100
0010
1000
0001
1000
,
0101
0000
1000
0100
0010
0001
1100
0000
0001
0100
0010
1000
0001
1000
0010
1000
,
0011
0000
1000
0100
0010
0000
1001
0000
1001
0000
0001
0100
0010
1000
0001
0010
,
1100
0010
0001
0100
0010
1000
0001
0010
1100
0010
0001
0100
0010
0100
0001
0100
,
1010
0001
0100
0010
1000
0001
0100
0010
0101
0010
1000
0010
0100
0001
1000
0001
,
1010
0100
0001
0010
0100
1000
0010
0100
1010
0001
0100
0001
1000
0001
0100
0001
,
1100
0110
0110
1001
1001
1010
1010
1100
,
1010
0001
0100
1000
0001
0010
0100
0001
1100
0010
0100
0001
1000
0001
0100
0010
,
1100
0001
0010
0100
1000
0001
0100
0010
1100
0001
1000
0001
0100
0010
1000
0100
,
0011
0100
1000
0010
0100
0001
1000
0010
1100
0001
0100
0010
1000
0001
1000
0001
,
2020
0000
0000
0000
3232
0000
0000
0303
,
2000
0000
0000
0000
,
0000
0000
0000
0000
,
0200
0000
0000
0000
,
0000
0000
0000
3000
,
0020
0000
0000
0000
,
0000
0000
0000
0300
,
2032
0000
0000
0000
,
3223
0000
0000
0330
,
2020
0000
0000
0000
0000
0000
0000
0000
0000
0000
0000
0000
0000
0000
0000
0000
0000
0000
3030
0000
0000
0001
0010
0100
,
1000
0000
0000
0000
0000
0000
0110
0000
0011
0000
0110
0000
,
2020
0000
0000
0000
0000
0000
0000
0000
0000
0000
0000
0000
0000
0000
0000
0000
0000
0000
3030
0000
0000
1000
0100
0010
,
0001
0000
0000
0000
0000
0000
1100
0000
0110
0000
0011
0000
,
2002
0000
0000
0000
0000
0000
0000
0000
0000
0000
0000
0000
0000
0000
0000
3003
0000
0000
0000
0000
0000
0001
0010
0100
,
1000
0000
0000
0000
0000
0000
1001
0000
0011
0000
0110
0000
,
2100
0000
0000
3000
0001
0000
0001
0000
0010
0000
0100
0000
1000
0000
0010
0000
0100
0000
0010
0000
0001
0000
1000
0000
,
0010
0000
0000
0000
0000
0000
0000
0000
0000
0000
0000
0000
0000
0000
0000
0000
0100
0000
0000
0000
0000
0000
0000
0000
0000
0000
0000
0000
0000
0000
0000
0000
0000
0000
0000
0000
0001
0000
0000
0000
0000
0000
0010
0000
0000
0000
0000
0000
0100
0000
0000
0000
0000
0000
1000
0000
0000
0000
0000
0000
0000
0000
0000
0000
0000
0000
0000
0000
0000
0000
0000
0000
0000
0000
0000
0000
0000
0000
0000
0000
1000
0000
0000
0000
0000
0000
0000
0000
0000
0000
0000
0000
0000
0000
0000
0000
0100
0000
0000
0000
0000
0000
0000
0000
0000
0000
0000
0000
0000
0000
0000
0000
0010
0000
0000
0000
0000
0000
0000
0000
0000
0000
0000
0000
0000
0000
0000
0000
0001
0000
0000
0000
0000
0000
0000
0000
0000
0000
0000
0000
0000
0000
0000
0000
1000
0000
0000
0000
0000
0000
0000
0000
0000
0000
0000
0000
0000
0000
0000
0000
0010
0000
0000
0000
0000
0000
0000
0000
0000
0000
0000
0000
0000
0000
0000
0000
1000
0000
0000
0000
0000
0000
0000
0000
0000
0000
0000
0000
0000
0000
0000
0000
,
0011
0011
0000
1100
2010
0000
0000
0000
,
3001
0001
0010
0100
1000
1000
0001
0001
,
0101
0000
0000
0000
1001
0000
0000
0000
0000
0000
0000
0000
1100
0000
0000
0000
2100
0000
0000
0000
0000
0000
0000
0000
0000
0000
0000
0000
0000
0002
0000
0000
,
3000
0013
1000
0010
0100
0001
1000
0010
,
0101
1001
0000
1100
2100
0000
0000
0000
,
3011
0001
0110
0000
1100
0001
0110
0000
,
2010
3001
0101
0000
0202
0300
0010
0010
,
1103
0010
0100
0001
1100
0010
0100
0001
,
1100
1100
0000
0011
1002
0000
0000
0003
,
1000
0010
0001
0100
1000
0010
0001
0100
1000
0010
0001
0100
1000
0010
0001
1000
,
0012
0000
0000
0000
0010
0000
0000
0000
0113
0000
0000
0000
0110
0000
0000
0000
2010
0000
0000
0000
0000
0000
0000
0000
0000
0000
0000
0000
0000
0002
0000
0000
,
3000
0103
0010
1000
0010
0001
0100
1000
,
0011
0011
0000
1100
2100
0000
0000
3000
,
0011
1000
0010
0100
0011
1000
0010
0100
,
2001
0001
0001
0000
3102
0100
0100
1000
,
2103
0000
0000
3001
0012
0000
2203
0300
,
3011
0100
1000
0010
0100
0001
1000
0001
0110
1000
0001
1000
0010
0100
0010
1000
,
0011
0100
1000
0001
0100
0000
0011
0000
0012
0000
0000
0000
0000
0000
0003
0000
,
0001
0000
0000
1000
0000
0000
0001
0000
0010
0000
0100
0000
1000
0000
0100
0000
0010
0000
0001
0000
0010
0000
0100
0000
0010
0000
0001
0000
1000
0000
0010
0000
0100
0000
0001
0000
0010
0000
0100
0000
1000
0000
0010
0000
0100
0000
0001
0000
,
1000
0001
1000
0100
0010
0100
1000
0010
0100
0010
0001
1000
0002
0000
0000
0000
0000
0000
0000
0000
0000
0003
0000
0000
,
0011
0000
1000
0010
0100
0001
0110
0000
1000
0010
0100
0001
1100
0000
0001
0100
,
0011
0000
1000
0010
0100
0001
1100
0000
0001
0100
0010
1000
0011
0000
0100
1000
,
0120
0000
0000
0000
0000
0000
0030
0000
0000
1000
0001
0100
0020
0000
0000
0000
0032
0000
0000
0000
0203
0000
0000
0000
,
2300
0000
0000
0000
0000
0000
3000
0000
0000
1000
0100
0010
0002
0000
0000
0000
0000
0000
0000
0003
0000
1000
0010
0100
,
0002
0000
0000
0000
0000
0000
0000
0000
0000
1003
0000
0000
0001
0000
0000
0200
0000
0000
0301
0010
0100
1000
0100
0010
,
0100
0010
0001
0010
0100
1000
0010
0100
0001
0010
0100
1000
0100
0010
0001
0010
0100
0010
0001
0010
0100
1000
0010
0100
,
0001
1000
0100
0010
0001
0100
0010
1000
0001
0100
0010
1000
0010
0100
0001
1000
0001
1000
0100
0010
0001
0010
0100
1000
,
0010
0100
0001
1000
0100
0010
0100
1000
0010
0100
0001
1000
0002
0000
0000
0000
0000
0000
0000
0003
1000
0000
0010
0000
,
0001
0010
0100
1000
0100
0010
0001
0010
0100
1000
0100
0010
0001
0010
0100
1000
0001
1000
0001
0100
0010
1000
0010
0100
,
0001
0010
0100
1000
0010
0100
0001
0010
0001
1000
0010
0100
0001
1000
0010
1000
0010
0100
0002
0000
0000
0000
0000
0003
,
1000
0000
0000
0100
0000
0000
0010
0000
0001
0000
0010
0000
0100
0000
1000
0000
0010
0000
0100
0000
0001
0000
0010
0000
0001
0000
1000
0000
0010
0000
0100
0000
0001
0000
1000
0000
0010
0000
1000
0000
0010
0000
0100
0000
0001
0000
0010
0000
,
0100
1000
0010
0100
0001
1000
0001
1000
0010
0100
0001
1000
0100
0010
0001
2000
0000
0000
0000
0000
0000
3000
0000
0000
,
1000
0010
0001
0010
1000
0010
0001
0010
1000
0010
0001
0010
1000
0010
0001
0010
,
1000
0100
0001
0100
1000
0100
0001
0100
1000
0100
0001
0100
1000
0100
0001
0100
,
1000
0100
0010
0001
1000
0100
0010
0001
1000
0100
0010
0001
1000
0100
0010
0001
,
0210
0000
0300
2010
0000
3000
1002
0003
,
1000
0010
0001
0010
1000
0010
0001
0010
1000
0010
0001
0010
1000
0010
0001
0010
,
1000
0100
0001
0100
1000
0100
0001
0100
1000
0100
0001
0100
1000
0100
0001
0100
,
0002
0000
0000
0023
0000
0000
2030
0000
,
3210
0000
0000
0302
0000
0000
0023
0000
,
2032
0000
0000
0000
0000
0000
0000
0000
0000
0000
0000
0000
0000
0000
0000
0000
0000
0000
3003
0000
1000
0100
0010
0001
,
2000
0000
0000
0000
0000
0000
0000
3000
0001
0100
0010
1000
0002
0000
0000
0000
0000
0000
0000
0000
0103
0010
1000
0001
,
0220
0000
0000
0000
,
0000
0030
0000
0300
,
1100
0000
0000
0001
0010
0100
1010
0000
0000
1000
0001
0100
,
0011
0000
0000
1000
0010
0100
0001
1000
0010
0100
0100
0001
,
1100
0000
0000
0001
0100
0010
1100
0000
0000
0010
0100
0001
,
1100
0000
0000
0001
1000
0010
0100
0001
1000
0001
0001
0100
,
0011
0000
0000
1000
0100
0010
0101
0000
0000
0001
1000
0010
,
1100
0000
0000
0001
0100
0010
1000
0001
0100
0010
0010
1000
,
0011
0000
0000
1000
0010
0100
0011
0000
0000
0100
0010
1000
,
0011
0000
0000
1000
0001
0100
0010
1000
0001
1000
1000
0010
,
1100
0000
0000
0100
0001
1000
0011
0000
0000
0010
0100
1000
,
0101
0000
0000
0010
0001
1000
0100
0010
0001
1000
1000
0100
,
1010
0000
0000
0100
1000
0001
1010
0000
0000
0001
1000
0100
,
1010
0000
0000
0100
0010
0001
1000
0100
0010
0100
0100
1000
,
1010
0000
0000
0100
0001
1000
0011
0000
0000
0010
0100
1000
,
0101
0000
0000
0010
0001
1000
0100
0010
0001
1000
1000
0100
,
1010
0000
0000
0100
1000
0001
1010
0000
0000
0001
1000
0100
,
1010
0000
0000
0100
0010
0001
1000
0100
0010
0100
0100
1000
,
0012
0000
0000
1003
0100
0010
0101
0000
0000
0001
1000
0010
,
1100
0000
0000
0001
0100
0010
1000
0001
0100
0010
0010
1000
,
0012
0000
0000
0003
0000
0000
1000
0000
0010
0000
0100
0000
0011
0000
0000
0000
0000
0000
0100
0000
0010
0000
1000
0000
,
0011
0000
0000
1000
0001
0100
0010
1000
0001
1000
1000
0010
,
0101
0000
0000
0010
0100
0000
1001
0000
0000
0000
0000
0000
0110
0000
0000
1000
,
0001
0000
0001
1000
0000
0001
0010
0000
1100
0000
0010
0001
0000
1100
1100
0000
,
0011
0000
0100
0010
0000
0001
0100
0000
1010
0000
0110
0110
0000
0001
0100
0000
,
1000
0010
0010
0100
0001
0010
0010
1000
0010
0100
0100
0001
0010
1000
0001
0010
,
1100
0010
0001
0100
0010
1000
0001
0010
1100
0010
0001
0100
0010
0100
0001
0100
,
1010
0001
0100
0010
1000
0001
0100
0010
0101
0010
1000
0010
0100
0001
1000
0001
,
1010
0000
0001
0010
0100
1000
0011
0000
1000
0010
0100
0001
1000
0001
0100
0001
,
1100
0000
0001
0010
0100
0000
1001
0000
1001
0000
1000
0010
0100
0001
1000
0001
,
0110
0001
1000
0010
0100
0001
1000
0100
0011
0100
1000
0010
0100
0010
1000
0010
,
0101
1000
0010
0100
0001
1000
0010
0100
1010
0100
0001
0100
0010
1000
0001
1000
,
0101
0000
1000
0100
0010
0001
1100
0000
0001
0100
0010
1000
0001
1000
0010
1000
,
0011
0000
1000
0100
0010
0000
1001
0000
1001
0000
0001
0100
0010
1000
0001
0010
,
1100
0010
0001
0100
0010
1000
0001
0010
1100
0010
0001
0100
0010
0100
0001
0100
,
1010
0001
0100
0010
1000
0001
0100
0010
0101
0010
1000
0010
0100
0001
1000
0001
,
1010
0100
0001
0010
0100
1000
0010
0100
1010
0001
0100
0001
1000
0001
0100
0001
,
1100
0000
0001
0010
0100
0000
1001
0000
1001
0000
1010
0000
1010
0000
1100
0000
,
1010
0001
0100
1000
0001
0010
0100
0001
1100
0010
0100
0001
1000
0001
0100
0010
,
1100
0001
0010
0100
1000
0001
0100
0010
1100
0001
1000
0001
0100
0010
1000
0100
,
0011
0100
1000
0010
0100
0001
1000
0010
1100
0001
0100
0010
1000
0001
1000
0001
,
2020
0000
0000
0000
3232
0000
0000
0303
,
1100
0010
0001
0100
0010
1000
0001
0010
1100
0010
0001
0100
0010
0100
0001
0100
,
1010
0001
0100
0010
1000
0001
0100
0010
0101
0010
1000
0010
0100
0001
1000
0001
,
1010
0000
0001
0010
0100
1000
0011
0000
1000
0010
0100
0001
1000
0001
0100
0001
,
1100
0000
0001
0010
0100
0000
1001
0000
1001
0000
1000
0010
0100
0001
1000
0001
,
0110
0001
1000
0010
0100
0001
1000
0100
0011
0100
1000
0010
0100
0010
1000
0010
,
0101
1000
0010
0100
0001
1000
0010
0100
1010
0100
0001
0100
0010
1000
0001
1000
,
0101
0000
1000
0100
0010
0001
1100
0000
0001
0100
0010
1000
0001
1000
0010
1000
,
0011
0000
1000
0100
0010
0000
1001
0000
1001
0000
0001
0100
0010
1000
0001
0010
,
1100
0010
0001
0100
0010
1000
0001
0010
1100
0010
0001
0100
0010
0100
0001
0100
,
1010
0001
0100
0010
1000
0001
0100
0010
0101
0010
1000
0010
0100
0001
1000
0001
,
1010
0100
0001
0010
0100
1000
0010
0100
1010
0001
0100
0001
1000
0001
0100
0001
,
1100
0010
0010
0100
0011
1000
0001
0010
,
2100
0000
0000
0000
0000
3002
0000
0000
,
0000
0000
0023
0000
0000
0000
0000
0230
,
0000
0000
0000
0300
0000
0000
1000
0100
0010
0001
0000
0000
0000
0000
0000
0000
0000
0000
0020
0000
0000
0000
0000
0000
,
0000
0000
0000
0000
,
0000
0030
0000
0000
0012
0000
0000
0000
,
0000
0000
0000
0003
0210
0000
0000
0000
,
0000
0000
0300
0000
,
2002
0000
0000
0000
,
0000
0000
0000
0000
,
0000
0000
0000
0000
,
0000
0000
0000
0000
,
0000
0000
0000
0000
,
0000
0000
0000
3003
;
