#TITLE:X2;
#SUBTITLE:;
#ARTIST:小夜(G-NSK);
#TITLETRANSLIT:;
#SUBTITLETRANSLIT:;
#ARTISTTRANSLIT:SAYO(G-NSK);
#CREDIT:;
#BANNER:x2.png;
#BACKGROUND:x2-bg.png;
#LYRICSPATH:;
#CDTITLE:cdtitle.png;
#MUSIC:x2.ogg;
#OFFSET:-0.020;
#SAMPLESTART:96.340;
#SAMPLELENGTH:12.000;
#SELECTABLE:YES;
#DISPLAYBPM:160.000;
#BPMS:0.000=160.020,288.500=166.000,290.000=160.000;
#STOPS:;
#BGCHANGES:;
// cache tags:
#FIRSTBEAT:28.000;
#LASTBEAT:292.500;
#SONGFILENAME:Songs/Japanese Collaboration Mix/x2/x2.sm;
#HASMUSIC:1;
#HASBANNER:1;
#MUSICLENGTH:110.531;
// end cache tags

//---------------dance-single - ----------------
#NOTES:
     dance-single:
     :
     Challenge:
     11:
     0.726,0.893,0.416,0.290,0.480,484.000,46.000,32.000,0.000,0.000:
0000
0000
0000
0000
,
0000
0000
0000
0000
,
0000
0000
0000
0000
,
0000
0000
0000
0000
,
0000
0000
0000
0000
,
0000
0000
0000
0000
,
0000
0000
0000
0000
,
0001
0000
1000
0100
1000
0000
0010
0000
0100
0000
0010
0000
1001
0000
0000
0000
,
1001
0000
0001
0000
1001
0000
0001
0010
0001
0100
0001
0000
1001
0000
0000
0000
,
1001
0000
1000
0000
1001
0000
1000
0100
1000
0010
1000
0000
1001
0000
0000
0000
,
1001
0000
0001
0000
1001
0000
0001
0100
0001
0010
0001
0000
1001
0000
0001
0000
,
1000
0001
1000
0001
1000
0001
1001
0000
,
0000
0000
0000
0000
0001
0000
0010
0001
0000
0010
0001
0000
0210
0000
0001
0000
,
0010
0000
0301
0000
0010
0000
0001
0010
0000
0001
0010
0000
0001
0000
0010
0100
,
1000
0000
0001
0000
1000
0000
0010
0100
0000
1000
0100
0000
1020
0000
0100
0000
,
1000
0000
0130
0000
1000
0000
0100
1000
0000
0100
1000
0000
0100
0010
0001
0000
,
0201
0000
0010
0000
0301
0000
0010
0001
0000
0010
0001
0000
0010
0100
1000
0000
,
1020
0000
0100
0000
1030
0000
0100
1000
0000
0100
1000
0000
0100
0010
0001
0000
,
0201
0000
0010
0000
0301
0000
0010
0001
0000
0010
0001
0000
0100
0010
1000
0100
,
1000
0000
0100
0000
1020
0000
0100
0000
1030
0010
0000
0100
0010
0000
0000
0000
,
0201
0000
0010
0000
0301
0000
0010
0001
0000
0010
0001
0000
0210
0000
0001
0000
,
0010
0000
0301
0000
0010
0000
0001
0010
0000
0001
0010
0000
0001
0000
0010
0100
,
1000
0000
0001
0000
1000
0000
0010
0100
0000
1000
0100
0000
1020
0000
0100
0000
,
1000
0000
0130
0000
1000
0000
0100
1000
0000
0100
1000
0000
0100
0010
0001
0000
,
0201
0000
0010
0000
0301
0000
0010
0001
0000
0010
0001
0000
0010
0100
1000
0000
,
1020
0000
0100
0000
1030
0000
0100
1000
0000
0100
1000
0000
0100
0010
0001
0000
,
0201
0000
0010
0000
0301
0000
0010
0001
0000
0010
0001
0000
0100
0010
1000
0100
,
2000
0000
0000
0000
0000
0000
0000
0002
0000
0000
0000
0000
3003
0000
0000
0000
,
0002
1000
0100
1000
0000
0010
0103
0001
,
0010
0000
0001
0000
0100
0000
0010
0000
1000
0000
0001
0000
0100
0001
0000
0000
,
1000
0001
0100
0002
0000
0100
0010
0100
,
2003
0100
3010
1000
0001
0100
0010
0000
,
2000
0000
0100
0001
0010
0100
3010
0000
,
0010
0001
0100
0010
1000
0010
1010
0000
,
2000
0001
0100
0002
3000
0100
0010
0103
,
0001
1000
0010
0100
0001
1000
1001
0000
,
2000
0010
0100
0010
0000
0100
3001
0000
,
0100
1000
0010
0100
0001
0100
0101
0000
,
0002
1000
0010
2000
0003
0010
0100
3010
,
0001
0010
0100
0001
1000
0010
0100
0000
,
0002
0000
0010
1000
0010
1000
0013
0000
,
0100
1000
0010
0100
0001
0100
0101
0000
,
0001
0010
0100
0000
0010
0000
0001
0000
1000
0000
0010
0000
0100
0000
0010
0000
,
2000
0100
0000
0001
0000
0000
0100
0000
0000
0100
0000
0000
3100
0000
0000
0000
,
0000
0000
1001
0000
,
0000
0000
0000
0000
,
0000
0000
0000
0000
,
0000
0000
0000
0000
,
0000
0200
0000
0000
0000
0000
0000
0000
0300
0000
0000
0000
0000
0000
0000
0000
,
0000
0000
0000
0000
,
0000
0000
0000
0000
,
0000
0000
0000
0000
,
0000
0000
2000
0100
,
3002
0010
2003
0100
,
3002
0010
2003
0100
,
0001
0100
0010
3100
,
1000
0000
0000
0000
0001
0010
0100
1000
0001
0000
0010
0001
0000
0010
0001
0000
,
0010
0001
0010
0100
1000
0000
0100
1000
0000
0100
1000
0000
0010
0100
0001
0100
,
0010
1000
0100
1000
0001
0000
0100
0010
0000
1000
0100
0000
1000
0100
0000
1000
,
0100
0010
0001
0000
0010
0000
0001
0010
0000
0001
0010
0000
0001
0010
0100
1000
,
0001
0000
0100
0000
0010
0000
1000
0100
0000
1000
0100
0000
1000
0100
0010
0001
,
1000
0000
0001
0010
0000
0001
0010
0000
0001
0010
0100
1000
0001
0000
1000
0100
,
0000
1000
0100
0000
1000
0100
0010
0001
1000
0000
0001
0000
0100
0010
0100
0000
,
0001
0000
0100
0010
0100
0000
0001
0010
0100
1000
0001
0000
0100
0000
0001
0000
,
1000
0001
1000
0000
1001
0000
0001
0000
1001
0000
0001
0010
0001
0100
0001
0000
,
1001
0000
0000
0000
1001
0000
1000
0000
1001
0000
1000
0100
1000
0010
1000
0000
,
1001
0000
0000
0000
1001
0000
0001
0000
1001
0000
0001
0100
0001
0010
0001
0000
,
1001
0001
1000
0001
1000
0001
1000
0001
,
1001
0000
0000
0000
1001
0000
0001
0000
1001
0000
0001
0100
0001
0010
0001
0000
,
1001
0000
0000
0000
1001
0000
1000
0000
1001
0000
1000
0010
1000
0100
1000
0000
,
1001
0000
0000
0000
1001
0000
0001
0000
1001
0000
0001
0010
0001
0100
0001
0000
,
1000
0002
0100
0010
0100
1000
0100
0010
,
0003
0001
0000
0000
0000
0000
0000
0001
,
0100
1000
0000
0000
0000
0000
0000
0000
;
