#TITLE:Manhunt;
#SUBTITLE:Room V (2005);
#ARTIST:Shadow Gallery;
#TITLETRANSLIT:;
#SUBTITLETRANSLIT:;
#ARTISTTRANSLIT:;
#CREDIT:;
#BANNER:Manhunt-bn.png;
#BACKGROUND:Manhunt-bg.png;
#LYRICSPATH:;
#CDTITLE:!cdtitle.png;
#MUSIC:01_shadow_gallery-act_iii_-_manhunt-amrc.mp3;
#OFFSET:1.520;
#SAMPLESTART:34.360;
#SAMPLELENGTH:12.500;
#SELECTABLE:YES;
#BPMS:0.000=150.000,226.000=147.580,236.000=145.880;
#STOPS:204.500=0.010
,223.333=0.015
,235.750=0.020
,235.750=0.020
;
#BGCHANGES:;
// cache tags:
#FIRSTBEAT:4.000;
#LASTBEAT:316.000;
#SONGFILENAME:Songs/Astronomic Metal Collection 2/(Kommisar) Manhunt/bs.sm;
#HASMUSIC:1;
#HASBANNER:1;
#MUSICLENGTH:129.959;
// end cache tags

//---------------dance-single - ----------------
#NOTES:
     dance-single:
     :
     Hard:
     13:
     1.000,1.000,1.000,0.408,1.000,907.000,196.000,53.000,0.000,76.000:
0000
0000
0000
0000
,
1011
0000
0100
0100
0011
0000
0011
0000
0100
0100
0011
0000
0100
0100
1001
0000
,
0011
0000
0100
0100
1001
0000
0011
0000
0100
0100
1010
0000
1110
0000
1101
0000
,
0010
0010
1001
0000
1001
0000
0010
0010
1001
0000
0010
0010
0101
0000
1001
0000
,
0010
0010
0101
0000
1001
0000
0010
0010
1001
0000
1110
0000
0111
0000
1000
1000
,
0011
0000
0011
0000
1000
1000
0011
0000
1000
1000
0101
0000
0011
0000
1000
1000
,
0011
0000
0011
0000
1000
1000
0011
0000
1110
0000
1011
0000
0100
0100
1001
0000
,
1001
0000
0100
0100
1001
0000
0100
0100
0011
0000
1001
0000
0100
0100
0011
0000
,
1001
0000
0100
0100
1001
0000
0111
0000
1102
0000
0010
0100
1000
0003
0001
1000
,
0000
0000
0000
0100
0000
0000
0010
0000
0000
0000
0000
0000
0201
0000
0000
0000
0000
0000
0001
0000
0010
0300
0100
0000
2011
0000
0000
0000
0000
0000
0110
0000
0000
0000
0000
0000
0001
0000
0000
0010
0000
0000
0100
0000
0000
3010
0000
0000
,
1002
0000
0100
1000
0100
0003
0001
0000
0100
0000
0001
0010
1200
0000
0001
1300
,
0120
0001
1000
0031
1200
0000
0310
0100
1012
0000
0000
0000
0100
0003
0001
1000
,
0000
0100
0010
0001
0120
0000
0130
0010
2001
0010
0100
0010
0001
0010
0100
3010
,
1102
0000
0000
0000
0000
0000
0000
0000
0000
0000
0000
0000
0100
0000
0000
0003
0000
0000
0001
0000
0000
1000
0000
0000
0000
0000
0000
0100
0000
0000
1000
0000
0000
0010
0000
0000
0201
0000
0000
0000
0000
0000
0010
0000
1000
0300
0100
0000
,
0021
0000
0100
0030
2002
0000
0000
3003
1011
0100
1000
0100
0011
0100
1000
0100
,
0010
0100
1001
0100
0011
0100
1001
0100
0001
0010
0100
1000
0011
1000
0001
0100
,
0001
0010
0001
0010
1001
0100
0010
0100
0011
1000
0010
1000
0001
0100
0001
1000
,
0011
0100
1000
0010
1000
0100
0010
0001
1100
0010
1000
0001
1000
0100
0010
0001
,
1100
0010
0100
1000
0011
0100
1010
0100
1001
0010
0101
0010
1001
0100
0010
0001
,
1100
0001
1100
0010
1001
0010
0100
1000
0011
0100
1000
0100
0010
0001
0010
0100
,
1001
0010
0001
0010
1100
0001
0010
0100
1000
0001
0100
0001
1010
0100
0010
0001
,
1000
0100
1000
0100
0011
1000
0001
1000
0010
0100
0010
0001
1110
0001
0010
0100
,
1011
0100
0010
0001
0110
1000
0100
0010
0001
0100
0010
0100
1001
0010
0100
1000
,
0001
0010
0100
1000
0011
0100
0010
0100
0001
0010
0100
1000
0011
0100
1001
0010
,
1001
0010
0100
1000
0000
0000
1000
0000
0000
0001
0010
0100
1000
0000
0000
1000
0000
0000
0001
0010
0100
1000
0000
0000
,
1001
0000
0010
0000
0100
0000
1000
0000
0000
0000
0000
0000
1000
0000
0000
0000
0000
0000
0001
0000
0010
0000
0100
0000
1000
0000
0000
0000
0000
0000
1000
0000
0000
0000
0000
0000
1101
0000
0000
0010
0000
0000
0100
0000
0000
1000
0000
0000
,
0101
0010
0001
0010
0001
0010
0100
1000
0101
0010
0001
0010
0100
1000
0001
1000
,
0110
1000
0100
0010
0001
0010
0100
1000
0011
1000
0100
0010
0001
0010
0100
1000
,
0110
1000
0001
0010
0001
0010
0100
1000
0110
1000
0001
1000
0001
0100
0010
1000
,
0011
0100
0001
1000
0010
1000
0100
1000
0011
0100
1001
0010
1101
0010
0100
1000
,
0101
0010
0001
0010
0001
0010
0100
1000
0101
0010
0001
0010
0100
1000
0001
1000
,
0110
0000
0000
1000
0000
0000
0100
0000
0000
0010
0000
0000
0001
0000
0000
0010
0000
0000
0100
0000
0000
1000
0000
0000
0011
0000
0000
1000
0000
0000
0100
0000
0000
0010
0000
0000
0001
0000
0100
0000
1000
0000
0010
0000
0100
0000
1000
0000
,
0001
0000
0100
0000
1000
0000
0010
0000
0100
0000
1000
0000
0001
0000
0010
0000
0100
0000
1000
0000
0001
0000
1000
0000
0001
0000
0010
0000
0100
0000
1000
0000
0100
0000
0010
0000
1001
0000
0000
0010
0000
0000
0100
0000
0000
1000
0000
0000
,
0001
0010
0100
1000
0001
0010
0100
0010
1002
0010
0100
0013
2101
0000
0000
0011
,
0000
3000
0201
0000
0000
0011
0000
0300
1020
0000
0001
0030
2101
0000
0000
0000
,
0000
0000
0000
0012
0000
0000
0000
0000
0000
0000
0000
0000
3003
0000
0000
0000
0000
0000
0000
0000
0000
0000
0000
0000
0200
0000
0000
0000
0000
0000
0000
0000
0000
0000
0000
0000
0000
0000
0000
0000
0000
0000
0000
0000
0000
0000
0000
0000
0010
0000
0000
0000
0000
0000
0000
0000
1000
0000
0000
0000
0000
0000
0000
0000
0001
0000
0000
0000
0000
0000
0000
0000
0010
0000
0000
0000
0000
0000
0000
0000
1000
0000
0000
0000
0300
0000
0000
0000
0001
0000
0000
0000
0000
0000
0000
0000
0020
0000
0000
0000
0000
0000
0000
0000
0100
0000
0000
0000
0000
0000
0000
0000
1000
0000
0000
0000
0000
0000
0000
0000
0001
0000
0000
0000
0000
0000
0000
0000
0100
0000
0000
0000
0030
0000
0000
0000
1000
0000
0000
0000
0000
0000
0000
0000
0012
0000
0000
0000
0000
0000
0000
0000
0000
0000
0000
0000
0000
0000
0000
0000
0000
0000
0000
0000
0000
0000
0000
0000
0000
0000
0000
0000
0000
0000
0000
0000
0000
0000
0000
0000
0000
0000
0000
0000
0000
0000
0000
0000
0000
0000
0000
0000
,
0000
0000
0000
0003
0000
0000
0020
0000
0100
0000
1000
0000
0001
0000
0000
1100
0000
0000
0000
0000
0000
1130
0000
0000
0000
0000
0000
0010
0000
0000
1101
0000
0000
0000
0000
0000
1002
0000
0000
0010
0000
0000
0100
0000
0000
1000
0000
0000
,
0010
0000
0000
0100
0000
0000
1000
0000
0000
0010
0000
0000
0100
0000
0000
1000
0000
0000
0010
0000
0000
0103
0000
0000
1002
0000
0000
0000
0000
0000
0000
0000
0000
0003
0000
0000
0001
0000
0010
0000
0100
0000
1000
0000
0010
0000
0100
0000
,
0001
0010
0100
1000
0001
1000
0100
0010
0001
0100
0010
1000
0001
1000
0100
0010
0001
0100
0001
0010
0100
1000
0010
1000
,
0001
0010
0100
1001
0100
0010
0001
0010
1100
0001
0000
0000
1001
0100
0010
0001
1000
0001
1000
0100
0010
0001
1000
0001
,
1000
0000
0100
0000
0010
0000
0001
0000
1000
0000
0100
0000
0020
0000
0000
0000
0030
0000
1001
0000
0000
0010
0000
0000
0100
0000
0000
1000
0000
0000
0001
0000
0000
0010
0000
0000
0100
0000
0000
1000
0000
0000
0100
0000
0000
0010
0000
0000
,
0001
1000
0100
0010
0002
0000
1003
0100
0010
0001
1000
0001
1000
0100
0010
0001
,
1000
0000
0001
0000
0100
0000
0001
0000
1000
0000
0001
0000
0100
0000
0001
0000
1000
0100
0010
0001
1000
0100
0010
1000
0100
0010
0001
0100
0010
0001
1000
0100
,
0010
0000
2000
0000
0000
0000
3000
0000
0001
0010
0100
1000
0001
0010
0100
1000
0100
0010
0001
0100
0010
1001
0100
0010
0001
0010
0100
1000
0100
0010
0001
0010
,
0100
1000
0001
0010
0100
0000
0010
0100
1000
0100
0010
0001
0100
0010
0001
1000
0100
0010
0001
0100
0010
1000
0100
0010
1001
0000
0000
0000
1000
0100
0010
0001
,
1000
0010
0100
0001
1000
0100
0010
0001
1000
0100
0010
0001
0010
0100
1000
0001
0010
0100
1000
0001
0010
0100
1000
0100
0010
0001
1000
0100
0010
1000
0100
0010
,
0001
1000
0001
0010
0100
1000
0001
0010
0100
1000
0001
0010
0100
0001
0010
0100
1000
0100
0010
0001
1000
0100
0010
0001
2100
0000
0000
0000
0000
0000
0000
0000
,
0000
0000
0000
0000
0000
0000
0000
0000
0000
0000
0000
0000
0000
0000
0000
0000
0000
0000
0000
0000
0000
0000
0000
0000
0000
0000
0000
0000
0000
0000
0000
0000
0000
0000
0000
0000
0000
0000
0000
0000
0000
0000
0000
0000
0000
0000
0000
0000
0000
0110
0000
0000
0000
0000
0001
0000
0000
0000
0000
0000
0100
0000
0000
0000
,
0000
0000
0000
0000
0000
0000
0100
0000
0000
0000
0000
0000
0000
0000
0000
0000
0000
0000
0000
0000
0000
0000
0000
0000
0000
0000
0000
0000
0000
0000
0000
0000
0000
0000
0000
0000
0000
0000
0000
0000
0000
0000
0000
0000
0000
0000
0000
0000
0000
0000
0000
0000
0000
0000
0000
0000
0011
0000
0000
0000
0000
0000
0000
0000
0000
0000
0000
0000
0000
0000
0000
0000
0000
0000
0000
0000
0000
0000
0000
0000
0000
0000
0000
0000
0000
0000
0000
0000
0100
0000
0000
0000
0000
0000
0000
0000
0000
0000
0000
0000
0000
0000
0000
0000
0000
0000
0000
0000
0000
0000
0000
0000
0000
0000
0000
0000
0000
0000
0000
0000
0000
0000
0000
0000
0000
0000
0000
0000
0000
0000
0000
0000
3000
0000
0000
0000
0000
0000
0000
0000
0000
0000
0000
0000
0000
0000
0000
0000
0000
0000
0000
0000
0000
0000
0000
0000
1102
0000
0000
0000
0000
0000
0000
0000
0000
0000
0000
0000
0000
0000
0000
0000
0000
0000
0000
0000
0000
0000
0000
0000
0000
0000
0000
0000
0000
0000
0000
0000
0000
0000
0000
0000
,
0000
0000
0000
0000
0000
0000
0000
0000
0000
0000
0000
0000
0000
0000
0000
0000
0000
0000
0000
0000
0000
0000
0000
0000
0000
0000
0000
0000
0000
0000
0000
0000
0000
0000
0000
0000
0000
0000
0000
0000
0000
0000
0000
0000
0000
0000
0000
0000
0000
0000
0000
0000
0000
0000
0000
1100
0000
0000
0000
0010
0000
0000
0100
0000
,
0000
0000
0000
1000
0000
0000
0000
0000
0100
0000
0000
0000
0000
0000
1000
0000
0000
0000
0100
0000
0000
0000
0000
0000
1010
0000
0000
0000
0000
0000
0000
0000
0100
0000
0000
0000
0000
0000
0100
0000
0000
0000
0000
0000
0000
0000
0000
0000
0000
0000
0000
0000
0003
0000
0000
0000
1201
0000
0000
0000
0000
0000
0000
0000
,
0000
0000
0000
0000
0000
0000
0000
0000
0000
0000
0000
0000
0000
0000
0000
0000
0000
0000
0000
0000
0000
0000
0000
0000
0000
0000
0000
0000
0000
0000
0000
0000
0000
0000
0000
0000
0000
0000
0000
0000
0000
0000
0000
0000
0000
0000
0000
0000
0000
0000
0000
0000
0000
0000
0000
0000
0000
0000
0000
0000
0000
0000
0000
0000
0000
0000
0000
0000
0000
0000
0000
0000
1010
0000
0000
0000
0000
0000
0000
0000
0000
0000
0000
0000
0000
0000
0000
0000
0000
0000
0000
0000
0000
0000
0000
0000
0000
0000
0000
0000
0000
0000
0000
0000
1001
0000
0000
0000
0000
0000
0000
0000
0000
0000
0000
0000
0000
0000
0000
0000
0000
0000
0000
0000
0000
0000
0000
0000
0000
0000
0000
0000
0000
0000
0000
0000
0011
0000
0000
0000
0000
0000
0000
0000
0000
0000
0000
0000
0000
0000
0000
0000
0000
0000
0000
0000
0000
0000
0000
0000
0000
0000
0000
0000
0000
0000
0000
0000
0000
0000
0000
1010
0000
0000
0000
0000
0000
0000
0000
0000
0000
0000
0000
0000
0000
0000
0000
0000
0000
0000
0000
0000
,
0000
0000
0000
0000
0000
0000
0000
0000
0000
0000
0000
0000
0011
0000
0000
0000
0000
0000
0000
0000
0000
0000
0000
0000
0000
0000
0000
0000
0000
0000
0000
0000
0000
0000
0000
0000
0000
0000
0000
0000
0000
0000
0000
0000
0000
0000
0000
0000
1001
0000
0000
0000
0000
0000
0000
0000
0000
0000
0000
0000
0000
0000
0000
0000
0000
0000
0000
0000
0000
0000
0000
0000
0000
0000
0000
0000
0000
0000
1010
0000
0000
0000
0000
0000
0000
0000
0000
0000
0000
0000
0000
0000
0000
0000
0000
0000
0000
0000
0000
0000
0000
0000
0000
0000
0000
0000
0000
0000
0000
0000
0000
0011
0000
0000
0000
0000
0000
0000
0000
0000
0000
0000
0000
0000
0000
0000
0000
0000
0000
0000
0000
0000
0000
0000
0000
0000
0000
0000
0000
0000
1001
0000
0000
0000
0000
0000
0000
0000
0000
0000
0000
0000
0000
0000
0000
0000
0000
0000
0000
0000
0300
0000
0000
0000
0000
0000
0000
0000
0000
0000
0000
0000
0000
0000
0000
0000
2101
0000
0000
0000
0000
0000
0000
0000
0000
0000
0000
0000
0000
0000
0000
0000
,
0000
0000
0000
0000
0000
0000
0000
0000
0000
0000
0000
0000
0000
0000
0000
0000
0000
0000
0000
0000
0000
0001
0000
0000
0000
0000
0000
0000
0000
0001
0000
0000
0000
0000
0000
0000
0000
0000
0100
0000
0000
0000
0000
0000
0000
0000
0100
0000
0000
0000
0000
0000
0000
0010
0000
0000
0000
0000
0000
0000
3001
0000
0010
0000
,
0100
0000
1000
0000
0001
0000
0010
0000
0100
0000
1000
0000
0100
0000
0010
0000
0001
0000
1000
0000
0100
0000
0010
0000
0001
0000
0100
0000
0010
0000
1000
0000
0100
0000
0010
0000
0001
0000
0010
0000
0100
0000
1000
0000
0001
0000
0010
0000
0100
0000
1000
0000
0100
0000
0010
0000
0001
0000
1000
0000
0100
0000
0010
1001
,
0000
0010
1101
0100
,
0011
0000
1000
0100
1011
0100
0010
0100
,
1011
0000
0010
1000
0111
0001
0100
0001
,
1100
0010
1000
0010
1101
0010
0100
0010
,
1101
0010
1001
0010
1101
0010
1100
0010
,
1001
0100
1001
0100
1011
0100
0011
0000
,
1010
0001
1010
0001
1011
0100
0011
0100
,
1001
0010
1001
0010
1101
0000
0010
0000
,
2011
0000
0000
0000
0100
0000
0000
0000
0102
0003
0000
3000
1021
0000
0000
0000
,
0001
0000
0000
0000
0001
0000
0000
0000
1001
0000
0000
0000
0001
0000
0000
0030
,
1021
0000
0000
0000
0001
0000
1100
0000
0101
0000
1000
0030
1021
0000
0000
0000
,
0100
0000
0000
0000
0000
0000
1001
0000
0000
0000
0000
0000
0100
0000
0000
0000
0000
0000
1000
0000
0100
0000
0001
0000
1100
0000
0000
0030
0000
0000
0011
0000
0000
0000
0000
0000
1020
0000
0000
0000
0000
0000
0000
0000
0000
0030
0000
0000
,
2101
0000
0000
0000
0000
0000
0001
0000
0000
0000
0000
0000
0011
0000
0000
0100
0000
3000
1021
0000
0000
0000
0000
0000
,
0100
0000
0000
0000
0100
0000
0000
0000
1001
0000
0000
0000
0100
0000
0000
0030
,
1021
0000
0000
0000
0100
0000
1001
0000
0101
0000
1000
0030
1021
0000
0000
0000
,
0100
0000
0000
0000
0000
0000
1001
0000
0000
0000
0000
0000
0100
0000
0000
0000
0000
0000
1000
0000
0001
0030
1000
0000
0121
0000
0000
0000
0000
0000
0001
0000
1030
0000
0001
0000
1120
0000
0000
0000
0000
0000
1001
0000
0030
0000
0000
0000
,
1201
0000
0000
0000
0000
0000
0000
0000
0000
0000
0000
0000
0300
0000
0000
0000
0000
0000
0000
2001
0000
0000
0000
0000
0000
0000
0000
0000
0000
0000
0000
0000
0000
3000
0000
0000
0000
0120
0000
0000
0000
0000
0000
0000
0000
0000
0000
0000
,
0000
0000
0000
0000
0030
0000
0000
0201
0000
0000
0000
0000
0000
0000
0000
0000
0000
0000
0000
0000
0000
0000
0000
0000
0000
0000
0000
0000
0000
0300
0000
0000
0000
2001
0000
0000
0000
0000
0000
0000
0000
0000
0000
0000
0000
0000
0000
0000
0000
0000
0000
0000
0000
0000
0000
0000
0000
0000
0000
3000
0000
0000
0000
0000
,
0000
0011
0000
0000
0000
0000
0000
0000
0000
0100
0000
0000
0000
0010
0000
0000
0000
0100
0000
0000
0000
0000
0000
0000
0000
1001
0000
0000
0000
0000
0000
0000
0000
0100
0000
0000
0000
0000
0000
0000
0000
0010
0000
0000
0000
0000
0000
0000
0000
2102
0000
0000
0000
0000
0000
0000
0000
0000
0000
0000
0000
0000
0000
0000
,
0000
0000
0000
0000
,
0000
0000
0000
0000
,
0000
0000
0000
0000
,
0000
0000
0000
0000
,
0000
0000
0000
0000
,
3003
0000
0000
0000
;
