#TITLE:boku-boku SuketchP...Remix;
#SUBTITLE:;
#ARTIST:AVTechNO!;
#TITLETRANSLIT:;
#SUBTITLETRANSLIT:;
#ARTISTTRANSLIT:;
#CREDIT:M.L-INS;
#BANNER:../Tachyon DIVA.png;
#BACKGROUND:../Tachyon DIVA-bg.png;
#LYRICSPATH:;
#CDTITLE:;
#MUSIC:boku-boku SuketchP...Remix.ogg;
#OFFSET:-0.065;
#SAMPLESTART:100.000;
#SAMPLELENGTH:12.000;
#SELECTABLE:YES;
#BPMS:0.000=180.002,256.000=90.003,272.000=180.004,368.000=89.996,376.000=179.997;
#STOPS:;
#BGCHANGES:;
// cache tags:
#FIRSTBEAT:32.000;
#LASTBEAT:463.000;
#SONGFILENAME:Songs/Tachyon DIVA/boku-boku SuketchP Remix[M.L-INS]/boku-boku SuketchP...Remix.sm;
#HASMUSIC:1;
#HASBANNER:1;
#MUSICLENGTH:165.082;
// end cache tags

//---------------dance-single - ----------------
#NOTES:
     dance-single:
     :
     Challenge:
     14:
     1.000,1.000,0.176,0.370,1.000,1261.000,29.000,61.000,69.000,0.000:
0000
0000
0000
0000
,
0000
0000
0000
0000
,
0000
0000
0000
0000
,
0000
0000
0000
0000
,
0000
0000
0000
0000
,
0000
0000
0000
0000
,
0000
0000
0000
0000
,
0000
0000
0000
0000
,
0001
0010
0001
0100
0010
1000
0100
0010
,
0002
0000
0103
0020
0000
1030
0001
0100
,
0010
1000
0001
0100
0010
0100
0001
0010
,
0200
0000
1300
0020
0000
0130
0001
0010
,
0100
1000
0001
0100
0010
1000
0100
0010
,
0002
0000
1003
0020
0000
1030
0001
0100
,
0001
0100
0001
0010
0100
1000
0001
0100
,
0020
0000
1030
0100
0010
0200
0000
2300
,
0000
3002
0100
0103
0010
1000
0100
0020
,
0001
0031
0100
0001
0010
0200
1000
1300
,
0001
0100
0010
2000
0001
3001
0010
0100
,
1200
0300
0120
0030
0102
0003
0120
0030
,
1001
1000
0010
0100
0001
0010
0100
2000
,
0010
3010
0100
0001
0010
0200
1000
1300
,
0001
0010
0100
0020
0001
0031
1000
0010
,
0100
0002
0010
0013
0100
1000
0001
0010
,
0002
0100
0103
0010
1000
0100
0020
0001
,
0031
0100
0001
0010
0200
1000
1300
0001
,
0100
0010
1000
0010
0100
0001
0200
0001
,
0301
1000
1000
0100
2000
0001
3001
0100
,
0001
0010
0002
0100
0103
0001
0100
0010
,
2000
0001
3001
0010
0001
0100
0010
1000
,
0001
0001
0011
0011
0110
0110
1001
1001
,
1000
0100
1000
0100
1000
0010
1000
0010
0100
0001
0100
0001
2000
0000
0020
3000
,
1000
0130
0010
0100
1000
0001
0000
0100
0010
0000
1000
0001
0010
0100
0010
0001
,
1000
0010
1000
0001
0010
0100
0000
1001
0000
0000
0100
0001
0010
0100
1000
0000
,
0001
0010
0001
0100
0010
0100
0000
1001
0000
0000
0010
0100
0001
0000
1000
0000
,
0100
0010
0001
1000
0100
0010
0100
1000
0001
0100
0010
1000
0100
0010
0001
0100
,
0010
0100
0010
1000
0001
0010
0000
0110
0000
0000
0100
1000
0001
0010
0100
0000
,
1000
0001
0010
0001
0100
0001
0100
0010
1000
0100
0010
0100
1000
0001
2000
0000
,
3001
1000
0001
0100
0010
1000
0100
0010
0001
0100
0010
1000
0001
1000
0010
0100
,
0001
0010
0001
1000
0010
1000
0001
0100
0001
0100
0010
1000
0010
1000
0001
0100
,
0001
0100
0010
1000
0010
0100
1000
0001
,
0010
0100
0001
0200
0000
0310
1000
0002
,
0000
1003
0010
0100
0010
0001
1000
0100
,
0010
1000
0001
1000
0010
0100
0001
0200
,
0000
0310
1000
0001
0010
0100
1000
0100
,
0010
0001
1000
0001
0100
0010
1000
0002
,
0000
0000
1003
0000
0100
0010
0001
1000
0010
1000
0001
0100
0001
0010
0100
1000
,
0010
0100
0001
1000
0100
0010
0001
0100
0020
0000
0000
0000
0130
0000
0110
0000
,
0MM0
0001
0100
0010
1000
0010
0100
0001
,
0100
0010
1000
0100
0010
0002
0000
0103
,
0M00
0010
1000
0001
0100
0001
1000
0010
,
0100
0000
0001
0000
0010
0000
0100
0000
2000
0000
0000
0010
3000
0000
1010
0000
,
M0M0
0100
0001
1000
0010
2000
0100
3100
,
0010
0000
0001
0000
0100
0000
0010
0000
0100
0000
0000
0001
0000
0000
0101
0000
,
1M0M
1000
0001
0010
0100
0100
1000
0001
,
1000
0000
0100
0000
0010
0000
0001
0000
0101
0000
0000
0110
0000
0000
1001
0000
,
M00M
0010
1000
0100
0010
0200
0000
2300
,
0000
3001
0100
0010
1000
0100
0010
0002
,
0000
1003
0100
0010
0001
0200
0000
0320
,
0000
0000
1030
0000
0001
0000
0100
0000
0101
0000
0000
1001
0000
0000
0011
0000
,
00MM
1000
0100
0010
0100
2000
0000
3002
,
0000
0000
0103
0000
0010
0000
1000
0000
1100
0000
0000
1010
0000
0000
1001
0000
,
M00M
0001
0100
0010
1000
0010
0100
0001
,
0010
0000
0100
0000
1000
0010
1000
0000
0100
0000
0000
1000
0000
0000
0102
0000
,
2M03
0000
0000
0000
0000
0000
00M0
0000
0000
0M00
0000
0000
3002
0000
0000
0000
0000
0000
00M0
0000
M000
0000
0000
0000
0203
0000
0000
0000
00M0
0000
0000
0000
M000
0000
0000
0000
0320
0000
0000
0000
000M
0000
0000
0000
0M00
0000
0000
0000
,
2030
0000
000M
0M00
0000
0000
3200
0000
00M0
M000
000M
0000
2300
0000
0000
00M0
0000
0000
3M02
0000
0000
0000
M000
0000
,
0023
0M00
0000
0000
000M
M000
0230
0000
000M
0000
0000
000M
2300
00M0
0000
0000
0000
0M00
3002
0000
0000
0000
0000
0000
,
0013
0000
0010
0000
0100
0000
0100
0000
1000
0000
0100
0000
0110
0000
0110
0000
0001
1000
0001
1000
0010
0100
0010
0100
0001
0010
0001
0010
0100
1000
0100
1000
,
00M0
0000
0001
0100
0010
1000
0100
0010
0100
1000
0001
0100
0001
0010
0001
1000
,
0010
M00M
0010
0001
1000
0010
1000
0001
0100
0010
1000
0010
0100
0001
0010
0100
,
1000
0100
0010
0001
1000
0010
1000
0100
0010
0100
1000
0001
1000
0001
0010
0100
,
1000
0100
0010
0001
1000
0001
1000
0100
1000
0001
0100
0001
0010
0100
0010
0001
,
1000
0001
0010
0001
1000
0100
1000
0010
0100
M00M
0100
1000
0001
0100
0001
1000
,
0010
1000
0100
0010
0001
1000
0001
0010
0100
0010
0001
1000
0010
1000
0100
0010
,
0100
1000
0001
0100
0001
0010
0100
1000
0100
0010
0001
1000
0100
1000
0001
0010
,
0001
0100
0010
0100
0001
0100
0010
1000
0100
0010
0100
1000
0001
0100
0010
1000
,
0100
0010
0001
1000
0010
1000
0100
0010
0100
1000
0001
1000
0010
0100
0010
1000
,
0001
1000
0010
1000
0100
M00M
0100
0001
0010
0100
1000
0001
1000
0100
0010
0100
,
1000
0001
0100
0001
0010
0001
0010
0100
1000
0100
1000
0001
0100
0010
1000
0010
,
0100
0001
0100
0010
1000
0100
0010
0001
0100
0010
1000
0010
0100
0001
0100
0004
,
0M00
0003
1000
0010
0100
0001
0010
0001
1000
0010
1000
0001
1000
0010
0100
0001
,
1000
0100
1000
0001
0100
0001
0010
0100
0010
0001
1000
0010
0100
0001
0010
0001
,
1000
0010
1000
0100
0010
0100
1000
0001
0010
0100
0010
0001
1000
0010
0100
0001
,
0010
0100
1000
0100
0010
0001
1000
0001
0010
0100
0010
0001
1000
0010
1000
0001
,
0100
0001
1000
0100
1000
0010
0100
0010
1000
0100
0010
0001
0100
0010
0100
0010
,
1000
0010
0100
0001
0010
0100
1000
0001
0100
0010
1000
0010
0100
0001
1000
0100
,
0010
0001
0100
0010
1000
0001
0010
M00M
0010
0100
0010
1000
0001
1000
0100
0010
,
0100
1000
0001
0100
0010
1000
0010
1000
0100
0010
0001
1000
0100
1000
0001
0100
,
0001
0100
0010
1000
0100
1000
0001
0100
0001
1000
0010
1000
0100
0010
0001
0100
,
0010
1000
0001
0100
0010
M00M
0010
0001
0100
0001
0100
0010
1000
0100
0010
0001
,
0100
0010
1000
0001
0010
0100
1000
0001
0100
0001
0010
0100
0010
0001
1000
0001
,
0010
0001
1000
0010
0100
0001
1000
0001
0100
0010
1000
0010
0100
0001
0010
0100
,
M020
0030
0010
1000
0010
0100
0001
0010
0100
1000
0001
0100
0010
1000
0010
0100
0001
1000
0100
0010
0001
0100
0010
1000
0001
1000
0100
1000
0001
0100
0001
0010
,
0100
1000
0100
0010
0001
1000
0001
0100
0010
1000
0010
0100
0001
1000
0100
0010
0100
1000
0001
0100
0001
0010
0100
1000
0100
M00M
0100
0001
0010
0100
1000
0001
,
1000
0010
0100
0001
0010
0100
0010
0001
1000
0010
1000
0100
1000
0001
0100
0001
,
0010
0001
1000
0010
1000
0001
0100
0010
1000
0010
0100
0001
0010
0100
1000
0100
,
0010
0001
1000
0010
1000
0100
0010
0100
1000
0001
1000
0001
0010
0100
1000
0100
,
0010
0001
1000
0001
1000
0100
1000
0001
0100
0001
0010
0100
0010
0001
1000
0001
,
0010
0001
1000
0100
1000
0010
0100
0001
0010
0001
1000
0010
1000
0001
0010
0001
,
1000
0001
0100
M00M
0100
0010
1000
0010
0100
0001
0100
0001
0010
0100
0010
0001
,
1000
0010
1000
0100
0010
0001
0010
0100
1000
0001
0010
0001
1000
0100
1000
0010
,
0100
0010
1000
0010
0100
0001
0010
0100
0010
0001
1000
0010
0100
0001
0010
0100
,
400M
0000
0000
3000
0100
0010
0100
1000
0001
1000
0010
0100
0010
1000
0001
1000
,
0010
0100
0001
0010
0001
1000
0100
0010
0001
1000
0001
0010
0100
0010
0001
1000
,
0010
1000
0100
1000
0100
0010
0001
0010
0001
1000
0010
0100
0001
0100
0010
1000
,
0010
0100
0001
0010
0100
1000
0010
0100
0001
0100
0010
1000
0010
1000
0001
0100
,
0001
1000
0010
1000
0100
1000
0001
0100
0001
1000
0001
0100
0010
1000
0001
0010
,
0001
1000
0010
1000
0100
0010
0100
1000
0001
0100
0010
1000
0100
1000
0001
0100
,
0001
0010
0100
0010
0001
1000
0100
0010
0100
1000
0001
0100
0010
1000
0100
0010
,
0001
0010
0100
1000
0001
1000
0100
0010
0100
1000
0001
0100
0001
1000
0010
1000
,
0001
0010
0001
0100
0010
0100
0001
0010
0100
1000
0010
0100
0010
0100
0001
0100
,
0010
1000
0100
0010
0001
1000
0010
0100
0001
0100
0010
1000
0001
0010
0100
M00M
,
0100
0010
1000
0001
0100
0001
0010
0100
1000
0001
1000
0001
0010
0100
0010
0001
,
1000
0010
0100
0001
0100
0001
0010
0100
1000
0001
0010
0001
1000
0010
1000
0200
,
M00M
M00M
M00M
M00M
,
M00M
M00M
0000
0300
;
