#TITLE:Extratone Pirates;
#SUBTITLE:;
#ARTIST:Annoying Ringtone;
#TITLETRANSLIT:;
#SUBTITLETRANSLIT:;
#ARTISTTRANSLIT:;
#CREDIT:Happy Feet;
#BANNER:Bn-Pirates.png;
#BACKGROUND:Bg-Pirates.png;
#LYRICSPATH:;
#CDTITLE:;
#MUSIC:Extratone Pirates.ogg;
#OFFSET:0.000;
#SAMPLESTART:38.420;
#SAMPLELENGTH:16.000;
#SELECTABLE:YES;
#BPMS:0.000=250.001;
#STOPS:;
#BGCHANGES:;
// cache tags:
#FIRSTBEAT:15.000;
#LASTBEAT:512.000;
#SONGFILENAME:Songs/SPEEEDCOOOORE/Extratone Pirates - [Happy Feet!]/Extratone Pirates.sm;
#HASMUSIC:1;
#HASBANNER:1;
#MUSICLENGTH:127.174;
// end cache tags

//---------------dance-single - Happy Feet----------------
#NOTES:
     dance-single:
     Happy Feet:
     Challenge:
     16:
     1.000,1.000,0.409,0.244,0.928,1018.000,52.000,31.000,16.000,3.000:
0000
0000
0000
0000
,
0000
0000
0000
0000
,
0000
0000
0000
0000
,
0000
0000
0000
MMMM
,
0000
0000
0000
0000
,
0000
0000
0000
0000
,
0000
0000
0000
0000
,
0000
0000
0000
MMMM
,
2000
0000
0000
3001
0020
0000
0000
0130
,
1000
0010
0100
0010
2000
0000
3010
0400
,
0302
0000
0013
0100
0020
0000
0031
1000
,
0200
0000
2300
0000
3002
0000
0103
0010
,
2000
0000
0000
3001
0020
0000
0000
0130
,
1000
0001
0100
0010
0200
0000
0000
0301
,
0020
0000
0130
1000
0002
0000
1003
0100
,
0010
0000
0100
0000
1000
0000
0001
0000
0100
0000
0000
0000
0001
0100
0001
0100
,
0001
0000
0101
0000
0110
0000
0010
1000
,
0100
0000
1100
0000
0110
0000
0010
0001
,
1000
0000
1001
0000
0101
0000
0100
0001
,
1000
0000
0000
0000
1100
0000
0000
0000
0110
0000
0000
0000
0010
0001
0010
0001
,
0010
0000
0011
0000
0011
0000
0010
0100
,
1000
0000
1001
0000
0101
0000
0100
0010
,
1000
0000
1010
0000
0101
0000
0001
0100
,
0020
0000
2030
0000
3002
0000
0203
0000
0320
0000
0030
0000
4000
0000
0000
3000
,
0001
0100
0001
0100
0010
1000
0010
1000
0001
0010
0001
0010
0100
1000
0100
0010
,
0001
0010
0001
1000
0010
1000
0001
0010
0100
0010
0100
1000
0100
1000
0004
0000
,
1003
0010
1000
0010
0100
0001
0100
0001
1000
0010
0100
0001
0100
0001
1000
0010
,
0100
0001
1000
0001
1000
0100
0010
0001
1000
0001
2000
0000
3020
0000
0230
0000
,
0301
1000
0001
1000
0010
0100
0010
0100
0001
1000
0001
1000
0010
0100
0010
0100
,
0001
1000
0100
0010
0100
0010
0001
1000
0001
1000
0004
0000
1003
0000
0400
0000
,
1300
0001
1000
0001
0100
0001
0100
0010
0100
0010
1000
0001
0010
0001
0010
0100
,
0010
0100
1000
0100
1000
0001
0100
0001
0100
0010
1000
0010
4000
0000
0000
0000
,
3010
0100
0001
1000
0100
1000
0010
0100
,
0001
0000
1000
0000
0100
0000
1000
0000
0001
0000
0100
0000
0001
0000
0100
0010
,
1000
0100
0010
0001
0010
0001
1000
0001
,
0100
0000
0010
0000
1000
0000
0100
0000
1000
0000
0001
0000
0010
0000
0001
1000
,
0010
1000
0100
1000
0001
0010
0100
1000
,
0001
0000
0100
0000
0010
0000
1000
0000
0001
0100
0001
0100
0004
0000
0000
0003
,
1000
0010
0100
0001
1000
0100
0010
0001
1000
0010
0100
0001
,
1000
0100
1000
0010
0100
0001
1000
0100
0010
0004
0000
0003
,
1111
0000
0000
0000
,
0000
0000
0000
0000
,
1111
0000
0000
0000
,
0000
0000
0000
0000
,
1000
0001
1000
0001
1000
0001
2000
0000
0000
0000
0000
0000
0000
0000
3000
0000
,
0001
0100
0001
0100
0001
0100
0002
0000
0000
0000
0000
0000
0000
0000
0000
0000
,
1003
0001
1000
0000
0000
0000
0000
0000
0001
0010
0001
0000
0000
0000
0000
0000
,
2000
0000
0000
3000
0040
0000
0000
0030
2000
0000
0000
3000
0004
0000
0000
0003
,
1000
0010
1000
0010
0100
0001
0100
0001
1000
0010
1000
0010
0100
0001
0100
0001
,
0010
0001
0010
0100
0010
0100
1000
0001
1000
0001
1000
0010
0100
0010
0400
0000
,
0301
1000
0001
1000
0100
0010
0100
0010
0001
0010
0001
1000
0010
1000
0010
0100
,
0001
0100
0001
1000
0100
1000
0001
0100
0001
1000
0100
0010
0001
0010
0004
0000
,
1003
0100
1000
0010
0100
0001
1000
0100
,
0010
0000
0100
0000
1000
0000
0001
0000
0100
0000
0001
0100
0001
0000
1000
0001
,
1000
0001
0010
0100
0010
0001
1000
0010
,
0100
0000
0001
0000
0010
0000
0001
0000
1000
0001
1000
0001
2000
0000
0000
0000
,
3001
0100
0001
0100
0010
1000
0010
1000
0001
0010
0100
1000
0100
1000
0001
0100
,
0001
0100
0001
1000
0010
1000
0010
0100
0001
0100
0001
0010
0100
1000
0400
0000
,
1300
0001
1000
0001
0100
0010
0100
0010
1000
0001
1000
0001
0010
0100
0010
0100
,
1000
0100
1000
0001
0100
0001
0100
0010
1000
0010
1000
0001
0100
0001
0400
0000
,
0310
1000
0010
1000
0001
0100
0001
0100
0010
1000
0010
1000
0001
0010
0001
1000
,
0100
1000
0001
0100
0001
1000
0100
0010
0001
1000
0004
0000
0103
0000
0040
0000
,
1030
1010
0010
0110
,
0100
0101
0001
1001
,
1000
1000
0010
0010
0100
0000
1001
0000
,
0001
1000
0001
1000
0001
1000
0001
1000
0001
0000
0000
0000
1000
0000
1000
0000
,
0001
1000
0001
0010
0100
0010
0001
1000
,
0010
0000
0100
0000
0001
0000
1000
0000
0100
0000
1000
0000
0001
0000
0100
0010
,
1000
0000
0100
0000
1000
0000
0001
0000
0100
0000
0010
0000
1000
0000
0001
0010
,
0100
0000
1000
0000
0010
0000
0100
0000
0001
0000
1000
0000
0001
0100
0001
0100
,
0001
0100
0010
0100
0001
1000
0001
0100
,
0010
0000
1000
0000
0100
0000
1000
0000
0001
0000
1000
0001
0100
0000
0010
1000
,
0001
1000
0010
0100
0001
0010
0100
0010
,
0001
1000
0001
1000
0001
1000
0001
1000
0001
1000
0001
1000
0001
1000
0001
1000
,
0001
0100
0010
1000
0100
1000
0001
0010
,
0001
0000
1000
0000
0010
0000
0100
0000
0001
0000
1000
0000
0100
0000
1000
0001
,
1000
0010
0100
0001
0010
0100
1000
0001
,
0100
0000
0010
0000
1000
0000
0001
0000
0010
0000
0001
0000
1000
0000
0010
0100
,
0010
1000
0001
0010
0001
0100
0010
0100
,
0001
1000
0010
0100
0010
1000
0100
1000
,
0001
0100
0001
0100
0010
1000
0010
1000
0001
0010
0100
1000
0001
1000
0001
1000
,
0100
0010
0001
1000
0001
0400
0310
4000
,
3001
0100
0001
0100
0001
0000
0100
0000
0001
0000
1000
0000
0010
0000
1000
0000
,
0001
1000
0100
0010
0001
0010
0100
0010
,
0001
0000
0100
0000
0010
0000
1000
0001
1000
0000
0010
0000
0100
0000
0001
0000
,
1000
0100
0010
0001
1000
0010
0100
0001
,
0010
0000
0100
0000
0010
0000
0001
0100
0001
0000
0010
0000
0001
0000
0100
0000
,
0010
0100
0001
1000
0100
1000
0010
1000
,
0001
0000
1000
0010
1000
0000
0001
1000
0001
0000
0010
0000
0100
0000
1000
0000
,
0100
0010
0001
0100
0010
1000
0001
1000
,
0001
0000
0100
0000
0001
0000
0010
0001
0010
0000
0001
0000
0010
0000
0100
0000
,
1000
0010
0100
0001
1000
0010
1000
0001
,
0010
0000
0100
0000
0010
0000
0001
0100
0001
0000
1000
0000
0010
0000
1000
0000
,
0001
0010
0001
0100
0010
1000
0001
0010
,
0001
0000
1000
0000
0010
0000
0100
0001
0100
0000
0010
0000
1000
0000
0001
0000
,
0010
0100
0010
0001
1000
0010
1000
0001
,
1000
0000
0001
0100
0010
0000
1000
0100
0010
0000
0001
0000
0100
0000
0010
0000
,
1000
0100
0010
0001
0100
0100
0001
0001
,
1000
0000
0000
0000
0001
1000
0001
1000
0001
0000
0000
0000
1001
0000
0000
0000
,
1000
0000
1010
0010
0100
0000
0101
0000
,
0001
0000
1001
1000
0100
0010
0001
1000
,
0001
0000
0000
0000
1001
0000
0000
0000
1000
0001
1000
0001
1000
0100
1000
0100
,
1000
0000
1100
0100
0010
0000
0011
0000
,
0001
0000
0101
0100
0010
0000
0110
0010
,
1000
0000
1001
0001
0100
0010
1000
0001
,
0010
0000
0000
0000
0011
0000
0000
0000
0001
1000
0001
1000
0001
0100
0001
0100
,
0001
0000
0101
0100
0010
1000
0100
1000
,
0010
0100
0001
0010
0100
1000
0010
0100
,
0001
0001
1000
1000
0100
0010
0001
1000
,
0001
0100
0001
0100
0001
1000
0001
1000
0001
0000
0010
0000
0100
0000
0100
0000
,
1000
0100
1000
0010
0100
0010
1000
0001
,
0010
0001
1000
0100
1000
0010
0100
0001
,
1000
1000
0100
0100
1000
0010
0100
0001
,
1000
0100
1000
0100
1000
0001
1000
0001
1000
0000
0010
0000
0100
0001
0100
0001
,
0100
0000
0101
0000
00M1
0M01
10M0
1M00
,
0010
0000
0110
0100
0001
1000
0100
1000
,
0001
0000
0000
0000
0000
0000
0000
0000
0001
0000
0000
0000
0000
0000
0000
0000
1000
0000
0000
0000
0000
0000
0000
0000
1000
0000
0000
0000
0000
0000
0000
0000
0002
0000
0000
0000
0000
0000
0000
0000
0020
0000
0000
0000
0000
0000
0000
0003
0002
0000
0000
0000
0000
0000
0000
0030
0020
0000
0000
0000
0000
0000
0000
0000
,
0133
1000
0100
1000
0001
1000
0001
1000
0001
0000
0000
0000
1001
0000
1000
0000
,
0010
0100
0010
1000
00M1
0M01
10M0
1M00
,
0010
0000
1010
1000
0001
0000
0101
0100
,
0010
0010
1000
1000
0100
0000
0110
0000
,
0010
0001
0010
0001
1000
0001
1000
0001
1000
0000
0010
0000
0100
0001
0100
0001
,
0100
0010
1000
0001
1000
0010
0100
0001
,
0010
0100
1000
0001
0100
0010
1000
0001
,
1000
0100
0010
0001
1000
0010
0100
0001
,
1000
0010
0100
0001
2000
0000
0000
0000
,
0000
0000
0000
0000
,
0000
0000
0000
0000
,
3000
0000
0000
0000
;
