#TITLE:Angelic Sphere;
#SUBTITLE:;
#ARTIST:3R2;
#TITLETRANSLIT:;
#SUBTITLETRANSLIT:;
#ARTISTTRANSLIT:;
#CREDIT:;
#BANNER:HTS3-BN.jpg;
#BACKGROUND:HTS3-BG.jpg;
#LYRICSPATH:;
#CDTITLE:;
#MUSIC:Angelic Sphere.ogg;
#OFFSET:-0.020;
#SAMPLESTART:83.941;
#SAMPLELENGTH:18.000;
#SELECTABLE:YES;
#DISPLAYBPM:143.000;
#BPMS:0.000=143.000,107.000=143.500,108.000=143.000,167.000=143.500,168.000=143.000,328.000=71.500;
#STOPS:;
#BGCHANGES:;
// cache tags:
#FIRSTBEAT:4.000;
#LASTBEAT:332.000;
#SONGFILENAME:Songs/Index Tournament 1/Angelic Sphere/Angelic Sphere.sm;
#HASMUSIC:1;
#HASBANNER:1;
#MUSICLENGTH:142.917;
// end cache tags

//---------------dance-single - !CaMiX!^^----------------
#NOTES:
     dance-single:
     !CaMiX!^^:
     Challenge:
     11:
     0.950,0.958,0.028,0.210,1.000,914.000,4.000,30.000,32.000,0.000:
0000
0000
0000
0000
,
1M00
0010
0000
0100
0001
0000
1000
0010
1000
0001
0010
0000
0100
1000
0001
0100
,
001M
1000
0010
0010
0100
0100
0010
0010
,
1000
0000
0001
0000
1000
0000
0010
0000
1000
0000
0100
0010
0001
0000
0100
0000
,
0001
1000
0020
0130
0010
0200
0301
0010
,
0200
0000
1300
0000
0001
0000
2000
0000
3001
0000
0100
0000
0100
0000
0010
0100
,
0010
1000
0100
0100
0010
0010
0001
0001
,
1000
0000
0010
0000
1000
0000
0001
0000
0010
0000
0100
1000
0100
0000
1000
0000
,
0010
0010
0100
1000
0100
0001
0010
1000
,
0010
1000
0010
0010
0001
0001
1000
0001
,
1MM2
1003
0010
0010
0100
0100
0010
0010
,
1000
0000
0100
0000
1000
0000
0001
0000
0010
0000
0001
0010
0001
0000
1000
0000
,
2M1M
3010
0200
0301
0100
0020
1030
0001
,
2000
0000
3100
0000
0010
0000
0200
0000
0310
0000
0001
0000
0001
1000
0010
0100
,
M01M
1000
0001
0001
0010
0010
0100
0100
,
1000
0010
1000
0010
0100
0100
0010
0010
,
1000
0100
0010
0100
0010
0001
1000
0001
0100
0010
0100
0001
1000
0001
1000
0001
,
MM40
0000
0000
0000
,
MM32
0000
0000
1003
1000
0010
0100
0000
,
0010
0000
0000
0000
0000
0100
0100
0000
,
0020
0000
0000
0130
0000
0000
0001
0000
,
0020
0130
0010
0100
,
2000
0000
0000
0000
0000
3001
0001
1000
,
0002
0103
0010
0100
,
0020
0000
1030
1000
0200
0010
0310
0001
,
0020
0031
2000
3010
,
0200
0310
1000
0001
,
0100
0000
0010
0000
0010
0000
0010
0010
,
2000
0000
3100
0010
0000
0001
0000
1000
,
0002
0000
0000
0000
0103
0000
0000
0000
0100
0000
0000
0000
0100
0000
0000
0100
,
0020
0000
1030
0000
,
0200
0010
0010
0010
,
0320
0000
0031
1000
0010
0100
0001
0100
,
0010
1000
0100
1000
0020
0000
2030
0000
,
3MM1
0000
0010
0100
0000
0010
0001
0000
0010
0100
0000
0010
0001
0000
0001
0000
,
1000
0000
0010
0100
0000
0010
1000
0000
0010
0100
0000
0010
1000
0000
1000
0000
,
0100
0000
0010
0001
0000
1000
0001
0000
1000
0100
0000
1000
0010
0000
0010
0000
,
0100
0000
0001
1000
0000
0010
0100
0000
0001
1000
0000
0010
0100
0000
0100
0010
,
1000
0000
0100
0010
0000
0010
0001
0000
0100
0010
0000
0010
1000
0000
1000
0000
,
0001
0000
0010
0100
0000
0100
1000
0000
0001
1000
0000
1000
0010
0000
0010
0000
,
0100
0000
0001
0100
0000
0001
0100
0000
0010
1000
0000
1000
0100
0000
0100
0000
,
0010
0000
0001
0100
0000
0010
0100
0000
0010
0000
0100
0001
0100
0000
0010
0000
,
01M0
0001
0100
0001
0100
0001
0100
0001
0100
0001
1000
0001
0100
0001
1000
0001
,
0010
0100
0010
0100
0010
0100
1000
0100
0010
0100
1000
0100
0010
0100
1000
0001
,
1000
0001
1000
0001
0010
0100
0010
0100
0010
0001
0100
0001
0100
0001
1000
0010
,
0100
0001
0100
0010
1000
0001
1000
0100
0010
0001
0010
0001
0100
0010
0100
0010
,
1000
0100
0010
0001
0100
0010
0100
0001
1000
0100
0010
0001
0100
0010
0100
0001
,
0010
0100
1000
0001
0100
0010
0100
0001
0010
0100
1000
0001
0100
0010
0100
0001
,
1000
0010
1000
0001
0010
0100
1000
0001
1000
0010
1000
0001
0010
0100
1000
0001
,
M1M0
0001
0200
0000
0000
0000
0310
0000
001M
1000
0001
0100
001M
1000
0001
0100
,
00M1
1000
0100
0010
0100
1000
0001
0010
0001
1000
0010
1000
0001
0100
0001
1000
,
0010
0100
0001
0100
0010
1000
0010
1000
0100
1000
0100
0010
0001
0010
0001
0010
,
0001
1000
0001
0100
0001
1000
0010
1000
0001
0010
0100
1000
0100
0010
0001
0100
,
0010
0100
0010
0100
0001
0100
0010
0100
0001
0100
0010
0100
0001
0010
0100
1000
,
0100
1000
0100
1000
0001
1000
0100
1000
0001
1000
0100
1000
0001
0100
0010
1000
,
0010
1000
0100
1000
0010
0100
0001
0100
0010
0100
0001
0100
0010
0100
0010
0100
,
0001
0010
0100
0010
0001
1000
0100
1000
0001
0010
0100
1000
0010
1000
0010
1000
,
0100
1000
0100
0010
0001
1000
0001
1000
0010
0100
0010
0100
0001
0010
0001
1000
,
0010
1000
0100
0010
0100
1000
0001
0100
0001
0100
0010
1000
0010
0100
0001
0010
,
0100
0010
0001
1000
0001
0010
0001
1000
0010
1000
0001
0010
0001
1000
0010
1000
,
0100
0010
0100
0010
0100
0010
0001
1000
0010
0100
0001
1000
0010
1000
0010
1000
,
0001
0010
0100
0010
0100
1000
0100
1000
0010
0100
0010
1000
0001
0100
0010
0100
,
M001
0010
0100
1000
0010
1000
0001
1000
0010
1000
0001
1000
0010
1000
0001
0010
,
010M
1000
0001
1000
0100
1000
0001
1000
0100
1000
0100
1000
0100
0010
0001
1000
,
001M
0100
0001
0100
0010
1000
0001
0010
0001
1000
0100
0010
0100
0010
0001
1000
,
0MM2
0000
1000
0000
1003
0000
0010
0000
0100
0000
0100
0010
0100
0000
0001
0000
,
M01M
0100
0010
0001
1000
0010
0100
0001
0100
0010
0100
0001
1000
0010
0100
0001
,
0100
0010
1000
0010
0100
0010
1000
0100
1000
0100
0010
0001
0010
0100
0010
0001
,
0100
0001
0100
0001
0010
0100
1000
0100
0010
0100
1000
0100
0010
0100
0010
0001
,
1000
0001
1000
0001
1000
0001
1000
0001
0100
0010
0100
0010
1000
0100
1000
0100
,
0010
0100
1000
0001
0010
0100
1000
0100
0010
0001
0010
0001
1000
0010
0100
0001
,
1000
0100
0010
0100
0010
0100
1000
0010
0100
0001
0010
0001
0100
0010
1000
0001
,
1000
0010
1000
0010
1000
0010
1000
0010
0100
0001
1000
0100
0010
0001
1000
0100
,
1000
0100
1000
0010
0100
0001
0100
0001
0010
0100
1000
0001
0010
0100
0010
0001
,
0100
0010
1000
0001
0100
0010
1000
0001
0100
0001
0100
0001
1000
0100
0010
0001
,
0100
0010
1000
0001
0100
0010
1000
0001
0100
0001
0100
0001
0010
0100
1000
0001
,
10M0
0001
0010
0100
0010
0001
0010
0100
0010
0001
0010
0001
0100
0010
1000
0001
,
1000
0100
1000
0100
0010
0001
1000
0100
0010
0001
1000
0100
0010
0001
1000
0010
,
M100
0001
0100
0001
0100
0001
0100
0001
1000
0100
1000
0001
0100
0001
1000
0100
,
M010
0001
0010
0100
1000
0001
0010
0001
0010
0001
0100
0001
0100
0001
1000
0001
,
M100
0010
0100
0001
0100
0010
1000
0001
M010
0100
0010
0100
0010
0100
0010
0100
,
4000
0000
3040
0430
,
0320
0000
0000
0000
,
0030
0000
0000
0000
;
