#TITLE:Sleep When We're Dead;
#SUBTITLE:;
#ARTIST:ItaloBrothers;
#TITLETRANSLIT:;
#SUBTITLETRANSLIT:;
#ARTISTTRANSLIT:;
#CREDIT:;
#BANNER:../Banner.png;
#BACKGROUND:../BG.png;
#LYRICSPATH:;
#CDTITLE:../CDTitleBRAEDEN.png;
#MUSIC:Sleep When We're Dead - ItaloBrothers.ogg;
#OFFSET:-0.192;
#SAMPLESTART:55.543;
#SAMPLELENGTH:29.999;
#SELECTABLE:YES;
#BPMS:0.000=142.002;
#STOPS:;
#BGCHANGES:;
// cache tags:
#FIRSTBEAT:5.000;
#LASTBEAT:420.000;
#SONGFILENAME:Songs/Index Fusion - Part 2/Sleep When We're Dead - [Braeden]/Sleep When We're Dead.sm;
#HASMUSIC:1;
#HASBANNER:1;
#MUSICLENGTH:181.185;
// end cache tags

//---------------dance-single - ----------------
#NOTES:
     dance-single:
     :
     Challenge:
     10:
     0.697,0.724,0.121,0.248,1.000,817.000,22.000,45.000,3.000,0.000:

0000
0000
0000
0000
,
0000
0000
0000
1000
0000
0001
0010
0000
0001
0010
0000
0000
,
0001
1000
0010
0100
,
0000
0000
0000
0001
0000
1000
0100
0000
0000
0100
0000
0000
,
0010
1000
0001
1001
,
0001
0000
0000
1000
0000
0010
0100
0000
0001
0010
0000
0000
,
0001
1000
0010
0100
,
0001
0000
0000
0000
0000
0000
1001
0000
0000
0000
1000
0000
0100
0000
0000
0000
0000
0000
0011
0000
0000
0001
0000
0000
,
1000
0000
0000
0001
0000
0000
0100
0000
0000
0000
0010
0000
1000
0000
0000
0000
0000
0000
1001
0000
0000
0000
0001
0000
,
0100
0000
0100
0010
0000
0010
1000
0000
1000
0100
0000
0100
,
0010
0000
0001
0010
0000
0010
0100
0000
1000
0200
0000
0000
,
0010
0000
0000
1000
0000
1000
0000
0000
0310
0000
0000
0100
,
0001
0000
0001
0100
0000
0010
1010
0000
0000
1000
0000
0100
,
0020
0030
0001
0010
0000
0100
2000
3001
0100
0010
0000
1000
,
0200
0300
0010
0001
0000
0100
0020
0030
1000
0100
0000
0010
,
0002
0003
0100
0010
0000
1000
0200
0300
0000
0011
0000
0001
,
0010
0000
0100
1000
0000
0001
0100
0000
0010
2000
0000
0000
,
3010
0000
0000
0100
0000
0100
0001
0000
0001
0010
0000
0000
,
0002
0203
0320
0130
,
0000
0000
0000
0100
0000
0001
0100
0000
0000
0010
0000
0000
,
0000
2000
0000
3001
,
1000
0000
0000
0001
0000
0001
0100
0000
0100
0020
0000
0000
,
1030
0001
1000
1001
,
1000
0000
0000
0010
0000
0010
0100
0000
0000
0001
0000
0000
,
1000
0000
0000
0010
0000
0100
0101
0000
0000
1000
0000
0100
,
0010
0000
0001
0010
0000
0100
1000
0000
0001
0100
0000
0010
,
1000
0000
0100
0010
0000
0001
0100
0000
0000
1001
0000
0000
,
1000
0100
0010
0001
0000
0000
1000
0010
0100
0001
0000
0000
,
1000
0000
0000
0000
0100
0000
0000
0000
0010
0000
0000
0000
0001
0000
0000
0000
0100
0000
0000
0000
0010
0000
0000
0000
1000
0000
0000
0100
0000
0000
0010
0000
0000
0001
0000
0000
1000
0000
0000
0000
0000
0000
0000
0000
1000
0000
0000
0000
,
0100
0000
0010
0001
0000
0100
0010
0000
1000
0100
0000
0010
,
0001
0000
0100
0010
0000
1000
0100
0000
0000
0010
0001
0010
,
0001
0100
0010
0100
0010
1000
0100
1000
0001
0200
0000
0000
,
0000
0000
0000
0300
0000
0000
1001
0000
0000
0001
0010
0001
,
1000
0100
1000
0002
0000
0103
0010
0100
0010
1000
0100
1000
,
0001
0010
0001
2000
0000
3010
0100
0000
0001
0100
0010
0100
,
0001
0010
0001
2000
0000
3001
0100
0010
0100
0001
0010
0001
,
1000
0100
1000
0002
0000
0103
0010
1000
0010
0100
0001
0100
,
0001
0010
0001
1000
0000
0010
0100
0001
0100
0001
0010
0001
,
1000
0100
1000
0002
0000
1003
0010
0000
1000
0001
1000
0001
,
1000
0001
1000
0001
0000
0100
0010
1000
0001
0100
0010
0100
,
0001
0010
0001
1000
0100
0010
1001
0000
0000
1000
0100
0010
,
0001
0010
0100
2000
0000
3001
0100
0010
0100
0001
0010
0100
,
1000
0100
0010
0001
0000
1000
0200
0000
0310
0001
0100
0010
,
1000
0100
0010
0200
0000
1300
0001
0100
0010
1000
0100
1000
,
0001
0100
0010
0100
0000
0010
0001
1000
0010
0100
0001
0010
,
0100
1000
0100
0020
0000
0031
0100
0010
1000
0100
1000
0001
,
0010
0100
1000
0002
0000
0103
0010
1000
0100
0010
0001
0010
,
0100
1000
0100
0020
0000
0031
0100
0010
0100
0001
0000
0001
,
1000
0000
1000
0001
0000
0100
0001
0000
0000
0101
0000
1000
,
0100
0000
0010
0001
0000
0010
0100
0000
1000
0100
0000
0010
,
0001
0000
0000
0001
0000
0000
2000
0000
0020
0000
0000
0000
,
0000
0000
0000
3030
0000
0000
0100
0000
0001
0000
0000
1000
,
0100
0000
0010
0001
0000
1000
1010
0000
0100
0001
0000
0100
,
0020
0030
1000
0100
0000
0010
0001
0100
0010
1000
0000
0100
,
0020
0030
0001
0010
0000
0100
2000
3000
0001
0100
0010
0100
,
0001
0010
0001
1000
0000
0000
0010
0100
0001
1000
0100
0010
,
0001
0010
0100
1000
0000
0000
1001
0000
0000
0001
0000
0000
,
0001
0000
0000
0001
0000
0001
0100
0000
0100
0010
0000
0000
,
0010
1000
0001
1001
,
0000
0000
0000
1000
0000
1000
0010
0000
0000
0010
0000
0000
,
0000
0010
0010
0101
,
0010
0000
0000
1000
0000
1000
0010
0000
0010
0100
0000
0000
,
0001
0010
0001
0101
,
0000
0000
0000
0010
0000
0010
1000
0000
0000
1010
0000
0000
,
1000
0001
1001
0001
,
0001
0000
0000
0100
0000
0100
0010
0000
0010
1000
0000
0000
,
1000
0000
0000
0010
0000
0000
0100
0000
0100
0010
0000
0000
,
1000
0100
0010
0001
0010
0100
1000
0001
0100
0010
1000
0100
,
0010
0001
0010
0100
1000
0001
0100
0010
1000
0100
0000
0010
,
0001
0000
0001
0010
0000
0100
1000
0000
0100
0010
0000
0001
,
0010
0000
0100
1000
0000
0100
0010
0000
0010
0100
1000
0100
,
1000
0010
0100
0001
1000
0100
0010
0001
1000
00M0
0000
0000
,
0M00
0000
0000
00M0
0000
0000
1001
0000
0000
1000
0100
0010
,
0001
1000
0100
0020
0000
0031
0100
0010
0100
0001
1000
0100
,
0010
0001
0100
0020
0000
1030
0100
0000
0010
0001
0100
0010
,
0100
0001
1000
0200
0000
0310
0001
0100
0010
1000
0100
1000
,
0001
0010
0100
1000
0000
0001
0100
0010
1000
0100
0010
0001
,
0010
0100
1000
0002
0000
0103
0010
1000
0100
0010
0001
0010
,
0100
1000
0001
0200
0000
0310
1000
0000
0001
0100
0010
0100
,
0001
0010
0001
2000
0000
3001
0100
0010
1000
0100
0010
0100
,
0010
0001
0010
0001
1000
0001
0100
0000
0000
0010
1000
0100
,
1000
0001
0010
0200
0000
1300
0001
0100
0010
1000
0100
0010
,
0001
0100
0010
2000
0000
3010
0100
0000
0001
0100
0010
1000
,
0100
1000
0001
0020
0000
0130
1000
0001
0100
0010
1000
0100
,
0010
0001
0010
0100
0000
1000
0100
0010
0001
1000
0100
0010
,
0100
1000
0001
0200
0000
0310
1000
0100
1000
0001
0010
0100
,
2000
0000
0000
3020
0000
0000
0130
0000
0001
0100
0010
1000
,
0100
1000
0001
0010
0000
0001
0100
0010
1000
0100
0010
0001
,
1000
0010
0100
0001
0000
1000
1001
0000
0000
0001
0000
0000
,
0100
0000
0000
0010
0000
0010
1000
0000
0010
0000
0000
0000
,
0000
0000
0000
0100
0000
0100
0001
0000
0010
0000
0000
0000
,
0000
0000
0000
0100
0000
0100
1000
0000
0001
0000
0000
0000
,
0100
0010
1000
0001
,
0100
0000
0000
0010
0000
0010
1000
0000
0010
0000
0000
0000
,
0000
0000
0000
0100
0000
0000
0001
0000
0000
0010
0001
0010
,
0001
0010
0001
1000
0001
1000
0001
1000
0001
1000
0000
0000
,
0000
0000
0000
0000
0000
0000
0000
0000
0000
0001
0010
0100
,
1000
0001
0010
0200
0000
1300
0001
0100
0010
0100
0001
0010
,
0001
1000
0100
0020
0000
0031
0100
0000
0010
1000
0100
1000
,
0001
0010
0100
2000
0000
3001
0100
0010
0100
0001
1000
0100
,
0010
0001
0100
0010
1000
0100
0010
0100
1000
0001
1000
0100
,
0010
0100
1000
0001
0010
0100
1000
0001
0100
0010
0100
0001
,
1000
0100
0010
0100
1000
0001
0100
0010
0100
0001
1000
0100
,
0010
0100
1000
0001
0100
0010
0100
0001
1000
0100
0010
0100
,
1000
0001
0100
0010
1000
0100
0010
0001
1000
0001
0000
0000
,
1001
0000
0000
0000
;
