#TITLE:Hatsune Miku no Shousitsu -Dead End-;
#SUBTITLE:;
#ARTIST:cosMo;
#TITLETRANSLIT:;
#SUBTITLETRANSLIT:;
#ARTISTTRANSLIT:;
#CREDIT:ALICE_;
#BANNER:Shousitsu.png;
#BACKGROUND:bg01.jpg;
#LYRICSPATH:;
#CDTITLE:cdtitle.png;
#MUSIC:Hatsune Miku no Shousitsu -Dead End-.mp3;
#OFFSET:-1.030;
#SAMPLESTART:115.200;
#SAMPLELENGTH:15.620;
#SELECTABLE:YES;
#BPMS:0.000=150.000,60.000=141.500,64.000=240.001,1056.000=120.000,1065.000=998.999;
#STOPS:;
#BGCHANGES:0.000=Shousitsu.avi=1.000=1=1=0,
99999=-nosongbg-=1.000=0=0=0 // don't automatically add -songbackground-
;
// cache tags:
#FIRSTBEAT:0.000;
#LASTBEAT:1070.000;
#SONGFILENAME:Songs/alice 4th complete step/Hatsune Miku no Shousitsu -Dead End-/Hatsune Miku no Shousitsu -Dead End-.sm;
#HASMUSIC:1;
#HASBANNER:1;
#MUSICLENGTH:288.247;
// end cache tags

//---------------dance-single - Copied from Copied f----------------
#NOTES:
     dance-single:
     Copied from Copied f:
     Easy:
     10:
     0.777,0.787,0.215,0.052,0.000,1491.000,62.000,15.000,0.000,0.000:
1000
0000
0001
0000
0100
0010
1000
0010
,
0100
0001
1000
0100
,
0001
0000
1000
0000
0100
0010
0001
0010
,
0100
0000
1000
0000
0001
0000
0100
0010
,
1000
0000
0100
0010
0000
0001
0100
0001
,
0010
0100
1000
0001
,
0120
0030
1002
0003
,
0110
0000
1000
0000
0001
0000
0100
0001
,
0010
0000
0010
0000
1000
0001
0000
0200
,
0000
0010
0310
0001
,
1001
0100
0010
1000
,
0001
0100
1000
0100
,
0001
1000
0010
0100
,
0001
1000
0100
0010
,
0001
0000
1000
0000
,
0010
0000
0100
0000
,
1001
0000
1000
0000
1000
0000
0100
0010
,
0001
0000
0001
0000
0001
0000
0100
0010
,
1000
0100
0001
0100
,
1000
0010
0100
0001
0100
0010
1000
0000
,
1001
0000
0001
0000
0001
0000
0100
0010
,
1000
0000
1000
0000
1000
0000
0100
0010
,
0001
0101
1000
1100
,
0001
1000
0001
1000
0010
0100
0001
1000
,
0100
0000
0100
0000
0010
0001
1000
0000
,
0010
0000
0010
0000
0100
0001
1000
0000
,
0001
0010
1000
0010
,
0001
0100
0010
1000
0010
0100
0001
0000
,
1001
0000
1000
0000
1000
0010
0100
0000
,
0001
0000
0001
0000
0001
0010
0100
0000
,
1100
1000
1001
0001
,
0100
0010
1000
0001
0010
0100
1000
0100
,
0010
0000
0001
0000
0100
0001
0100
0000
,
0010
0000
1000
0000
0100
1000
0100
0000
,
0010
0001
1000
0010
,
0100
0000
0001
0000
0010
0100
1000
0000
,
0110
1000
0001
0100
,
0001
0000
0010
0000
0100
1000
0010
0000
,
2000
3010
0020
0130
,
0200
0301
0002
1003
,
0100
0010
0100
0010
0001
1000
0100
1000
,
0001
0100
0010
1000
,
0010
0001
0010
1000
,
0100
0010
0001
0100
,
1001
0010
0100
1000
,
1000
0010
0100
0001
,
1100
1000
0101
0001
,
1000
0100
1000
0010
0100
0001
0010
0000
,
0100
0000
1000
0000
0100
0010
0100
0000
,
1000
0000
0010
0000
0100
0001
0100
0000
,
0010
0000
1000
0000
0001
0010
0001
0000
,
0100
0000
0010
0000
1000
0001
1000
0000
,
0100
0010
0100
0000
0010
0001
0010
0000
,
0001
0100
0001
0000
1000
0010
0100
0000
,
1001
0100
1001
0100
,
1000
0010
0100
0000
0001
0010
0100
0000
,
0001
0000
1000
0000
0001
0100
1000
0000
,
0100
0000
0001
0000
0100
0001
0010
0000
,
0100
0000
1000
0000
0100
1000
0010
0000
,
0100
0000
0010
0000
0001
0010
1000
0000
,
0001
0010
0100
0000
1000
0010
0100
0000
,
0001
0100
0010
0000
1000
0100
0010
0000
,
1001
0000
0100
0000
0010
1000
0001
0000
,
0100
0010
1000
0010
0100
0001
0010
0001
,
1000
0000
1000
0100
1000
0100
0010
0100
,
1000
0000
0001
0100
0001
0100
0010
0100
,
0001
1000
0010
0100
,
0001
0010
0100
1000
0100
0010
0001
0010
,
0001
0000
1000
0010
1000
0010
0100
0010
,
1000
0001
0010
0001
0010
0100
0010
0001
,
1000
0100
1000
0010
0100
0010
0100
0000
,
0010
0100
0010
0100
0001
1000
0100
0010
,
0001
0000
0001
0100
0001
0100
0010
0100
,
0001
0000
1000
0100
1000
0100
0010
0100
,
1000
0001
0010
0100
,
1000
0010
0100
0001
0100
0010
1000
0010
,
1000
0000
0001
0010
0001
0010
0100
0010
,
0001
1000
0010
1000
0010
0100
0010
1000
,
0001
0100
0001
0010
0100
0010
0100
0000
,
0010
0100
0010
0100
1000
0001
0100
0020
,
0000
0000
1030
0001
0100
0001
0100
0000
,
0010
1000
0001
0010
,
0100
1000
0100
1000
0010
1000
0010
1000
,
0010
0100
0010
0100
0001
0100
0001
0010
,
0100
1000
0001
0100
,
1000
0100
0001
0010
,
0100
1000
0100
1000
0001
1000
0001
1000
,
0001
0100
0001
0100
0001
0010
0100
1000
,
0010
0100
1000
0100
,
0001
0010
0100
0010
,
0001
0000
1000
0100
1000
0001
1000
0001
,
0100
0010
0100
0000
0010
0100
0010
0000
,
1000
0000
0001
0000
0100
0010
1000
0000
,
0001
0000
1000
0000
0010
0100
0001
0000
,
1100
0000
0000
0101
0000
0000
0110
0000
,
1000
0001
0000
0000
1000
0001
0100
0000
,
0010
1000
0100
0100
,
1000
0000
0010
0000
0100
0000
0001
0010
,
0001
0000
0010
0100
0000
0100
1000
0000
,
0010
0100
0001
0100
,
0010
0000
1000
0100
,
0001
0001
0100
1000
,
0010
0100
0001
0100
0001
0010
0001
0010
,
0001
0010
0100
0010
,
1001
0001
0101
0001
,
1001
1000
1100
1000
,
1010
0010
0110
0100
,
0101
0001
1001
0100
,
0010
0001
0100
0010
,
1000
0100
0100
0001
,
0100
0000
1000
0000
0010
0100
0010
1000
,
0001
0000
0010
0100
0010
0001
1000
0000
,
1001
0000
0001
0000
0100
0010
0100
0010
,
1000
0000
1000
0000
0100
0010
0100
0010
,
0001
0000
0001
0000
0010
0100
0010
0100
,
1000
0000
1000
0000
0010
0100
0010
0100
,
0001
0000
0010
0000
0100
1000
0100
1000
,
1000
0000
0010
0000
0100
0001
0100
0001
,
0001
0000
1000
0000
0010
0100
0001
1000
,
1000
0000
0001
0000
0100
0010
1000
0001
,
1000
0000
1000
0000
0100
1000
0010
0100
,
0001
0000
0001
0000
0100
0001
0010
0100
,
1000
0000
0010
0000
0100
0001
0100
0001
,
0010
0000
0100
0000
1000
0010
1000
0010
,
0100
0000
0100
0000
0001
0010
0100
1000
,
0001
0000
0001
0000
1000
0010
0100
0001
,
1001
0000
0000
0101
0000
0000
1100
0000
,
0010
0000
0100
0000
0001
1000
0100
0010
,
0100
1000
0010
1000
,
0100
0100
0000
0100
0000
0100
0100
0000
,
1000
0010
0100
0010
,
1000
0010
0001
0010
,
0100
0001
1000
0001
,
0010
0010
0000
0010
0000
0010
0010
0000
,
1001
0000
0101
0000
,
1001
1000
0010
0010
,
0110
0000
1000
0000
0001
0100
0001
0000
,
0010
0000
0100
0000
1000
0010
1000
0000
,
0100
1000
0001
0100
,
0010
0000
1000
0000
0100
0010
0001
0000
,
0101
1000
0010
0100
,
0010
0000
1000
0000
0001
1000
0100
0000
,
2000
3010
0020
0130
,
0200
0301
0002
1003
,
0010
0100
0010
0100
0001
1000
0100
1000
,
0001
0100
0010
1000
,
0001
0100
1000
0100
,
0001
0010
1000
0010
,
1001
0100
0010
1000
,
1000
0010
0100
0001
,
0101
0001
1100
1000
,
0001
0010
0001
0100
0001
1000
0010
0000
,
0100
0000
0001
0000
0010
0100
0010
0000
,
0001
0000
0100
0000
0010
1000
0010
0000
,
0100
0000
0001
0000
1000
0100
1000
0000
,
0010
0000
0100
0000
0001
1000
0001
0000
,
0010
0100
0010
0000
0100
1000
0100
0000
,
1000
0010
1000
0000
0001
0100
0010
0000
,
1001
0010
1001
0010
,
0001
0100
0010
0000
1000
0100
0010
0000
,
1000
0000
0001
0000
1000
0010
0001
0000
,
0010
0000
1000
0000
0010
1000
0100
0000
,
0010
0000
0001
0000
0010
0001
0100
0000
,
0010
0000
0100
0000
1000
0100
0001
0000
,
1000
0100
0010
0000
0001
0100
0010
0000
,
1000
0010
0100
0000
0001
0010
0100
0000
,
1001
0000
0100
0000
0010
0001
1000
0000
,
0010
0100
0001
0100
0010
1000
0100
1000
,
0001
0000
0001
0010
0001
0010
0100
0010
,
0001
0000
1000
0010
1000
0010
0100
0010
,
1000
0001
0100
0010
,
1000
0100
0010
0001
0010
0100
1000
0100
,
1000
0000
0001
0100
0001
0100
0010
0100
,
0001
1000
0100
1000
0100
0010
0100
1000
,
0001
0010
0001
0100
0010
0100
0010
0000
,
0100
0010
0100
0010
1000
0001
0010
0100
,
1000
0000
1000
0001
1000
0010
0100
0010
,
1000
0000
0001
1000
0001
0010
0100
0010
,
0001
1000
0010
0100
,
0001
0100
0010
1000
0010
0100
0001
0100
,
0010
0000
1000
0100
1000
0100
0010
0001
,
1000
0010
0100
0010
0100
0001
1000
0100
,
1000
0010
1000
0100
0010
0100
0010
0000
,
0100
0010
0100
0010
0001
1000
0010
0200
,
0000
0000
0301
1000
0010
1000
0010
0100
,
0001
0100
0001
0010
0100
1000
0100
1000
,
0001
0001
0010
0010
,
1000
1000
0100
0100
,
0010
0001
0010
0001
0010
0001
0010
0001
,
1000
0001
1000
0001
1000
0010
0100
0000
,
0010
1000
0010
1000
0001
1000
0001
1000
,
0001
0010
0001
0010
0001
0100
0010
1000
,
0100
0010
0001
0010
,
1000
0100
0010
0100
,
1001
0000
0001
0100
0010
0100
0010
0100
,
0001
1000
0001
0000
1000
0001
1000
0000
,
0101
0000
1000
0000
0010
0100
0001
0000
,
1000
0000
0001
0000
0010
0100
1000
0000
,
1001
0000
0000
0110
0000
0000
1001
0000
,
0001
0010
0100
1000
0100
0010
0001
0000
,
1000
0001
0100
0100
,
0001
0000
1000
0000
0010
0000
1000
0100
,
1000
0000
0100
0010
0000
0010
0001
0000
,
0100
0010
1000
0010
,
0100
0000
0001
0010
,
1000
1000
0010
0001
,
0100
0010
1000
0010
1000
0100
1000
0100
,
1000
0001
0100
0010
,
1001
1000
1010
1000
,
1001
0001
0011
0001
,
0101
0100
0110
0010
,
1010
1000
1001
0010
,
0100
1000
0010
0100
,
0001
0010
0010
1100
,
0010
0000
0001
0000
0100
0010
0100
0001
,
1000
0100
0010
0001
1000
0100
0010
0001
,
1000
0000
1000
0000
0010
0100
0010
0100
,
0001
0000
0001
0000
0010
0100
0010
0100
,
1000
0000
1000
0000
0100
0010
0100
0010
,
0001
0000
0001
0000
0100
0010
0100
0010
,
1000
0000
0100
0000
0010
0001
0010
0001
,
0001
0000
0100
0000
0010
1000
0010
1000
,
1000
0000
0001
0000
0100
0010
1000
0001
,
0001
0000
1000
0000
0010
0100
0001
1000
,
0001
0000
0001
0000
0010
0001
0100
0010
,
1000
0000
1000
0000
0010
1000
0100
0010
,
0001
0000
0100
0000
0010
1000
0010
1000
,
0100
0000
0010
0000
0001
0100
0001
0100
,
0010
0000
0100
0000
0001
1000
0010
0100
,
0001
0000
1000
0000
0100
0010
0001
1000
,
0010
0100
0010
0100
0001
0100
0001
0100
,
0001
1000
0001
1000
0100
1000
0100
1000
,
0010
0001
0010
0001
0010
0001
0100
0001
,
1000
0010
1000
0010
1000
0010
1000
0100
,
0010
0001
0010
0100
1000
0010
1000
0100
,
0010
0001
0010
0100
1000
0010
1000
0100
,
0010
0001
0010
0001
1000
0001
1000
0001
,
0100
0001
0100
0001
0100
0010
0100
0010
,
1000
0100
1000
0010
0100
0001
0010
0001
,
1000
0100
1000
0010
0100
0001
0010
0001
,
1000
0100
0010
0100
1000
0100
0010
0100
,
1000
0100
0010
0100
1000
0010
0100
0001
,
0010
0100
1000
0100
0010
0100
1000
0100
,
0010
0100
1000
0100
0010
0001
0100
0010
,
1000
0001
0100
0001
1000
0001
0010
0001
,
1000
0001
0100
0001
1000
0001
0010
0001
,
0100
1000
0100
1000
0100
0010
0100
0010
,
0100
0001
0100
0001
1000
0100
0010
0001
,
1000
0100
0010
0100
,
1000
0010
1000
0000
1010
0000
1001
0000
,
0001
0100
0010
0100
,
0001
0010
0001
0000
0011
0000
1001
0000
,
0100
0000
0010
0000
0100
0001
1000
0000
,
0010
0000
0100
0000
0010
1000
0001
0000
,
0100
0010
1000
0001
0010
0100
1000
0000
,
0001
0100
0010
1000
0010
0100
0001
0000
,
1000
0100
1000
0100
0001
0100
0001
0100
,
0001
0010
0001
0010
1000
0010
1000
0010
,
1000
0100
1000
0100
0001
0100
0001
0100
,
0001
0010
0001
0010
1000
0010
1000
0010
,
0100
1000
0100
1000
0010
1000
0010
1000
,
0010
0001
0010
0001
0100
0001
0100
0001
,
0100
1000
0100
1000
0010
1000
0010
1000
,
0010
0001
0010
0001
0100
1000
0010
0001
,
0200
0000
0000
0000
,
0000
0000
0000
0000
,
0000
0320
0000
0030
;

//---------------dance-single - Copied from Copied f----------------
#NOTES:
     dance-single:
     Copied from Copied f:
     Medium:
     10:
     0.956,1.000,0.340,0.121,0.938,1796.000,98.000,35.000,0.000,0.000:
1000
0000
0001
0000
0100
0010
1000
0010
,
0100
0001
1000
0010
,
0001
0000
1000
0000
0100
0010
0001
0010
,
0100
0000
1000
0000
0001
0000
0100
0010
,
1000
0000
0100
0010
0000
0001
0100
0001
,
0010
0100
1000
0001
,
0120
1030
0102
0013
,
0100
0000
1000
0000
0001
0000
0100
0001
,
0010
0000
0010
0000
1000
0001
0000
0200
,
0000
0010
0310
0001
,
1001
0100
0010
1000
,
0001
0001
1000
0010
,
1000
0100
0001
0100
,
1000
0010
0100
0010
,
1000
0000
0001
0000
,
1000
0000
0010
0000
,
1000
0100
1000
0010
0100
0001
1000
0100
1000
0010
0100
0001
,
1000
0100
1000
0001
0010
0001
1000
0100
1000
0001
0010
0001
,
1000
0010
1000
0001
0100
0001
1000
0010
1000
0001
0100
0001
,
1000
0100
0010
0001
0100
0001
1000
0010
0100
0001
0010
0001
,
1000
0100
1000
0010
0100
0010
1000
0100
1000
0010
0100
0001
,
1000
0100
0010
0001
0100
0001
1000
0010
0100
0001
0100
0001
,
0010
0100
0010
0001
0100
0001
0010
0100
0010
0001
0100
0001
,
1000
0010
0100
0001
0010
0100
1000
0010
0100
0001
0010
0001
,
1000
0100
1000
0010
0100
0001
1000
0100
1000
0010
0100
0001
,
1000
0100
1000
0001
0010
0001
0100
0001
0100
0010
1000
0010
,
0100
0001
0100
0010
1000
0100
0010
0001
0010
0001
0100
0010
,
1000
0100
1000
0001
0100
0001
1000
0010
1000
0001
0010
0001
,
0100
0010
0100
0001
0010
0001
0100
0010
0100
0001
0010
0001
,
1000
0100
1000
0010
0100
0010
1000
0100
1000
0010
0100
0010
,
1000
0100
0001
0100
1000
0100
1000
0010
0100
0001
0010
0001
,
1000
0100
0010
0100
1000
0010
0100
0001
0010
0100
0010
0001
,
1000
0000
0000
1100
0000
0000
0001
0100
,
0010
1000
0001
0010
,
1100
1000
0101
0001
,
1010
0100
0001
0010
,
0100
0000
0000
0100
1000
0000
0001
0010
,
0001
0100
0000
1000
0000
0001
0100
0000
,
1010
0000
0010
0100
0001
0000
0001
1000
,
0010
1000
0001
0100
0010
1000
0001
0010
,
0100
1000
0100
0010
1000
0010
0100
1000
,
0010
0100
0001
1000
,
0021
0031
0102
0103
,
1000
0010
1000
0001
0100
0010
1000
0001
,
1000
0100
0010
0001
,
0001
0100
0010
1000
,
0101
0001
1100
1000
,
0001
0100
0001
1000
0001
0010
0100
1000
,
0010
0000
0000
0000
,
0100
0000
0001
0000
,
1000
0000
0000
0000
,
0010
0000
0100
0001
,
1000
0000
0000
0000
,
1100
0000
0001
0000
,
1001
0000
0100
0000
,
0110
0000
0000
0000
,
1001
0000
0000
0000
,
0100
0000
0001
0000
,
1000
0000
0000
1000
0000
0000
0010
0000
,
1000
0001
0100
0010
,
1000
0000
0000
0000
,
0001
0000
0100
0000
,
0010
0000
0000
0000
,
2002
0000
0000
3003
,
1000
0100
1000
0010
0100
0001
1000
0010
,
0100
0001
0100
1000
0100
0001
0010
0100
,
1000
0001
0010
0001
1000
0010
0100
0010
,
1000
0100
0010
0001
0100
0010
1000
0100
,
0010
0001
0010
0001
0100
1000
0100
0010
,
1000
0001
0100
0010
1000
0100
0001
0100
,
1000
0010
1000
0001
1000
0100
1000
0001
,
0010
0100
0010
0001
1000
0010
0100
0001
,
1000
0100
1000
0010
0100
0001
1000
0010
,
0100
0001
0100
1000
0100
0001
0010
0100
,
1000
0001
0010
0001
1000
0010
0100
0001
,
1000
0100
0010
0001
0001
0100
0010
1000
,
0100
1000
0001
0010
0100
1000
0010
0001
,
0010
1000
0010
0100
0001
0010
0100
1000
,
0001
0010
0001
0100
0001
0010
0001
1000
,
0100
0010
0100
1000
0001
0100
0010
2000
,
0000
0000
3001
0000
1001
0000
0001
0100
,
0010
1000
0100
1000
,
0001
0001
1000
0010
,
0100
0001
1000
0001
,
1100
0001
0101
1000
,
0110
0010
0100
0001
,
2000
3100
0200
0310
,
0002
1003
2000
3010
,
0101
0000
0000
1000
0000
0000
0100
0000
,
0010
0000
0000
0100
0000
0000
1000
0000
,
0001
0000
0000
0100
0000
0000
0010
0000
,
0000
1000
0001
0100
,
1001
0000
0100
0010
0000
1000
0000
0001
,
0000
0000
0100
0000
0000
0000
0010
0000
0000
0000
1000
0100
0010
0001
0100
0010
,
1000
0001
0100
0010
1000
0001
0100
0010
1000
0001
1000
0001
1000
0001
1000
0001
,
1000
0001
1000
0001
0200
0000
0000
0000
0000
0000
0000
0000
0300
0000
0000
0000
,
1010
0000
0000
1100
0000
0000
0010
0001
,
0100
0000
0001
0000
1000
0000
0010
0100
,
0002
0000
0003
0002
0000
0013
0100
0000
,
1000
0001
0100
0010
,
1000
0000
0101
0010
,
0110
0000
0000
0100
0000
0000
1000
0000
,
0001
0100
0010
0100
0001
1000
0010
0100
,
0001
1000
0100
0010
0001
0100
0010
1000
,
0001
0000
0000
0101
0000
0000
0100
0010
,
1000
0000
0001
0000
0100
0000
0010
1000
,
0200
0300
0100
2000
3000
0010
0100
0000
,
0001
1000
0010
0100
,
0001
0000
1001
0010
,
0110
0000
0000
1000
0000
0000
0010
0000
,
1000
0010
0100
0010
1000
0001
0100
0010
,
1000
0001
0010
0100
1000
0010
0100
0001
,
1000
0100
0010
0001
0100
0001
1000
0010
0100
0001
0010
0001
,
1000
0100
1000
0001
0010
0001
1000
0100
1000
0001
0010
0001
,
1000
0010
0100
0001
1000
0100
1000
0010
0100
0001
1000
0100
,
0010
0001
1000
0100
1000
0010
0100
0001
1000
0010
0100
0001
,
1000
0100
1000
0010
0100
0010
1000
0100
1000
0010
0100
0010
,
1000
0100
1000
0001
0010
0001
1000
0100
1000
0001
0010
0001
,
0100
0010
0100
0001
1000
0001
0100
0010
0100
0001
1000
0001
,
0010
0100
1000
0010
0100
0001
1000
0100
1000
0010
0100
0001
,
1000
0100
0001
0100
1000
0100
0010
0001
0100
0010
1000
0010
,
0100
0001
0010
0100
1000
0100
0010
0001
1000
0010
0100
0001
,
1000
0010
0001
0010
0100
0010
1000
0100
0001
0100
1000
0010
,
0100
0001
0100
0010
1000
0010
0100
0001
0100
0010
1000
0010
,
0100
0001
0010
0100
1000
0001
0100
0010
0100
0001
1000
0100
,
0010
0001
0010
0001
0100
0001
1000
0010
1000
0100
1000
0100
,
0010
0001
1000
0010
0100
0001
1000
0100
0010
0001
0100
0010
,
1000
0100
1000
0001
0100
0001
1000
0010
1000
0001
0010
0100
,
1000
0001
0100
0001
,
1010
0000
0000
0000
0000
0000
0110
0000
0000
0000
0000
0000
0000
0000
0000
0000
1001
0000
0000
0000
0000
0000
0000
0000
0000
0000
0000
0011
0000
0000
0000
0000
0000
0110
0000
0000
0000
0000
0000
0000
0000
0000
0000
0000
0000
0000
0000
0000
,
1001
0100
0010
1000
,
0001
0100
0001
0010
,
0100
0000
1000
0001
0100
0010
1000
0000
,
0001
0100
0010
0100
0000
0001
0010
0000
,
0200
0000
0000
0300
2000
0000
0000
3000
,
0001
0000
0001
0000
0001
1000
0001
1000
,
0001
0000
0000
0101
0000
0000
0100
0010
,
1000
0000
0001
0000
1000
0000
0100
0010
,
0001
0000
0001
0100
0000
0010
1000
0000
,
0101
1000
1100
0001
,
0010
0000
0110
0001
,
1001
0000
0000
0100
0000
0010
1000
0000
,
0101
0000
1000
0100
0000
1000
0100
1000
,
0010
0100
0000
0001
1000
0010
0100
0001
,
1000
0100
1000
0010
0100
0010
1000
0001
,
0010
0000
0100
0000
1000
0000
0001
1000
,
1200
0000
0300
2000
3000
0010
0200
0300
,
1001
0000
0010
0000
0100
0000
0001
1000
,
0010
0000
0000
0100
0001
0000
1000
0100
,
1000
0010
0000
0100
0000
0001
1000
0000
,
1100
0001
0011
1000
,
0100
0010
1000
0001
1000
0100
0010
0001
,
0100
0000
0000
0000
,
0010
0000
1000
0000
,
0001
0000
0000
0000
,
0100
0000
0010
1000
,
0001
0000
0000
0000
,
0011
0000
1000
0000
,
1001
0000
0010
0000
,
0110
0000
0000
0000
,
1001
0000
0000
0000
,
0010
0000
1000
0000
,
0001
0000
0000
0001
0000
0000
0100
0000
,
0001
1000
0010
0100
,
0001
0000
0000
0000
,
1000
0000
0010
0000
,
0100
0000
0000
0000
,
2002
0000
0000
3003
,
0001
0010
0001
0100
0010
1000
0001
0100
,
0010
1000
0010
0001
0010
1000
0100
0010
,
0001
1000
0100
1000
0001
0100
0010
0100
,
0001
0010
0100
1000
0010
0100
0001
0010
,
0100
0010
0100
1000
0010
0001
0010
0100
,
0001
1000
0010
0100
0001
0010
0100
1000
,
0001
0010
0001
0100
0001
0010
0001
1000
,
0100
0010
0100
1000
0001
0100
0010
1000
,
0001
0010
0001
0100
0010
1000
0001
0100
,
0010
1000
0010
0001
0010
1000
0100
0010
,
0001
1000
0100
1000
0001
0100
0010
1000
,
0001
0010
0100
1000
1000
0010
0100
0001
,
0010
0001
1000
0100
0010
0001
0010
0100
,
1000
0001
0100
0010
1000
0100
0010
0001
,
1000
0100
1000
0010
1000
0100
1000
0001
,
0010
0100
0010
0001
1000
0010
0100
0002
,
0000
0000
1003
0000
1001
0000
1000
0010
,
0100
0001
0010
0001
,
1000
1000
0001
0100
,
0010
1000
0001
1000
,
0011
1000
1010
0001
,
0110
0100
0010
1000
,
0002
0013
0020
0130
,
2000
3001
0002
0103
,
1010
0000
0000
0001
0000
0000
0010
0000
,
0100
0000
0000
0010
0000
0000
0001
0000
,
1000
0000
0000
0010
0000
0000
0100
0000
,
0000
0001
1000
0010
,
1001
0000
0010
0100
0000
0001
0000
1000
,
0000
0000
0010
0000
0000
0000
0100
0000
0000
0000
0001
0010
0100
1000
0010
0100
,
0001
1000
0010
0100
0001
1000
0010
0100
0001
1000
0001
1000
0001
1000
0001
1000
,
0001
1000
0001
1000
0020
0000
0000
0000
0000
0000
0000
0000
0030
0000
0000
0000
,
0101
0000
0000
0011
0000
0000
0100
1000
,
0010
0000
1000
0000
0001
0000
0100
0010
,
1000
0000
1000
0100
0000
0010
0001
0000
,
0100
0010
1000
0001
,
0100
0000
1010
0100
,
0110
0000
0000
0001
0000
0000
1000
0000
,
1000
0010
0100
0010
1000
0001
0100
0010
,
1000
0001
0010
0100
1000
0010
0100
0001
,
1000
0000
0000
1010
0000
0000
0010
0100
,
0001
0000
1000
0000
0010
0000
0100
0001
,
0020
0030
0010
0002
0003
0100
0010
0000
,
1000
0001
0100
0001
,
1001
0000
0101
1000
,
1010
0000
0000
0001
0000
0000
0100
0000
,
0001
0100
0010
0100
0001
1000
0010
0100
,
0001
1000
0100
0010
0001
0100
0010
1000
,
0001
0010
0100
1000
0010
1000
0001
0100
0010
1000
0100
1000
,
0001
0010
0001
1000
0100
1000
0001
0010
0001
1000
0100
1000
,
0001
0100
0010
1000
0001
0010
0001
0100
0010
1000
0001
0010
,
0100
1000
0001
0010
0001
0100
0010
1000
0001
0100
0010
1000
,
0001
0010
0001
0100
0010
0100
0001
0010
0001
0100
0010
0100
,
0001
0010
0001
1000
0100
1000
0001
0010
0001
1000
0100
1000
,
0010
0100
0010
1000
0001
1000
0010
0100
0010
1000
0001
1000
,
0100
0010
0001
0100
0010
1000
0001
0010
0001
0100
0010
1000
,
0001
0010
1000
0010
0001
0010
0100
1000
0010
0100
0001
0100
,
0010
1000
0100
0010
0001
0010
0100
1000
0001
0100
0010
1000
,
0001
0100
1000
0100
0010
0100
0001
0010
1000
0010
0001
0100
,
0010
1000
0010
0100
0001
0100
0010
1000
0010
0100
0001
0100
,
0010
1000
0100
0010
0001
1000
0010
0100
0010
1000
0001
0010
,
0100
1000
0100
1000
0010
1000
0001
0100
0001
0010
0001
0010
,
0100
1000
0001
0100
0010
1000
0001
0010
0100
1000
0010
0100
,
0001
0010
0001
1000
0010
1000
0001
0100
0001
1000
0100
0010
,
0100
1000
0100
0010
0001
0010
0100
1000
0100
0010
0001
0010
,
0100
1000
0100
0010
0001
0010
0100
1000
0100
0010
0001
0010
,
0100
1000
0010
0100
0001
0100
0010
1000
0100
0010
0001
0010
,
0001
1000
0001
0100
0010
0100
0001
1000
0001
0010
0100
1000
,
0010
0001
0010
0100
0001
0100
0010
1000
0010
0100
1000
0100
,
0001
0010
0001
1000
0100
1000
0001
0010
1000
0010
0001
0100
,
0010
1000
0100
0010
0001
0100
0010
1000
0010
0100
0001
0100
,
0001
0010
0001
1000
0100
1000
0001
0010
0001
1000
0100
1000
,
0010
0100
0010
0100
0001
0100
0010
1000
0010
0100
0001
0100
,
0010
1000
0010
1000
0100
1000
0001
0010
0001
0100
0001
0100
,
0010
1000
0001
0100
0010
1000
0001
0010
0001
0100
0001
1000
,
0010
0100
0001
0100
0010
1000
0001
0010
0001
0100
0010
1000
,
0001
0100
0001
1000
0010
1000
0100
1000
0100
0010
0001
0010
,
0001
0100
1000
0100
0001
0010
0100
1000
0100
0010
0001
0100
,
1000
0100
1000
0100
0001
0100
0001
0010
0001
0010
0100
0010
,
0100
1000
0001
0100
0010
0100
0001
1000
0100
0010
0001
1000
,
0010
0100
0001
0100
0010
1000
0100
0010
,
0001
1000
0001
1000
0100
1000
0010
0100
,
0001
0010
0001
0100
0010
1000
0100
0010
,
0001
1000
0100
1000
0010
0100
0010
1000
,
0001
0010
0001
0010
0100
0010
0100
0010
,
0001
1000
0010
1000
0100
0010
0100
1000
,
0001
0100
0010
1000
0010
0100
0001
1000
,
0001
0010
0100
1000
0001
0100
0010
1000
,
0001
0101
0100
0101
0001
0101
0100
0101
,
0001
0101
0100
0101
0001
0101
0100
0101
,
1000
1100
0100
1100
1000
1100
0100
1100
,
1000
1100
0100
1100
1000
1100
0100
1100
,
0001
1001
1000
1001
0001
1001
1000
1001
,
0001
1001
1000
1001
0001
1001
1000
1001
,
0010
0110
0100
0110
0010
0110
0100
0110
,
0010
0110
0100
0110
0010
0110
0100
0110
,
2002
0000
0000
0000
,
0000
0000
0000
0000
,
0000
0000
0000
0003
3020
0000
0000
0000
0000
0000
0000
0000
0030
0000
0000
0000
;

//---------------dance-single - Copied from Copied f----------------
#NOTES:
     dance-single:
     Copied from Copied f:
     Hard:
     10:
     1.000,1.000,0.375,0.104,1.000,2398.000,108.000,30.000,0.000,0.000:
1000
0000
0001
0000
0100
0010
1000
0010
,
0100
0001
1000
0100
,
0001
0000
1000
0000
0010
0100
0001
0100
,
0010
0000
1000
0000
0001
0000
0100
0010
,
1000
0000
1100
0010
0000
0001
0100
0001
,
0010
0100
1001
0010
,
0120
1030
0102
0013
,
1100
0000
0001
0000
0101
0000
0100
0001
,
0010
0000
0110
0000
1000
0001
0010
0200
,
1000
0001
1300
0110
,
0101
0010
0100
1000
,
1001
0010
1000
0001
,
0100
1000
0100
0010
,
1001
0100
0010
0001
,
1100
0010
0101
0010
,
1001
0000
0110
0000
,
1001
0100
1000
0010
0100
0001
1000
0100
1000
0010
0100
0001
,
1000
0100
1000
0001
0010
0001
1000
0100
1000
0001
0010
0001
,
1000
0010
1000
0001
0100
0001
1000
0010
1000
0001
0100
0001
,
1000
0100
0010
0001
0100
0001
1000
0010
0100
0001
0010
0001
,
1000
0100
1000
0010
0100
0010
1000
0100
1000
0010
0100
0001
,
1000
0100
0010
0001
0100
0001
1000
0010
0100
0001
0100
0001
,
0010
0100
0010
0001
0100
0001
0010
0100
0010
0001
0100
0001
,
1000
0010
0100
0001
0010
0100
1000
0010
0100
0001
0010
0001
,
1000
0100
1000
0010
0100
0001
1000
0100
1000
0010
0100
0001
,
1000
0100
1000
0001
0010
0001
0100
0001
0100
0010
1000
0010
,
0100
0001
0100
0010
1000
0100
0010
0001
0010
0001
0100
0010
,
1000
0100
1000
0001
0100
0001
1000
0010
1000
0001
0010
0001
,
0100
0010
0100
0001
0010
0001
0100
0010
0100
0001
0010
0001
,
1000
0100
1000
0010
0100
0010
1000
0100
1000
0010
0100
0010
,
1000
0100
0001
0100
1000
0100
1000
0010
0100
0001
0010
0001
,
1000
0100
0010
0100
1000
0010
0100
0001
0010
0100
0010
0001
,
1000
0100
0010
0001
0100
0100
0010
1000
,
0101
0000
0000
0000
1100
0000
0000
0000
0011
0000
0010
0000
0100
0010
0001
0000
,
0100
0100
0010
1000
0100
0100
0010
0001
,
1000
0000
1000
0000
0010
0000
0100
0000
0001
0000
0001
0000
1000
0010
1000
0000
,
0100
0100
1000
0001
0010
0010
0001
0100
,
1001
0001
0010
0001
1000
0100
0001
0100
,
1010
0000
0100
0001
0011
0000
0100
1000
,
0010
0000
1000
0000
0001
0000
1000
0000
0100
0010
0100
0000
1000
0001
0100
0010
,
1000
0100
0010
0001
0100
0010
1000
0001
,
0101
0000
0000
0000
1100
0000
0000
0000
0110
0000
0000
0000
1000
0100
0010
0000
,
0001
0001
0100
0010
1000
1000
0100
0010
,
0001
0000
0100
0000
1000
0000
0100
0000
0001
0000
0010
0000
0100
1000
0100
1000
,
0010
0100
0001
1000
0010
0100
0001
0010
,
0100
0100
1000
0001
0100
0100
1001
0000
,
0011
1100
1010
0101
,
0001
0000
0010
0000
0001
0000
1000
0000
0010
0100
0010
0000
1000
0001
1000
0001
,
0010
0000
0100
1000
0001
0100
1000
0100
,
0001
0000
1000
1000
0100
0000
0001
0001
,
0100
0000
0010
1000
0001
0010
1000
0010
,
0001
0000
0100
0100
0010
0000
1000
1000
,
0100
0000
0010
0001
1000
0100
0001
0100
,
1100
0010
0101
0010
,
1001
0100
0010
0001
0100
0100
0001
1000
,
0110
1000
0001
0010
0100
0100
1000
0001
,
1001
0000
0101
0000
0010
1000
0001
0000
,
1000
0100
1000
0010
0100
0100
0001
0000
,
1100
0000
1010
0100
0010
0100
0001
0000
,
1000
0100
0001
0100
1000
0010
0100
0000
,
0101
0000
1000
0000
0001
0001
0010
0000
,
1100
0000
0001
0000
0100
0100
0010
0000
,
0001
0100
1000
0001
0010
1000
0100
0010
,
0001
0000
1000
0000
0100
0000
1000
0000
0001
0000
1000
0000
0010
0100
0010
0000
,
1001
0100
1000
0010
0100
0001
1000
0010
,
2000
0100
3100
2000
0001
3001
0100
0010
,
1000
0001
0010
0001
1000
0010
0100
0010
,
2000
0001
3001
0200
0010
0310
1000
0100
,
0010
0001
0010
0001
0100
1000
0100
1000
,
0100
0010
0100
0010
1000
0100
0010
0001
,
1000
0100
1000
0010
1000
0100
1000
0001
,
0010
0000
0100
0000
0010
0000
0001
0000
1000
0000
0100
0000
0010
0001
0100
0001
,
0010
0100
1000
0010
0100
0001
1000
0010
,
0200
0001
0301
2000
0010
3010
0100
0010
,
1000
0001
0010
0001
1000
0010
0100
0001
,
2000
0100
3100
0020
0100
0130
1000
0001
,
0100
1000
0001
0010
1000
0100
0010
0100
,
0001
0100
1000
0100
1000
0010
0001
0010
,
1001
0100
0001
0100
0001
0010
0001
1000
,
0100
0010
0100
1000
0001
0100
0010
2000
,
0000
0000
0000
3000
0001
0000
0010
0000
0001
0000
0100
0000
0010
0000
1000
0000
,
0100
0010
0100
0010
0001
1000
0001
1000
,
0100
0010
0100
0010
0001
0010
0100
0010
,
0100
1000
0100
1000
0001
0010
0100
0010
,
0001
0100
1000
0100
0001
0010
0001
0100
,
1000
0100
0010
0100
0001
1000
0010
0100
,
0001
1000
0001
1000
0100
1000
0010
0010
,
1000
0001
1000
0001
0100
0010
1000
0100
,
1000
0010
0001
1000
0100
0001
0010
0001
,
1000
0100
0001
1000
0010
0001
0100
0010
,
2200
3300
0101
0001
0011
0001
0101
0010
,
1100
1000
0101
0000
0011
0010
1100
0000
,
1001
0000
0010
0100
0001
0001
0010
0000
,
0100
0000
1000
0000
0010
0000
0100
0000
0001
0000
1000
0100
0010
0001
0100
0010
,
1000
0001
0100
0010
1000
0001
0100
0010
1000
0001
1000
0001
1000
0001
1000
0001
,
1000
0001
1000
0001
0200
0000
0000
0000
0010
0000
0000
0000
0310
0000
0000
0000
,
1001
0001
0100
0001
1000
1000
0010
0100
,
0001
0010
0100
0010
1000
0010
0001
0100
,
1000
1000
0100
0001
0010
0010
0100
1000
,
0001
0010
0001
0100
0001
1000
0010
0100
,
1001
0000
1100
0100
0010
1000
0010
0100
,
1000
0010
0001
0010
1000
0100
0001
0100
,
1000
0010
0100
0001
0010
0100
1000
0001
,
0100
0000
0100
0000
0110
0000
0010
0000
1000
0100
0010
0001
0010
0100
1000
0000
,
0001
0100
0001
0100
0001
0100
0001
0010
0001
0010
0001
0010
,
0100
1000
0100
1000
0100
1000
0010
0100
0010
0100
0010
0100
,
0001
1000
0001
1000
0001
1000
0010
1000
0010
1000
0010
1000
,
0001
0100
0001
0100
0001
0100
0001
0010
0001
0010
0001
0010
,
0100
1000
0100
1000
0100
1000
0001
1000
0001
1000
0001
1000
,
0001
0100
0001
0100
0001
0100
0010
0100
0010
0100
0010
0100
,
0001
0010
0001
0010
0001
0010
0100
1000
0100
1000
0100
1000
,
0010
0100
0001
0000
0010
0100
0010
0000
0001
1000
0100
1000
0010
0100
0001
0000
,
1000
0100
0010
0001
0100
0001
1000
0010
0100
0001
0010
0001
,
1000
0100
1000
0001
0010
0001
1000
0100
1000
0001
0010
0001
,
1000
0010
0100
0001
1000
0100
1000
0010
0100
0001
1000
0100
,
0010
0001
1000
0100
1000
0010
0100
0001
1000
0010
0100
0001
,
1000
0100
1000
0010
0100
0010
1000
0100
1000
0010
0100
0010
,
1000
0100
1000
0001
0010
0001
1000
0100
1000
0001
0010
0001
,
0100
0010
0100
0001
1000
0001
0100
0010
0100
0001
1000
0001
,
0010
0100
1000
0010
0100
0001
1000
0100
1000
0010
0100
0001
,
1000
0100
0001
0100
1000
0100
0010
0001
0100
0010
1000
0010
,
0100
0001
0010
0100
1000
0100
0010
0001
1000
0010
0100
0001
,
1000
0010
0001
0010
0100
0010
1000
0100
0001
0100
1000
0010
,
0100
0001
0100
0010
1000
0010
0100
0001
0100
0010
1000
0010
,
0100
0001
0010
0100
1000
0001
0100
0010
0100
0001
1000
0100
,
0010
0001
0010
0001
0100
0001
1000
0010
1000
0100
1000
0100
,
0010
0001
1000
0010
0100
0001
1000
0100
0010
0001
0100
0010
,
1000
0100
1000
0001
0100
0001
1000
0010
1000
0001
0010
0100
,
1000
0100
0001
0100
1000
0010
0100
0000
,
1010
0000
0000
0000
0000
0000
0110
0000
0000
0000
0000
0000
0000
0000
0000
0000
1001
0000
0000
0000
0000
0000
0000
0000
0000
0000
0000
0011
0000
0000
0000
0000
0000
0110
0000
0000
0000
0000
0000
0000
0000
0000
0000
0000
0000
0000
0000
0000
,
1001
0100
1000
0100
0001
1000
0010
0100
,
0001
1000
0010
0100
,
0001
0010
0100
1000
0010
0100
0001
0000
,
1000
0100
0001
0100
1000
0010
0001
0000
,
0110
1000
0110
0001
,
0001
0100
0001
1000
0001
0100
0001
1000
,
1001
0100
0010
1000
0100
0100
0010
0001
,
0101
0000
0000
0000
1100
0000
0000
0000
0011
0000
0010
0000
0100
0010
0001
0000
,
0100
0100
0010
1000
0100
0100
0010
0001
,
1000
0000
1000
0000
0010
0000
0100
0000
0001
0000
0001
0000
1000
0010
1000
0000
,
0001
0001
1000
0010
0100
0100
0001
1000
,
1001
0001
0010
0001
1000
0100
0001
0100
,
1010
0000
0100
0001
0011
0000
0100
1000
,
0010
0000
1000
0000
0001
0000
1000
0000
0100
0010
0100
0000
1000
0001
0100
0010
,
1000
0100
0010
0001
0100
0010
1000
0001
,
0101
0000
0000
0000
1100
0000
0000
0000
0110
0000
0000
0000
0010
1000
0010
0000
,
0100
0100
0001
1000
0010
0010
0100
0001
,
1000
0000
0100
0000
0001
0000
0100
0000
1000
0000
0010
0000
0100
0001
0100
0001
,
0010
0100
1000
1000
0010
0100
0001
0010
,
0100
0100
1000
0001
0100
0100
1001
0001
,
0011
1100
1010
0101
,
0001
0000
0010
0000
0001
0000
1000
0000
0010
0100
0010
0000
1000
0001
1000
0001
,
0010
0000
0100
1000
0001
0100
1000
0100
,
0001
0000
1000
1000
0010
0000
0001
0001
,
0100
0000
0010
1000
0001
0010
1000
0010
,
0001
0100
0010
0010
1000
0001
0100
0010
,
1000
0000
0100
0010
0001
1000
0100
0010
,
0011
0100
1001
0010
,
1010
0100
0010
0001
1000
1000
0010
0100
,
1001
0010
0100
1000
0010
0010
1000
0001
,
1001
0000
0101
0000
0010
1000
0001
0000
,
1000
0100
1000
0010
0100
0100
0001
0000
,
1100
0000
0101
0000
0010
1000
0001
0000
,
1000
0100
0001
0100
1000
0010
0100
0000
,
0101
0000
1000
0000
0001
0001
0010
0000
,
1100
0000
0001
0000
0100
0100
0010
0000
,
0100
1000
0001
0010
1000
0001
0100
0010
,
1000
0000
0100
0000
1000
0000
0001
0000
0100
0000
1000
0000
0100
0001
0100
0000
,
1001
0100
1000
0010
0100
0001
1000
0010
,
2000
0100
3100
2000
0001
3001
0100
0010
,
1000
0001
0010
0001
1000
0010
0100
0010
,
2000
0010
3010
0200
0001
0301
1000
0100
,
0010
0001
1000
0001
0100
1000
0100
0010
,
1000
0001
1000
0001
0100
0010
1000
0001
,
0100
1000
0100
0010
0100
1000
0100
0001
,
0010
0000
0100
0000
0010
0000
0001
0000
1000
0000
0100
0000
0010
0001
0100
0001
,
0010
0100
1000
0010
0100
0001
1000
0010
,
0200
0001
0301
2000
0010
3010
0100
0010
,
1000
0001
0010
0001
1000
0010
0100
0001
,
2000
0100
3100
0020
0001
0031
1000
0010
,
0100
1000
0001
0010
1000
0100
0010
0100
,
0001
0100
1000
0100
1000
0010
0001
0010
,
1001
0100
0001
0100
0001
0010
0001
1000
,
0100
0010
0100
1000
0001
0100
0010
0200
,
0000
0300
1001
0010
0001
0100
0010
1000
,
0100
0010
0100
0010
0001
1000
0001
1000
,
0100
0010
0100
0010
0001
0010
0100
0010
,
0100
1000
0100
1000
0001
0010
0100
0010
,
0001
0100
1000
0100
0001
0010
0001
0100
,
1000
0100
0010
0100
0001
1000
0010
0100
,
0001
1000
0001
1000
0100
1000
0010
0010
,
1000
0001
1000
0001
0100
0010
1000
0100
,
1000
0010
0001
1000
0100
0001
0010
0001
,
1000
0100
0001
1000
0010
0001
0100
0010
,
2200
3300
1001
1000
1010
1000
0101
0010
,
1010
1000
0100
0000
0011
0001
0100
0000
,
1001
0000
0010
0100
0001
0001
0010
0000
,
0100
0000
1000
0000
0010
0000
0100
0000
0001
0000
0001
0010
0100
1000
0010
0100
,
0001
1000
0010
0100
0001
1000
0010
0100
0001
1000
0001
1000
0001
1000
0001
1000
,
0001
1000
0001
1000
0020
0000
0000
0000
0100
0000
0000
0000
0130
0000
0000
0000
,
1001
0001
0100
0001
1000
1000
0010
0100
,
0001
0010
0100
0010
1000
0010
0001
0100
,
1000
1000
0100
0001
0010
0010
0100
1000
,
0001
0010
0001
0100
0001
1000
0010
0100
,
1001
0000
0101
0001
1000
0100
0010
1000
,
0010
0100
1000
0010
1000
0100
0001
0100
,
1000
0010
0100
0001
0010
0100
0001
0100
,
1000
0000
0001
0000
1001
0000
0100
0000
0001
0010
0100
1000
0100
0010
0001
0000
,
1000
0100
1000
0100
1000
0100
1000
0010
1000
0010
1000
0010
,
0100
0001
0100
0001
0100
0001
0010
0100
0010
0100
0010
0100
,
1000
0001
1000
0001
1000
0001
0010
0001
0010
0001
0010
0001
,
1000
0100
1000
0100
1000
0100
1000
0010
1000
0010
1000
0010
,
0100
0001
0100
0001
0100
0001
1000
0001
1000
0001
1000
0001
,
1000
0100
1000
0100
1000
0100
0010
0100
0010
0100
0010
0100
,
1000
0010
1000
0010
1000
0010
0100
0001
0100
0001
0100
0001
,
0010
0100
1000
0010
0100
0001
0010
0100
1000
0001
1000
0001
0100
0001
0100
0001
,
1000
0010
0100
1000
0100
0010
1000
0001
0010
0100
0010
0001
,
1000
0100
1000
0001
0010
0001
1000
0100
1000
0001
0010
0001
,
1000
0001
0100
0010
1000
0001
0100
0010
1000
0001
0100
0001
,
0010
1000
0010
0001
0100
0001
0010
1000
0010
0001
0100
0001
,
1000
0100
1000
0010
0100
0010
1000
0100
1000
0010
0100
0010
,
1000
0100
1000
0001
0010
0001
1000
0100
1000
0001
0010
0001
,
0100
0010
0100
0001
1000
0001
0100
0010
0100
0001
1000
0001
,
0010
0100
1000
0010
0100
0001
1000
0100
1000
0010
0100
0001
,
1000
0100
0001
0100
1000
0100
0010
0001
0100
0010
1000
0010
,
0100
0001
0010
0100
1000
0100
0010
0001
1000
0010
0100
0001
,
1000
0010
0001
0010
0100
0010
1000
0100
0001
0100
1000
0010
,
0100
0001
0100
0010
1000
0010
0100
0001
0100
0010
1000
0010
,
0100
0001
0010
0100
1000
0001
0100
0010
0100
0001
1000
0100
,
0010
0001
0010
0001
0100
0001
1000
0010
1000
0100
1000
0100
,
0010
0001
1000
0010
0100
0001
1000
0100
0010
0001
0100
0010
,
1000
0100
1000
0001
0100
0001
1000
0010
1000
0001
0010
0100
,
0010
0001
0010
0100
1000
0100
0010
0001
0010
0100
1000
0100
,
0010
0001
0010
0100
1000
0100
0010
0001
0010
0100
1000
0100
,
0010
0001
0100
0010
1000
0010
0100
0001
0010
0100
1000
0100
,
1000
0001
1000
0010
0100
0010
1000
0001
1000
0010
0100
0001
,
1000
0010
0001
0010
1000
0010
0001
0010
1000
0001
0010
0001
,
1000
0100
0010
1000
0010
0100
1000
0010
0100
0001
0010
0100
,
0010
0001
0100
0010
0001
0010
1000
0100
0001
0100
1000
0010
,
0100
0001
0100
0010
1000
0010
0100
0001
0100
0010
1000
0010
,
0100
0001
0010
0100
1000
0010
0100
0001
0010
0100
1000
0010
,
0100
0001
0100
0001
0010
0001
1000
0100
1000
0010
1000
0010
,
0100
0001
1000
0010
0100
0001
1000
0100
1000
0010
1000
0001
,
0100
0010
1000
0010
0100
0001
1000
0100
1000
0010
0100
0001
,
1000
0010
1000
0001
0100
0001
0010
0001
0010
0100
1000
0100
,
1000
0010
0001
0010
1000
0100
0010
0001
0010
0100
1000
0010
,
0001
0010
1000
0001
0100
1000
0001
0010
1000
0001
0100
1000
,
0100
0001
1000
0010
0100
0010
1000
0001
0010
0100
1000
0001
,
0100
0010
1000
0010
0101
0000
1100
0000
,
0001
1000
0001
1000
0010
0100
0001
0010
,
0100
1000
0100
1000
0001
0010
0100
1000
,
0010
0000
0100
0000
0001
0000
0010
0000
0100
0000
1000
0000
0001
0100
0001
0010
,
0100
0000
1100
0000
0001
0100
0101
0000
,
1000
0000
0011
0100
1000
0001
0110
0000
,
1000
0001
0010
0001
0100
0100
0010
1000
,
0001
0000
0000
0001
0000
0000
1000
0000
0000
1000
0000
0000
0010
0000
0100
0000
0001
0000
1000
0000
0100
0000
1000
0000
,
0010
0100
0010
0100
0010
0100
0010
0100
0010
0100
0010
0100
0010
0100
0010
0100
,
0010
0100
0010
0100
0010
0100
0010
0100
0010
0100
0010
0100
0010
0100
0010
0100
,
0010
0100
0010
0100
0010
0100
0010
0100
0010
0100
0010
0100
0010
0100
0010
0100
,
0010
0100
0010
0100
0010
0100
0010
0100
0010
0100
0010
0100
0001
1000
0001
1000
,
0100
0010
0100
0010
0100
0010
0100
0010
0100
0010
0100
0010
0100
0010
0100
0010
,
0100
0010
0100
0010
0100
0010
0100
0010
0100
0010
0100
0010
0100
0010
0100
0010
,
0100
0010
0100
0010
0100
0010
0100
0010
0100
0010
0100
0010
0100
0010
0100
0010
,
0100
0010
0100
0010
0100
0010
0100
0010
0100
0010
0100
0010
0001
0100
0010
2000
,
0002
0000
0000
0000
,
0000
0000
0000
0000
,
0000
0000
0000
3000
0203
0000
0000
0000
0000
0000
0000
0000
0000
0000
0000
0000
,
0000
0000
0300
0000
;
