#TITLE:Quasar;
#SUBTITLE:;
#ARTIST:OutPhase;
#TITLETRANSLIT:;
#SUBTITLETRANSLIT:;
#ARTISTTRANSLIT:;
#CREDIT:;
#BANNER:Quasar_banner.jpg;
#BACKGROUND:Quasar.jpg;
#LYRICSPATH:;
#CDTITLE:bannerBBK.png;
#MUSIC:Quasar.mp3;
#OFFSET:-0.140;
#SAMPLESTART:38.710;
#SAMPLELENGTH:12.000;
#SELECTABLE:YES;
#DISPLAYBPM:*;
#BPMS:0.000=155.000,20.000=-38.760,24.000=310.000,60.000=-38.760,64.000=310.000,100.000=-38.760,104.000=310.000,136.000=155.000,148.000=-38.760,152.000=310.000,188.000=-38.760,192.000=310.000,229.000=-38.760,233.000=310.000,264.000=155.000,338.500=620.000,339.000=310.000,339.500=155.000,340.000=-38.760,344.000=310.000,380.000=-38.760,384.000=310.000,421.000=-38.760,425.000=310.000,461.000=-38.760,465.000=310.000,501.000=-38.760,505.000=310.000,541.000=-38.760,545.000=310.001,581.000=-38.759,585.000=310.001,621.000=-38.759,625.000=310.001,661.000=-38.759,665.000=310.001,701.000=-38.759,705.000=310.000,741.000=-38.760,745.000=310.001,781.000=-38.760,785.000=310.000,821.000=-38.760,825.000=310.001,861.000=-38.759,865.000=310.001,901.000=-38.739,905.000=310.000,941.000=-38.760,945.000=310.000,979.000=155.000;
#STOPS:;
#BGCHANGES:;
// cache tags:
#FIRSTBEAT:3.000;
#LASTBEAT:1144.000;
#SONGFILENAME:Songs/new cc/quasar.3/Quasar.sm;
#HASMUSIC:1;
#HASBANNER:1;
#MUSICLENGTH:126.281;
// end cache tags

//---------------dance-single - ----------------
#NOTES:
     dance-single:
     :
     Hard:
     13:
     0.854,1.000,0.467,0.055,1.000,689.000,59.000,7.000,796.000,0.000:
0000
0000
0000
0000
,
1001
1000
1000
1000
,
1001
0001
0001
0001
,
0101
0100
0100
0100
,
0110
0010
0010
0010
,
1100
MMMM
MMMM
MMMM
MMMM
MMMM
MMMM
MMMM
,
MMMM
0000
0000
0000
,
0000
0000
0000
0000
,
0000
0000
0000
0000
,
0000
0000
0000
0000
,
0000
0000
0000
0000
,
0000
0000
0000
0000
,
0000
0000
0000
0000
,
0000
0000
0000
0000
,
MM00
0000
0000
0000
,
1001
MMMM
MMMM
MMMM
MMMM
MMMM
MMMM
MMMM
,
MMMM
0000
0000
0000
,
0000
0000
0000
0000
,
0000
0000
0000
0000
,
0000
0000
0000
0000
,
0000
0000
0000
0000
,
0000
0000
0000
0000
,
0000
0000
0000
0000
,
0000
0000
0000
0000
,
M00M
0000
0000
0000
,
1100
MMMM
MMMM
MMMM
MMMM
MMMM
MMMM
MMMM
,
MMMM
0000
0000
0000
,
0000
0000
0000
0000
,
0000
0000
0000
0000
,
0000
0000
0000
0000
,
0000
0000
0000
0000
,
0000
0000
0000
0000
,
0000
0000
0000
0000
,
0000
0000
0000
0000
,
MM10
0001
0010
0100
,
M01M
0100
0010
0001
,
MM10
0010
0100
1000
,
1001
MMMM
MMMM
MMMM
MMMM
MMMM
MMMM
MMMM
,
MMMM
0000
0000
0000
,
0000
0000
0000
0000
,
0000
0000
0000
0000
,
0000
0000
0000
0000
,
0000
0000
0000
0000
,
0000
0000
0000
0000
,
0000
0000
0000
0000
,
0000
0000
0000
0000
,
M00M
0000
0000
0000
,
0101
MMMM
MMMM
MMMM
MMMM
MMMM
MMMM
MMMM
,
MMMM
0000
0000
0000
,
0000
0000
0000
0000
,
0000
0000
0000
0000
,
0000
0000
0000
0000
,
0000
0000
0000
0000
,
0000
0000
0000
0000
,
0000
0000
0000
0000
,
0000
0000
0000
0000
,
0M0M
0000
0000
0000
,
0000
0000
1001
MMMM
MMMM
MMMM
MMMM
MMMM
,
MMMM
MMMM
MMMM
0000
0000
0000
0000
0000
,
0000
0000
0000
0000
,
0000
0000
0000
0000
,
0000
0000
0000
0000
,
0000
0000
0000
0000
,
0000
0000
0000
0000
,
0000
0000
0000
0000
,
0000
0000
0000
0000
,
M01M
0100
0010
1000
,
0M1M
0000
1000
0000
0100
0010
0000
0010
,
0100
0000
0000
0000
1000
0000
0100
0000
0000
0000
0100
0010
0100
0000
0001
0000
,
1000
0100
0010
0001
0100
0000
0010
0000
0001
0010
0100
1000
0001
0000
0010
0000
,
0100
0010
0001
0010
1000
0000
0110
0000
0001
0000
0110
0000
1000
0000
0110
0000
,
0001
0010
0100
1000
0010
0000
0100
0000
1000
0000
0100
0000
0000
0000
0100
0000
,
1000
0000
1000
0100
0010
0001
0010
0100
,
0001
0010
0100
1000
0010
0000
0100
0000
1000
0100
0010
0001
1000
0000
0100
0000
,
0010
0100
1000
0100
0001
0000
0110
0000
1000
0000
0110
0000
0001
0000
0110
0000
,
1000
0100
0010
0001
0100
0000
0010
0000
0001
0000
0010
0000
0000
0000
0010
0000
,
0001
0000
0001
0010
0100
1000
0100
0010
,
0001
0010
0100
1000
0100
0010
0001
0010
1000
0000
0100
0000
0000
0000
0100
0000
,
0010
0000
0000
0000
0010
0000
0100
0000
0001
0010
0100
1000
0010
0000
0000
0000
,
0010
1000
0001
0100
0001
1000
0010
1000
0100
0000
0001
0000
0000
0000
0001
0000
,
1000
0000
0000
0000
1000
0000
0001
0000
0010
1000
0001
0100
1010
0000
0000
0000
,
0010
1000
0001
0100
0001
1000
0010
1000
0200
0000
0301
0000
0000
0000
0001
0000
,
1000
0000
0000
0000
1000
0000
0001
0000
0010
1000
0001
0100
2000
0000
3000
0000
,
1000
0100
0010
0001
0010
0100
1000
0100
0010
0001
1000
0100
0001
0010
0100
1000
,
0202
0000
0000
0303
,
0011
MMMM
MMMM
MMMM
MMMM
MMMM
MMMM
MMMM
,
MMMM
0000
0000
0000
,
0000
0000
0000
0000
,
0000
0000
0000
0000
,
0000
0000
0000
0000
,
0000
0000
0000
0000
,
0000
0000
0000
0000
,
0000
0000
0000
0000
,
0000
0000
0000
0000
,
00MM
0000
0000
0000
,
1010
MMMM
MMMM
MMMM
MMMM
MMMM
MMMM
MMMM
,
MMMM
0000
0000
0000
,
0000
0000
0000
0000
,
0000
0000
0000
0000
,
0000
0000
0000
0000
,
0000
0000
0000
0000
,
0000
0000
0000
0000
,
0000
0000
0000
0000
,
0000
0000
0000
0000
,
M0M0
0000
0000
0000
,
0000
0000
1010
MMMM
MMMM
MMMM
MMMM
MMMM
,
MMMM
MMMM
MMMM
0000
0000
0000
0000
0000
,
0000
0000
0000
0000
,
0000
0000
0000
0000
,
0000
0000
0000
0000
,
0000
0000
0000
0000
,
0000
0000
0000
0000
,
0000
0000
0000
0000
,
0000
0000
0000
0000
,
0000
M0M0
0000
0000
,
0000
0000
1100
MMMM
MMMM
MMMM
MMMM
MMMM
,
MMMM
MMMM
MMMM
0000
0000
0000
0000
0000
,
0000
0000
0000
0000
,
0000
0000
0000
0000
,
0000
0000
0000
0000
,
0000
0000
0000
0000
,
0000
0000
0000
0000
,
0000
0000
0000
0000
,
0000
0000
0000
0000
,
0000
MM00
0000
0000
,
0000
0000
0011
MMMM
MMMM
MMMM
MMMM
MMMM
,
MMMM
MMMM
MMMM
0000
0000
0000
0000
0000
,
0000
0000
0000
0000
,
0000
0000
0000
0000
,
0000
0000
0000
0000
,
0000
0000
0000
0000
,
0000
0000
0000
0000
,
0000
0000
0000
0000
,
0000
0000
0000
0000
,
0000
00MM
0000
0000
,
0000
0000
0110
MMMM
MMMM
MMMM
MMMM
MMMM
,
MMMM
MMMM
MMMM
0000
0000
0000
0000
0000
,
0000
0000
0000
0000
,
0000
0000
0000
0000
,
0000
0000
0000
0000
,
0000
0000
0000
0000
,
0000
0000
0000
0000
,
0000
0000
0000
0000
,
0000
0000
0000
0000
,
0000
0MM0
0000
0000
,
0000
0000
0011
MMMM
MMMM
MMMM
MMMM
MMMM
,
MMMM
MMMM
MMMM
0000
0000
0000
0000
0000
,
0000
0000
0000
0000
,
0000
0000
0000
0000
,
0000
0000
0000
0000
,
0000
0000
0000
0000
,
0000
0000
0000
0000
,
0000
0000
0000
0000
,
0000
0000
0000
0000
,
0000
00MM
0000
0000
,
0000
0000
1100
MMMM
MMMM
MMMM
MMMM
MMMM
,
MMMM
MMMM
MMMM
0000
0000
0000
0000
0000
,
0000
0000
0000
0000
,
0000
0000
0000
0000
,
0000
0000
0000
0000
,
0000
0000
0000
0000
,
0000
0000
0000
0000
,
0000
0000
0000
0000
,
0000
0000
0000
0000
,
0000
MM00
0000
0000
,
0000
0000
0110
MMMM
MMMM
MMMM
MMMM
MMMM
,
MMMM
MMMM
MMMM
0000
0000
0000
0000
0000
,
0000
0000
0000
0000
,
0000
0000
0000
0000
,
0000
0000
0000
0000
,
0000
0000
0000
0000
,
0000
0000
0000
0000
,
0000
0000
0000
0000
,
0000
0000
0000
0000
,
0000
0MM0
0000
0000
,
0000
0000
0011
MMMM
MMMM
MMMM
MMMM
MMMM
,
MMMM
MMMM
MMMM
0000
0000
0000
0000
0000
,
0000
0000
0000
0000
,
0000
0000
0000
0000
,
0000
0000
0000
0000
,
0000
0000
0000
0000
,
0000
0000
0000
0000
,
0000
0000
0000
0000
,
0000
0000
0000
0000
,
0000
00MM
0000
0000
,
0000
0000
1100
MMMM
MMMM
MMMM
MMMM
MMMM
,
MMMM
MMMM
MMMM
0000
0000
0000
0000
0000
,
0000
0000
0000
0000
,
0000
0000
0000
0000
,
0000
0000
0000
0000
,
0000
0000
0000
0000
,
0000
0000
0000
0000
,
0000
0000
0000
0000
,
0000
0000
0000
0000
,
0000
MM00
0000
0000
,
0000
0000
0101
MMMM
MMMM
MMMM
MMMM
MMMM
,
MMMM
MMMM
MMMM
0000
0000
0000
0000
0000
,
0000
0000
0000
0000
,
0000
0000
0000
0000
,
0000
0000
0000
0000
,
0000
0000
0000
0000
,
0000
0000
0000
0000
,
0000
0000
0000
0000
,
0000
0000
0000
0000
,
0000
0M0M
0000
0000
,
0000
0000
1100
MMMM
MMMM
MMMM
MMMM
MMMM
,
MMMM
MMMM
MMMM
0000
0000
0000
0000
0000
,
0000
0000
0000
0000
,
0000
0000
0000
0000
,
0000
0000
0000
0000
,
0000
0000
0000
0000
,
0000
0000
0000
0000
,
0000
0000
0000
0000
,
0000
0000
0000
0000
,
0000
MM00
0000
0000
,
0000
0000
0011
MMMM
MMMM
MMMM
MMMM
MMMM
,
MMMM
MMMM
MMMM
0000
0000
0000
0000
0000
,
0000
0000
0000
0000
,
0000
0000
0000
0000
,
0000
0000
0000
0000
,
0000
0000
0000
0000
,
0000
0000
0000
0000
,
0000
0000
0000
0000
,
0000
0000
0000
0000
,
0000
00MM
0000
0000
,
0000
0000
0101
MMMM
MMMM
MMMM
MMMM
MMMM
,
MMMM
MMMM
MMMM
0000
0000
0000
0000
0000
,
0000
0000
0000
0000
,
0000
0000
0000
0000
,
0000
0000
0000
0000
,
0000
0000
0000
0000
,
0000
0000
0000
0000
,
0000
0000
0000
0000
,
0000
0000
0000
0000
,
0000
0M0M
0000
0000
,
0000
0000
1100
MMMM
MMMM
MMMM
MMMM
MMMM
,
MMMM
MMMM
MMMM
0000
0000
0000
0000
0000
,
0000
0000
0000
0000
,
0000
0000
0000
0000
,
0000
0000
0000
0000
,
0000
0000
0000
0000
,
0000
0000
0000
0000
,
0000
0000
0000
0000
,
0000
0000
0000
0000
,
0000
MM00
0000
0000
,
1000
0100
1000
0010
0100
0010
0100
0010
1000
0100
1000
0001
0010
0100
1000
0100
,
1000
0100
1000
0010
0100
0010
0100
0010
1000
0100
1000
0001
0010
0100
1000
0100
,
1000
0100
1000
0010
0100
0010
0100
0010
1000
0100
1000
0001
0010
0100
1000
0100
,
0001
1000
0001
0010
0001
0010
0001
1000
0001
1000
0100
0010
0001
0100
0001
0010
,
0001
1000
0001
0010
0001
0010
0001
1000
0001
1000
0100
0010
0001
0100
0001
0010
,
0001
1000
0001
0010
0001
0010
0001
1000
0001
1000
0100
0010
0001
0100
0001
0010
,
0100
0001
0010
0100
1001
0010
1000
0100
0010
0001
1000
0001
0010
0100
1000
0010
,
0100
0001
0010
0100
1001
0010
1000
0100
0010
0001
1000
0001
0010
0100
1000
0010
,
0100
0001
0010
0100
1000
0000
0001
0000
0000
0000
0001
0000
1000
0000
0000
0000
,
1000
0100
0000
0100
0110
1001
0110
1001
,
0100
0001
0100
1000
0001
1000
0001
1000
0100
0001
0100
0010
1000
0001
0100
0001
,
0100
0001
0100
1000
0001
1000
0001
1000
0100
0001
0100
0010
1000
0001
0100
0001
,
0100
0001
0100
1000
0001
1000
0001
1000
0100
0001
0100
0010
1000
0001
0100
0001
,
0010
0100
0010
1000
0010
1000
0010
0100
0010
0100
0001
1000
0010
0001
0010
1000
,
0010
0100
0010
1000
0010
1000
0010
0100
0010
0100
0001
1000
0010
0001
0010
1000
,
0010
0100
0010
1000
0010
1000
0010
0100
0010
0100
0001
1000
0010
0001
0010
1000
,
0001
0010
1000
0001
0100
1000
0100
0001
1000
0010
0100
0010
1000
0001
0100
1000
,
0001
0010
1000
0001
0100
1000
0100
0001
1000
0010
0100
0010
1000
0001
0100
1000
,
0001
0010
1000
0001
0100
0000
0010
0000
0000
0000
0010
0000
0100
0000
0000
0000
,
0100
0001
0000
0001
1001
0110
1001
0110
,
0001
1000
0001
0010
1000
0010
1000
0010
0001
1000
0001
0100
0010
1000
0001
1000
,
0001
1000
0001
0010
1000
0010
1000
0010
0001
1000
0001
0100
0010
1000
0001
1000
,
0001
1000
0001
0010
1000
0010
1000
0010
0001
1000
0001
0100
0010
1000
0001
1000
,
0100
0001
0100
0010
0100
0010
0100
0001
0100
0001
1000
0010
0100
1000
0100
0010
,
0100
0001
0100
0010
0100
0010
0100
0001
0100
0001
1000
0010
0100
1000
0100
0010
,
0100
0001
0100
0010
0100
0010
0100
0001
0100
0001
1000
0010
0100
1000
0100
0010
,
1000
0100
0010
1000
0001
0010
0001
1000
0010
0100
0001
0100
0010
1000
0001
0010
,
1000
0100
0010
1000
0001
0010
0001
1000
0010
0100
0001
0100
0010
1000
0001
0010
,
1000
0100
0010
1000
0001
0000
0100
0000
0000
0000
0100
0000
0001
0000
0000
0000
,
0001
1000
0000
1000
1010
0101
1010
0101
,
0010
0100
0010
1000
0100
1000
0100
1000
0010
0100
0010
0001
1000
0100
0010
0100
,
0010
0100
0010
1000
0100
1000
0100
1000
0010
0100
0010
0001
1000
0100
0010
0100
,
0020
0000
0000
0000
,
0000
0000
0000
0030
,
11M0
000M
00M0
0M00
1001
0M00
00M0
000M
,
0011
000M
00M0
0M00
1001
0M00
00M0
0M00
,
1100
0M00
00M0
0M00
0101
M000
0M00
00M0
,
0110
00M0
0M00
M000
1010
000M
00M0
000M
,
0110
000M
00M0
000M
M000
0M00
M000
0MM0
,
00MM
1100
00M0
0M00
M000
0M00
00M0
M00M
,
0000
0022
0000
0000
0000
0000
0000
0000
,
0033
0000
0000
0000
;

//---------------dance-single - Copied from----------------
#NOTES:
     dance-single:
     Copied from:
     Challenge:
     13:
     1.000,1.000,1.000,0.364,1.000,1052.000,216.000,46.000,122.000,176.000:
0000
0000
0000
0000
0000
0000
0010
0100
,
1001
1000
1010
1000
,
0001
0010
0100
0010
0001
0000
0000
0000
0101
0000
0000
0000
0001
0000
0000
0000
,
0100
0010
0001
0010
0100
0000
0000
0000
0101
0000
0000
0000
0100
0000
0000
0000
,
0100
0010
0001
0010
1000
0000
0000
0000
1010
0000
0000
0000
1000
0000
0000
0000
,
MM00
1111
1111
1111
1111
1111
1111
1111
,
1111
0000
0000
0000
,
0000
0000
0000
0000
,
0000
0000
0000
0000
,
0000
0000
0000
0000
,
0000
0000
0000
0000
,
0000
0000
0000
0000
,
0000
0000
0000
0000
,
0000
0000
0000
0000
,
2200
0000
0000
3300
,
M00M
1111
1111
1111
1111
1111
1111
1111
,
1111
0000
0000
0000
,
0000
0000
0000
0000
,
0000
0000
0000
0000
,
0000
0000
0000
0000
,
0000
0000
0000
0000
,
0000
0000
0000
0000
,
0000
0000
0000
0000
,
0000
0000
0000
0000
,
2002
0000
0000
0000
0000
0000
0000
3003
,
MM00
1111
1111
1111
1111
1111
1111
1111
,
1111
0000
0000
0000
,
0000
0000
0000
0000
,
0000
0000
0000
0000
,
0000
0000
0000
0000
,
0000
0000
0000
0000
,
0000
0000
0000
0000
,
0000
0000
0000
0000
,
0000
0000
0000
0000
,
1100
0000
0000
0010
0001
0100
0010
0000
0010
0001
0010
0000
0100
0000
0000
0000
,
M10M
0000
0000
1000
0100
1000
0100
0000
0100
0001
0100
0000
0001
0000
0000
0000
,
MM10
0000
0000
0001
0010
0001
0010
0001
0100
0010
0100
0010
1000
0100
0000
0000
,
MM00
1111
1111
1111
1111
1111
1111
1111
,
1111
0000
0000
0000
,
0000
0000
0000
0000
,
0000
0000
0000
0000
,
0000
0000
0000
0000
,
0000
0000
0000
0000
,
0000
0000
0000
0000
,
0000
0000
0000
0000
,
0000
0000
0000
0000
,
2200
0000
0000
3300
,
0MM0
1111
1111
1111
1111
1111
1111
1111
,
1111
0000
0000
0000
,
0000
0000
0000
0000
,
0000
0000
0000
0000
,
0000
0000
0000
0000
,
0000
0000
0000
0000
,
0000
0000
0000
0000
,
0000
0000
0000
0000
,
0000
0000
0000
0000
,
0220
0000
0000
0330
,
0000
0000
0MM0
1111
1111
1111
1111
1111
,
1111
1111
1111
0000
0000
0000
0000
0000
,
0000
0000
0000
0000
,
0000
0000
0000
0000
,
0000
0000
0000
0000
,
0000
0000
0000
0000
,
0000
0000
0000
0000
,
0000
0000
0000
0000
,
0000
0000
0000
0000
,
1100
0000
0000
0010
0001
0100
0010
0000
0010
0001
0010
0000
0100
0000
0000
0000
,
M10M
0000
0000
1000
0100
1000
0100
0000
0100
0001
0100
0000
0001
0000
0000
0000
,
MM10
0000
0000
0001
0010
0001
0010
0001
0100
0010
0100
0010
1000
0100
0000
0000
,
0001
0010
0100
1000
0100
0010
0001
1000
0100
1000
0001
0010
0100
1000
0100
0010
,
0001
1000
0100
1000
0001
0010
0100
1000
0001
0010
0100
0001
0010
0100
1000
0100
,
0010
0100
1000
0100
0010
0001
0010
0100
0010
0001
0010
0100
1000
0100
0010
0001
,
1000
0100
0010
0001
0010
0100
1000
0001
0010
0001
1000
0100
0010
0001
0010
0100
,
1000
0001
0010
0001
1000
0100
0010
0001
1000
0100
0010
1000
0100
0010
0001
0010
,
0100
0010
0001
0010
0100
1000
0100
0010
0100
1000
0100
0010
0001
0010
0100
1000
,
0001
0010
0100
1000
0100
0010
0001
1000
0100
1000
0001
0010
0100
1000
0100
0010
,
0001
1000
0100
1000
0001
0010
0100
1000
0001
0010
0100
0001
0010
0100
1000
0100
,
0010
0100
1000
0100
0010
0001
0010
0100
0010
0001
0010
0100
1000
0100
0010
0001
,
1000
0100
0010
0001
0010
0100
1000
0001
0010
0001
1000
0100
0010
0001
0010
0100
,
1000
0001
0010
0001
1000
0100
0010
0001
1000
0100
0010
1000
0100
0010
0001
0010
,
0100
0010
0001
0010
0100
1000
0100
0010
0100
1000
0100
0010
0001
0010
0100
1000
,
0001
0010
0100
1000
0100
0010
0001
1000
0100
1000
0001
0010
0100
1000
0100
0010
,
0001
1000
0100
1000
0001
0010
0100
1000
0001
0010
0100
0001
0010
0100
1000
0100
,
0010
0100
1000
0100
0010
0001
0010
0100
0010
0001
0010
0100
1000
0100
0010
0001
,
1000
0100
0010
0001
2002
0000
0000
0000
0000
0000
0000
0000
0000
0000
3003
0000
,
M00M
1111
1111
1111
1111
1111
1111
1111
,
1111
0000
0000
0000
,
0000
0000
0000
0000
,
0000
0000
0000
0000
,
0000
0000
0000
0000
,
0000
0000
0000
0000
,
0000
0000
0000
0000
,
0000
0000
0000
0000
,
0000
0000
0000
0000
,
2002
0000
0000
3003
,
M0M0
1111
1111
1111
1111
1111
1111
1111
,
1111
0000
0000
0000
,
0000
0000
0000
0000
,
0000
0000
0000
0000
,
0000
0000
0000
0000
,
0000
0000
0000
0000
,
0000
0000
0000
0000
,
0000
0000
0000
0000
,
0000
0000
0000
0000
,
2020
0000
0000
0000
,
3030
0000
MM00
1111
1111
1111
1111
1111
,
1111
1111
1111
0000
0000
0000
0000
0000
,
0000
0000
0000
0000
,
0000
0000
0000
0000
,
0000
0000
0000
0000
,
0000
0000
0000
0000
,
0000
0000
0000
0000
,
0000
0000
0000
0000
,
0000
0000
0000
0000
,
0000
2200
0000
0000
,
3300
0000
0M0M
1111
1111
1111
1111
1111
,
1111
1111
1111
0000
0000
0000
0000
0000
,
0000
0000
0000
0000
,
0000
0000
0000
0000
,
0000
0000
0000
0000
,
0000
0000
0000
0000
,
0000
0000
0000
0000
,
0000
0000
0000
0000
,
0000
0000
0000
0000
,
0000
0202
0000
0000
,
0303
0000
00MM
1111
1111
1111
1111
1111
,
1111
1111
1111
0000
0000
0000
0000
0000
,
0000
0000
0000
0000
,
0000
0000
0000
0000
,
0000
0000
0000
0000
,
0000
0000
0000
0000
,
0000
0000
0000
0000
,
0000
0000
0000
0000
,
0000
0000
0000
0000
,
0000
0022
0000
0000
,
0033
0000
MM00
1111
1111
1111
1111
1111
,
1111
1111
1111
0000
0000
0000
0000
0000
,
0000
0000
0000
0000
,
0000
0000
0000
0000
,
0000
0000
0000
0000
,
0000
0000
0000
0000
,
0000
0000
0000
0000
,
0000
0000
0000
0000
,
0000
0000
0000
0000
,
0000
2200
0000
0000
,
3300
0000
0M0M
1111
1111
1111
1111
1111
,
1111
1111
1111
0000
0000
0000
0000
0000
,
0000
0000
0000
0000
,
0000
0000
0000
0000
,
0000
0000
0000
0000
,
0000
0000
0000
0000
,
0000
0000
0000
0000
,
0000
0000
0000
0000
,
0000
0000
0000
0000
,
0000
0202
0000
0000
,
0303
0000
MM00
1111
1111
1111
1111
1111
,
1111
1111
1111
0000
0000
0000
0000
0000
,
0000
0000
0000
0000
,
0000
0000
0000
0000
,
0000
0000
0000
0000
,
0000
0000
0000
0000
,
0000
0000
0000
0000
,
0000
0000
0000
0000
,
0000
0000
0000
0000
,
0000
2200
0000
0000
,
3300
0000
00MM
1111
1111
1111
1111
1111
,
1111
1111
1111
0000
0000
0000
0000
0000
,
0000
0000
0000
0000
,
0000
0000
0000
0000
,
0000
0000
0000
0000
,
0000
0000
0000
0000
,
0000
0000
0000
0000
,
0000
0000
0000
0000
,
0000
0000
0000
0000
,
0000
0022
0000
0000
,
0033
0000
0MM0
1111
1111
1111
1111
1111
,
1111
1111
1111
0000
0000
0000
0000
0000
,
0000
0000
0000
0000
,
0000
0000
0000
0000
,
0000
0000
0000
0000
,
0000
0000
0000
0000
,
0000
0000
0000
0000
,
0000
0000
0000
0000
,
0000
0000
0000
0000
,
0000
0220
0000
0000
,
0330
0000
MM00
1111
1111
1111
1111
1111
,
1111
1111
1111
0000
0000
0000
0000
0000
,
0000
0000
0000
0000
,
0000
0000
0000
0000
,
0000
0000
0000
0000
,
0000
0000
0000
0000
,
0000
0000
0000
0000
,
0000
0000
0000
0000
,
0000
0000
0000
0000
,
0000
2200
0000
0000
,
3300
0000
00MM
1111
1111
1111
1111
1111
,
1111
1111
1111
0000
0000
0000
0000
0000
,
0000
0000
0000
0000
,
0000
0000
0000
0000
,
0000
0000
0000
0000
,
0000
0000
0000
0000
,
0000
0000
0000
0000
,
0000
0000
0000
0000
,
0000
0000
0000
0000
,
0000
0022
0000
0000
,
0033
0000
0MM0
1111
1111
1111
1111
1111
,
1111
1111
1111
0000
0000
0000
0000
0000
,
0000
0000
0000
0000
,
0000
0000
0000
0000
,
0000
0000
0000
0000
,
0000
0000
0000
0000
,
0000
0000
0000
0000
,
0000
0000
0000
0000
,
0000
0000
0000
0000
,
0000
0220
0000
0000
,
0330
0000
00MM
1111
1111
1111
1111
1111
,
1111
1111
1111
0000
0000
0000
0000
0000
,
0000
0000
0000
0000
,
0000
0000
0000
0000
,
0000
0000
0000
0000
,
0000
0000
0000
0000
,
0000
0000
0000
0000
,
0000
0000
0000
0000
,
0000
0000
0000
0000
,
0000
0022
0000
0000
,
0033
0000
MM00
1111
1111
1111
1111
1111
,
1111
1111
1111
0000
0000
0000
0000
0000
,
0000
0000
0000
0000
,
0000
0000
0000
0000
,
0000
0000
0000
0000
,
0000
0000
0000
0000
,
0000
0000
0000
0000
,
0000
0000
0000
0000
,
0000
0000
0000
0000
,
0000
2200
0000
0000
,
3300
0000
M0M0
1111
1111
1111
1111
1111
,
1111
1111
1111
0000
0000
0000
0000
0000
,
0000
0000
0000
0000
,
0000
0000
0000
0000
,
0000
0000
0000
0000
,
0000
0000
0000
0000
,
0000
0000
0000
0000
,
0000
0000
0000
0000
,
0000
0000
0000
0000
,
0000
2020
0000
3030
,
1000
0100
1000
0100
1000
0001
1000
0100
1000
0100
1000
0100
0010
0001
0010
0100
,
1000
0100
1000
0100
1000
0001
1000
0100
1000
0100
1000
0100
0010
0001
0010
0100
,
1000
0100
1000
0100
1000
0001
1000
0100
1000
0100
1000
0100
0010
0001
0010
0100
,
1000
0001
0010
0100
1000
0100
0010
0001
0010
0100
1000
0100
0010
0001
0010
0100
,
1000
0100
0010
0001
1000
0001
0010
0100
1000
0001
1000
0100
0010
0001
0100
0001
,
1000
0001
0010
0100
1000
0100
0010
0001
0010
0100
1000
0100
0010
0001
0010
0100
,
1000
0100
0010
0001
1000
0001
0010
0100
1000
0001
1000
0100
0010
0001
0100
0001
,
1000
0001
0010
0100
1000
0100
0010
0001
0010
0100
1000
0100
0010
0001
0010
0100
,
1000
0100
0010
0001
1000
0001
0010
0100
1000
0001
1000
0100
0010
0001
0100
0001
,
0010
1000
0100
1000
0001
0010
0001
1000
0100
1000
0001
0010
0001
1000
0100
1000
,
0001
0010
0100
0010
0001
1000
0100
0010
0100
1000
0001
0010
0100
0010
0001
0010
,
0100
1000
0100
1000
0001
0010
0001
1000
0100
1000
0001
0010
0001
1000
0100
1000
,
0001
0010
0100
0010
0001
1000
0100
0010
0100
1000
0001
0010
0100
0010
0001
0010
,
0100
1000
0100
1000
0001
0010
0001
1000
0100
1000
0001
0010
0001
1000
0100
1000
,
0001
0010
0100
0010
0001
1000
0100
0010
0100
1000
0001
0010
0100
0010
0001
0010
,
0100
0001
0100
0001
0100
0010
0100
0001
0100
0001
0100
0001
1000
0010
1000
0001
,
0100
0001
0100
0001
0100
0010
0100
0001
0100
0001
0100
0001
1000
0010
1000
0001
,
0100
0001
0100
0001
0100
0010
0100
0001
0100
0001
0100
0001
1000
0010
1000
0001
,
0100
0010
1000
0001
0100
0001
1000
0010
1000
0001
0100
0001
1000
0010
1000
0001
,
0100
0001
1000
0010
0100
0010
1000
0001
0100
0010
0100
0001
1000
0010
0001
0010
,
0100
0010
1000
0001
0100
0001
1000
0010
1000
0001
0100
0001
1000
0010
1000
0001
,
0100
0001
1000
0010
0100
0010
1000
0001
0100
0010
0100
0001
1000
0010
0001
0010
,
0100
0010
1000
0001
0100
0001
1000
0010
1000
0001
0100
0001
1000
0010
1000
0001
,
0100
0001
1000
0010
0100
0010
1000
0001
0100
0010
0100
0001
1000
0010
0001
0010
,
1000
0100
0001
0100
0010
1000
0010
0100
0001
0100
0010
1000
0010
0100
0001
0100
,
0010
1000
0001
1000
0010
0100
0001
1000
0001
0100
0010
1000
0001
1000
0010
1000
,
0001
0100
0001
0100
0010
1000
0010
0100
0001
0100
0010
1000
0010
0100
0001
0100
,
0010
1000
0001
1000
0010
0100
0001
1000
0001
0100
0010
1000
0001
1000
0010
1000
,
0001
0100
0001
0100
0010
1000
0010
0100
0001
0100
0010
1000
0010
0100
0001
0100
,
0010
1000
0001
1000
0010
0100
0001
1000
0001
0100
0010
1000
0001
1000
0010
1000
,
0010
0001
0010
0001
0010
1000
0010
0001
0010
0001
0010
0001
0100
1000
0100
0001
,
0010
0001
0010
0001
0010
1000
0010
0001
0010
0001
0010
0001
0100
1000
0100
0001
,
2002
0000
0000
0000
,
0000
0000
0000
3003
,
M101
00M0
00M0
0M00
M000
0M00
000M
000M
0110
0000
000M
000M
M000
00M0
00M0
0000
,
1010
0000
00M0
00M0
M000
000M
000M
0000
0110
0000
000M
000M
M000
000M
000M
0000
,
0101
0000
000M
000M
M000
000M
000M
0000
0011
0000
0M00
0M00
000M
0000
M000
M000
,
1001
0000
M000
M000
000M
0000
0M00
0M00
1100
0000
00M0
00M0
M000
0000
00M0
00M0
,
1001
0000
00M0
00M0
M000
0000
00M0
00M0
0M00
0000
000M
000M
0M00
0000
M00M
M00M
,
M0M0
0000
0101
0000
M000
M000
000M
000M
0M00
0M00
000M
000M
M000
M000
0MM0
0000
,
0000
2020
0000
0000
0000
0000
0000
0000
,
3030
0000
0000
0000
;
