#TITLE:Umbrella;
#SUBTITLE:[ChipCore RMX];
#ARTIST:electronicMESS;
#TITLETRANSLIT:;
#SUBTITLETRANSLIT:;
#ARTISTTRANSLIT:;
#CREDIT:;
#BANNER:umbrella bn.png;
#BACKGROUND:umbrella bg.png;
#LYRICSPATH:;
#CDTITLE:;
#MUSIC:umbrella.ogg;
#OFFSET:-0.022;
#SAMPLESTART:27.428;
#SAMPLELENGTH:12.000;
#SELECTABLE:YES;
#DISPLAYBPM:219.000;
#BPMS:0.000=219.000,512.000=109.000;
#STOPS:;
#BGCHANGES:;
// cache tags:
#FIRSTBEAT:0.000;
#LASTBEAT:517.000;
#SONGFILENAME:Songs/SSSC Pack 2/Umbrella (ChipCore RMX) - [Xynn]/sm.sm;
#HASMUSIC:1;
#HASBANNER:0;
#MUSICLENGTH:105.000;
// end cache tags

//---------------dance-single - ]Xynn[----------------
#NOTES:
     dance-single:
     ]Xynn[:
     Challenge:
     13:
     1.000,1.000,0.286,1.000,1.000,1178.000,30.000,195.000,60.000,0.000:

0002
0000
0000
2000
0003
0000
0002
3000
0000
2000
0003
0000
0002
3000
0000
2000
0003
0000
0002
3000
0000
2000
0003
0000
,
0002
3000
0000
2000
0003
0000
0002
3000
0000
2000
0003
0000
0002
3000
0000
2000
0003
0000
0002
3000
0000
2000
0003
0000
,
0002
3000
0000
2000
0003
0000
0002
3000
0000
2000
0003
0000
0M02
3000
0000
2000
0003
0000
0002
3000
0000
2000
0003
0000
,
0002
3000
0000
2000
0003
0000
0002
3000
0000
2000
0003
0000
0002
3000
0000
2000
0003
0000
0002
3000
0000
2000
0003
0000
,
0002
3000
0000
2000
0003
0000
0002
3000
0000
2000
0003
0000
0002
3000
0000
2000
0003
0000
0002
3000
0000
2000
0003
0000
,
0002
3000
0000
2000
0003
0000
0002
3000
0000
2000
0003
0000
0M02
3000
0000
2000
0003
0000
0002
3000
0000
2000
0003
0000
,
00M2
3000
0000
2000
0003
0000
0002
3000
0000
2000
0003
0000
0002
3000
0000
2000
0003
0000
0002
3000
0000
2000
0003
0000
,
0002
3000
0000
2000
0003
0000
0002
3000
0000
2000
0003
0000
0002
3000
0000
2000
0003
0000
0002
3000
0000
2000
0003
0000
,
3001
0010
0100
0010
0001
0010
0100
1000
,
0001
0100
0010
0100
0010
1000
0001
1000
,
0001
0010
0100
1000
0001
1000
0010
0100
,
0001
0000
1000
0000
0100
0000
0010
0000
0001
0010
0100
0010
0100
0000
0010
0000
,
0001
1000
0010
0100
0010
1000
0001
1000
,
0001
0010
0100
1000
0001
0010
0100
0010
,
0001
0000
1000
0000
0001
0000
0100
0001
0100
0000
0001
1000
0001
0000
0010
0000
,
0100
1000
0001
1000
0010
0100
0001
0100
,
00M2
1003
0001
0010
0001
0100
0010
1000
,
00M1
0000
0000
0M10
0000
0000
M100
0000
0000
1000
0000
0000
0001
0000
0000
0010
0000
0000
010M
0000
00M0
1000
000M
0000
,
0010
0100
0010
0100
0001
1000
0M10
0100
,
0001
0000
1000
0000
0100
0000
0010
0000
0001
0010
0001
0010
0100
0000
10M0
0000
,
0M01
1000
0001
1000
0010
0100
0001
10M0
,
0001
0M10
0100
1000
0010
0100
M001
1000
,
0100
0000
0010
0000
0001
0000
1000
0001
1000
0000
0001
0100
0001
0000
0100
0000
,
0010
0100
0001
0100
0001
1000
0100
0010
,
0M02
0013
0001
0010
0100
0010
010M
1000
,
00M1
0000
0000
0M10
0000
0000
M100
0000
0000
1000
0000
0000
0001
0000
0000
0010
0000
0000
010M
0000
00M0
1000
000M
0000
,
0001
0100
0001
0100
0010
1000
0M01
01M0
,
0010
0000
1000
0000
0001
0000
1000
0000
0001
1000
0001
1000
0100
0000
M010
0000
,
0M01
1000
0001
1000
0010
0100
0001
10M0
,
0001
M010
0100
1000
0001
0010
010M
0010
,
0001
0000
1000
0000
0100
0000
0010
0100
0010
0000
0100
1000
0100
0000
1000
0000
,
0010
1000
0001
1000
0010
0100
0001
1000
,
2002
3003
0101
0000
1010
0010
1000
1100
,
0000
0000
0000
0000
0000
0000
0100
0000
0000
0000
0000
0000
0100
0000
0000
0000
0000
0000
0010
0000
0000
0100
0000
0000
1000
0000
0000
0000
0000
0000
0000
0000
0000
0000
0000
0000
0001
0000
0000
0000
0100
0000
0000
0000
0010
0000
0000
0000
,
0100
0100
0100
0M00
0110
0100
0000
0100
,
0000
0000
0100
0000
0000
0000
0100
0000
0101
0000
0001
1000
0100
1000
0100
0010
,
0100
0000
0000
0000
0000
0000
0100
0000
1100
0000
1000
0001
0010
0000
0100
0000
,
1000
0100
1000
0001
0010
0001
1000
0010
1000
0001
0100
0001
1000
0100
1000
0001
,
0100
0000
0010
0000
0100
0010
0100
0001
0200
0000
0000
0000
0320
0000
0000
0000
,
2030
0000
0000
0000
3200
0000
0000
0000
0320
0000
0230
0000
0310
0001
1000
0001
,
2000
0000
3020
0000
0230
0000
0302
0000
1003
0000
0001
0100
0001
0000
1000
0001
,
1000
0000
0100
0010
0100
0000
0010
0001
1000
0000
0000
0000
0010
0000
0010
0000
,
1010
0000
0110
0000
0100
0000
0101
0000
1010
0000
0000
0000
0010
0100
0010
1000
,
0001
0000
0001
0000
0001
1000
0100
0010
0001
0000
0000
0000
1000
0000
0010
0000
,
0110
0000
0000
0000
0100
0001
0100
0001
0100
0000
0010
0000
4000
0000
3001
0000
,
1000
0100
0010
0100
1000
0001
1000
0001
0100
0010
0100
0001
1000
0001
0100
0001
,
0200
0000
0000
0000
0302
0000
0000
0000
0023
0000
0000
0000
0230
0000
0000
0300
,
4004
0000
3003
MMMM
,
0001
0000
1000
0000
0100
0000
1000
0001
1000
0000
1000
0000
0001
0100
0010
0100
,
0001
0000
1000
0000
0100
0000
0100
1000
0001
0000
4000
0000
3010
0000
0100
0000
,
0001
0100
0001
0100
0010
0000
1000
0000
0001
1000
0100
1000
0100
0000
0010
0100
,
1000
0000
0001
0000
0100
0000
0010
0100
0001
1000
0001
0000
2002
0000
3000
0000
,
0103
0000
0100
0000
0010
0000
1000
0010
0100
0001
1000
0001
1000
0000
0001
0000
,
0100
0000
0100
0000
0010
0000
1000
0100
1000
0000
0001
0000
0010
0100
0010
0000
,
0001
0000
0000
0000
0000
0000
1000
0000
0000
0010
0000
0000
1000
0000
0000
0000
0000
0000
0001
0000
0000
0000
0000
0000
0100
0000
0000
0010
0000
0000
0100
0000
0000
0001
0000
0000
0100
0000
0000
0000
0000
0000
0001
0000
0100
0000
0001
0000
,
0100
0000
0010
0000
1000
0001
1000
0001
1000
0000
0001
0000
0010
0100
0010
0001
,
1000
0000
0001
0100
0001
0000
0001
0000
1000
0010
1000
0000
1000
0000
0010
0000
,
0100
0001
0100
0001
0100
0000
0010
1000
0001
0000
1M00
0000
01M0
0000
001M
0000
,
0001
00M1
0M10
M100
1000
0001
0100
0010
,
1000
0010
0100
0000
0100
0000
0001
0000
1000
0001
1000
0100
1000
0000
0001
0000
,
0010
0100
0010
0100
1000
0000
0001
0000
1000
0000
0010
0100
0010
0100
0001
0000
,
1000
0000
0001
0000
0100
0000
0001
0000
0010
0001
1000
0001
1000
0000
0100
0000
,
0010
0000
0100
1000
0100
1000
0001
0010
0100
0010
0001
0000
1000
0000
1000
0000
,
0001
0100
0001
0000
1000
0000
0010
0100
0010
0000
0100
0000
0001
0000
0001
0000
,
0101
0000
1000
0000
0010
0100
0001
0100
0001
0000
1000
0001
1000
0000
0010
0000
,
1000
0001
1000
0100
1000
0000
0100
0000
0010
0000
0010
0000
0010
0000
0001
0010
,
0100
0000
1000
0000
0001
0100
0001
0000
1000
0010
1000
0000
0010
0100
0001
1000
,
0001
0000
0010
0000
0100
1000
0100
0000
1000
0100
0010
0001
0010
0001
1000
0001
,
1000
0000
0001
0000
1000
0001
1000
0001
1000
0000
0100
1000
0001
1000
0100
1000
,
0100
0010
0001
0000
1000
0000
0001
0100
0001
0000
1000
0010
0100
0000
0001
0000
,
1000
0000
0001
0000
0010
0100
0010
0100
1000
0000
0001
0000
0001
0000
0100
0000
,
0010
0000
0100
0000
0001
0100
0001
0100
0010
0000
1000
0010
0100
0000
0100
0000
,
0110
0000
0010
0000
1000
0010
0100
0001
1000
0000
0001
1000
0100
0000
0010
0000
,
0100
0000
0100
0000
1000
0000
0001
0000
0100
0001
0100
0001
1000
0010
0100
0001
,
1000
0000
0001
0010
0001
0000
0001
0000
0010
0000
0100
1000
0100
0000
1000
0000
,
1100
0100
0110
0010
0011
0001
1000
0020
,
0130
0000
0001
0000
1000
0010
0100
0000
0001
0000
1000
0000
0200
0000
0310
0000
,
0100
1000
0100
0010
0002
0000
1003
0000
0010
0000
0100
0000
0001
0000
1000
0010
,
0100
0001
1000
0001
0010
0100
1000
0001
,
0100
0000
0001
0000
1000
0000
0100
0000
0020
0000
0000
0000
0031
1000
0001
1000
,
0002
0203
0302
0203
0320
2030
3020
2030
,
3002
2003
3200
0320
2030
3020
0230
2300
,
3002
0000
0203
0000
0310
1000
0010
0100
0002
0000
0203
0000
0302
0000
2003
0000
,
3002
0000
0023
0000
0230
0000
0320
0000
0032
0000
0023
0000
0130
1000
0100
1000
,
0002
0203
0320
0230
0320
0230
0302
2003
,
3200
0320
0032
0203
2300
3200
0302
2003
,
3020
0000
0230
0000
0302
0000
2003
0000
3002
0000
0203
0000
0310
0100
0010
0000
,
0200
0000
0000
0302
0000
0000
1003
0000
0100
0000
0010
0000
0001
0000
0000
0100
0000
0000
0100
0000
0000
0200
0000
0000
,
0302
0203
0302
2003
3020
2030
3002
2003
,
3200
0000
0320
0000
0034
0003
4000
3000
0040
0030
0400
0300
0040
0030
0400
0300
,
0002
0000
2003
0000
3200
0000
0320
0000
0032
0000
2003
0000
3010
0100
0010
0100
,
0001
0000
1000
0000
0100
0010
0100
0010
0001
0000
1000
0000
0010
0000
0100
0000
,
0002
0203
0302
0203
0302
0023
0032
0023
,
0032
2003
3020
0230
0302
2003
3020
0230
,
0302
0203
0320
2030
3200
2300
3200
0320
,
0130
0000
0100
0000
0100
0000
0100
0000
0100
1000
0001
0000
2002
0000
3000
0000
,
0103
0000
0001
0000
0100
0000
0010
0100
0010
0000
0010
0000
1000
0010
0100
0010
,
1000
0000
0001
0000
0010
0000
0010
0001
1000
0000
0004
0000
0103
0000
0010
0000
,
1000
0010
1000
0010
0100
0000
0001
0000
1000
0001
0010
0001
0010
0000
0100
0010
,
0001
0000
1000
0000
0010
0000
0100
0010
1000
0001
1000
0000
2002
0000
0003
0000
,
3010
0000
0010
0000
0100
0000
0001
0100
0010
1000
0001
1000
0001
0000
1000
0000
,
0010
0000
0010
0000
0100
0000
0001
0010
0001
0000
1000
0000
0100
0010
0100
0000
,
1000
0000
0000
0000
0000
0000
0001
0000
0000
0100
0000
0000
0001
0000
0000
0000
0000
0000
1000
0000
0000
0000
0000
0000
0010
0000
0000
0100
0000
0000
0010
0000
0000
1000
0000
0000
0001
0000
0000
0000
0000
0000
1000
0000
0001
0000
1000
0000
,
0001
0000
0100
0000
0001
1000
0001
1000
0001
0000
1000
0000
0100
0010
0100
1000
,
0001
0000
1000
0010
1000
0000
1000
0000
0001
0010
0001
0000
0001
0000
0100
0000
,
0010
1000
0010
1000
0010
0000
0100
0001
1000
0000
00M1
0000
0M10
0000
M100
0000
,
1000
1M00
01M0
001M
0001
1000
0010
0100
,
0001
0100
0010
0000
0010
0000
1000
0000
0001
1000
0001
0010
0001
0000
1000
0000
,
0100
0010
0100
0010
0001
0000
1000
0000
0001
0000
0100
0010
0100
0010
1000
0000
,
0001
0000
1000
0000
0010
0000
1000
0000
0100
1000
0001
1000
0001
0000
0010
0000
,
0100
0000
0010
0001
0010
0001
1000
0100
0010
0100
1000
0000
0001
0000
0001
0000
,
1000
0010
1000
0000
0001
0000
0100
0010
0100
0000
0010
0000
1000
0000
1000
0000
,
0001
0000
0100
0000
0010
0000
1000
0001
1000
0000
0100
0000
0010
0000
0000
0000
,
0000
0000
0010
0000
0100
0000
1000
0001
1000
0000
0001
0000
0100
0000
0000
0000
,
0010
1000
0010
0100
0010
0000
1000
0000
0001
0000
1000
0000
0001
0000
0100
0000
,
0100
0000
0000
0000
0000
0000
0010
0000
0000
0000
0000
0000
1000
0000
0000
0010
0000
0000
0100
0000
0000
0010
0000
0000
0200
0000
0000
0000
0000
0000
0302
0000
0000
0000
0003
0000
0002
0000
0000
0000
0003
0000
0100
0000
0000
0000
0000
0000
,
0010
0000
0000
0000
1000
0000
0000
0000
1001
0000
1000
0000
0001
0010
0100
1000
,
0001
0010
0001
0000
1000
0000
0010
0000
0100
0000
0001
0000
1000
0000
1000
0000
,
0001
0000
0010
0000
0100
1000
0100
1000
0001
0000
0000
0000
0100
0000
0100
0000
,
0010
0000
1000
0000
0100
0000
1000
0000
1001
0000
0001
0100
0001
0000
1000
0000
,
0100
0000
0100
0000
0010
0100
0010
0100
1000
0000
0001
0000
0100
0000
0000
0000
,
0000
0000
0010
0000
0100
0000
0100
0001
1000
0000
0001
0000
1000
0000
0000
0000
,
0001
0100
0001
0100
0001
0000
1000
0000
0010
0000
0100
0000
0001
0000
1000
0000
,
1000
0000
0001
0000
0010
0000
0100
0000
1000
0000
0001
0010
0100
0010
0200
0000
,
1300
0001
0000
0000
0101
0100
0020
2030
,
3001
0000
0010
0000
0200
0000
2300
0000
3001
0000
0100
0000
0100
0000
0001
1000
,
0001
0100
0010
1000
1001
0000
0001
0011
,
0010
0100
1000
0001
2002
0000
0000
0000
,
0MM0
0MM0
0MM0
0MM0
,
0MM0
3MM3
0000
0000
;
