#TITLE:Prince of Darkness;
#SUBTITLE:;
#ARTIST:Plus System;
#TITLETRANSLIT:;
#SUBTITLETRANSLIT:;
#ARTISTTRANSLIT:;
#CREDIT:;
#BANNER:blackwingednight.banner.png.jpg;
#BACKGROUND:blackwingednight.bg.png.jpg;
#LYRICSPATH:;
#CDTITLE:CDTITLE.jpg;
#MUSIC:prince of darkness - plus system.mp3;
#OFFSET:0.060;
#SAMPLESTART:100.000;
#SAMPLELENGTH:12.000;
#SELECTABLE:YES;
#BPMS:0.000=173.760;
#STOPS:;
#BGCHANGES:;
// cache tags:
#FIRSTBEAT:20.000;
#LASTBEAT:403.000;
#SONGFILENAME:Songs/Definitive Keyboard Megapack/Prince Of Darkness - plus system(Leone510)/prince of darkness - plus system.sm;
#HASMUSIC:1;
#HASBANNER:1;
#MUSICLENGTH:144.822;
// end cache tags

//---------------dance-single - ----------------
#NOTES:
     dance-single:
     :
     Medium:
     9:
     0.594,0.591,0.325,0.007,0.000,554.000,47.000,1.000,0.000,0.000:
0000
0000
0000
0000
,
0000
0000
0000
0000
,
0000
0000
0000
0000
,
0000
0000
0000
0000
,
0000
0000
0000
0000
,
1000
0000
0001
0000
1000
0000
0100
0001
,
0000
0001
1000
0000
0101
0000
1001
0000
,
0100
0000
0001
0000
1000
0000
0010
1000
,
0000
1000
0001
0000
1010
0000
0101
0000
,
0100
0000
0001
0000
0010
0000
0010
0100
,
0000
0100
0010
0000
1001
0000
0110
0000
,
0100
0000
0001
0000
1000
0000
0001
0010
,
0000
0010
0100
0000
1100
0000
0101
0000
,
1000
0000
0001
0000
1000
0000
0100
0001
,
0000
0001
1000
0000
0101
0000
1001
0000
,
0100
0000
0001
0000
1000
0000
0010
1000
,
0000
1000
0001
0000
1010
0000
0101
0000
,
0100
0000
0001
0000
0010
0000
0010
0100
,
0000
0100
0010
0000
1001
0000
0110
0000
,
0100
0000
0001
0000
1000
0000
0001
0010
,
0000
0010
0100
0000
1000
0000
0001
0000
,
1000
0001
1000
0001
1000
0010
0001
0010
,
1000
0001
1000
0001
1000
0010
0001
0010
,
1000
0001
1000
0001
1000
0010
0001
0100
,
0010
0100
0010
0000
1001
0000
0101
0000
,
1000
0001
1000
0001
1000
0010
0001
0010
,
1000
0001
1000
0001
1000
0010
0001
0010
,
1000
0001
1000
0001
1000
0010
0001
1000
,
0010
1000
0010
0000
0101
0000
1001
0000
,
1000
0001
1000
0001
1000
0010
0001
0010
,
1000
0001
1000
0001
1000
0010
0001
0010
,
1000
0001
1000
0001
1000
0010
0001
0100
,
0010
0100
0010
0000
1001
0000
0101
0000
,
1000
0001
1000
0001
1000
0010
0001
0010
,
1000
0001
1000
0001
1000
0010
0001
0010
,
1000
0001
1000
0001
1000
0010
0001
1000
,
0000
1000
0010
0000
0001
0000
1000
0000
,
1000
1000
0001
0100
,
1000
1000
0001
0100
,
1000
1000
0001
0100
,
1000
1000
0001
0100
,
1000
1000
0001
0100
,
1000
1000
0001
0100
,
1000
1000
0001
0100
,
1000
1000
0001
0100
,
1000
1000
0001
0100
,
1000
1000
0001
0100
,
1000
1000
0001
0100
,
1000
1000
0001
0100
,
1000
1000
0001
0100
,
1000
1000
0001
0100
,
1000
1000
0001
0100
,
1000
1000
0001
0100
,
0100
0001
1100
0100
0010
0001
0010
1000
,
0001
1000
0010
0100
1000
0001
0100
0010
,
0001
1000
0001
0100
0010
0001
1000
0100
,
0010
0001
0100
0010
1000
1001
0000
0000
,
1000
0001
1100
0100
0010
0001
0010
1000
,
0001
1000
0010
0100
1000
0001
0100
0010
,
0001
1000
0001
0100
0010
0001
1000
0100
,
0010
0001
0100
0010
1000
1001
0000
0000
,
1000
0001
1100
0100
0010
0001
0010
1000
,
0001
1000
0010
0100
1000
0001
0100
0010
,
0001
1000
0001
0100
0010
0001
1000
0100
,
0010
0001
0100
0010
1000
1001
0000
0000
,
1000
0001
1100
0100
0010
0001
0010
1000
,
0001
1000
0010
0100
1000
0001
0100
0010
,
0001
1000
0001
0100
0010
0001
1000
0100
,
0020
0000
0000
0000
0000
0000
0000
0030
,
1000
0000
0001
0000
1000
0000
0100
0001
,
0000
0001
1000
0000
0101
0000
1001
0000
,
0100
0000
0001
0000
1000
0000
0010
1000
,
0000
1000
0001
0000
1010
0000
0101
0000
,
0100
0000
0001
0000
0010
0000
0010
0100
,
0000
0100
0010
0000
1001
0000
0110
0000
,
0100
0000
0001
0000
1000
0000
0001
0010
,
0000
0010
0100
0000
1100
0000
0101
0000
,
1000
0000
0001
0000
1000
0000
0100
0001
,
0000
0001
1000
0000
0101
0000
1001
0000
,
0100
0000
0001
0000
1000
0000
0010
1000
,
0000
1000
0001
0000
1010
0000
0101
0000
,
0100
0000
0001
0000
0010
0000
0010
0100
,
0000
0100
0010
0000
1001
0000
0110
0000
,
0100
0000
0001
0000
1000
0000
0001
0010
,
0000
0010
0100
0000
1000
0000
0001
0000
,
1000
0001
1000
0001
1000
0010
0001
0010
,
1000
0001
1000
0001
1000
0010
0001
0010
,
1000
0001
1000
0001
1000
0010
0001
0100
,
0010
0100
0010
0000
1001
0000
0101
0000
,
1000
0001
1000
0001
1000
0010
0001
0010
,
1000
0001
1000
0001
1000
0010
0001
0010
,
1000
0001
1000
0001
1000
0010
0001
1000
,
0010
1000
0010
0000
0101
0000
1001
0000
,
1000
0001
1000
0001
1000
0010
0001
0010
,
1000
0001
1000
0001
1000
0010
0001
0010
,
1000
0001
1000
0001
1000
0010
0001
0100
,
0010
0100
0010
0000
1001
0000
0101
0000
,
1000
0001
1000
0001
1000
0010
0001
0010
,
1000
0001
1000
0001
1000
0010
0001
0010
,
1000
0001
1000
0001
1000
0010
0001
1000
,
0010
1000
0010
0000
0001
0000
1000
0000
;

//---------------dance-single - ----------------
#NOTES:
     dance-single:
     :
     Challenge:
     13:
     1.000,1.000,1.000,0.193,0.148,708.000,540.000,28.000,0.000,232.000:
0000
0000
0000
0000
,
0000
0000
0000
0000
,
0000
0000
0000
0000
,
0000
0000
0000
0000
,
0000
0000
0000
0000
,
1101
0000
0101
0000
1111
0000
0101
1110
,
0000
1101
1001
0000
0101
0100
1011
0100
,
0110
0000
1011
0000
1111
0000
1100
1011
,
0000
1101
1010
0000
0101
0001
1110
0010
,
0111
0000
1001
0000
1111
0000
1010
1101
,
0000
0101
1110
0000
0101
0100
1110
0010
,
0110
0000
1011
0000
1010
0000
0111
1010
,
0000
1110
0110
0000
1100
0010
1011
0010
,
1101
0000
0101
0000
1111
0000
0101
1110
,
0000
1101
1001
0000
0101
0100
1011
0100
,
0110
0000
1011
0000
1111
0000
1100
1011
,
0000
1101
1010
0000
0101
0001
1110
0010
,
0111
0000
1001
0000
1111
0000
1010
1101
,
0000
0101
1110
0000
0101
0100
1110
0010
,
0110
0000
1011
0000
1010
0000
0111
1010
,
0000
2000
3020
0030
1200
0000
1321
0000
,
1131
0110
1101
0011
1101
1010
0111
0011
,
1110
0110
1011
0101
1101
0011
1110
0101
,
1011
1100
1101
0101
1110
0101
1011
1001
,
1101
0011
1101
1001
1101
0011
1011
0110
,
1101
0110
1101
0011
1101
1010
0111
0011
,
1110
0110
1011
0101
1101
0011
1110
0101
,
1011
1100
1101
0101
1110
0101
1011
1001
,
1101
0011
1101
1001
1101
0011
1011
0110
,
1101
0110
1101
0011
1101
1010
0111
0011
,
1110
0110
1011
0101
1101
0011
1110
0101
,
1011
1100
1101
0101
1110
0101
1011
1001
,
1101
0011
1101
1001
1101
0011
1011
0110
,
1101
0110
1101
0011
1101
1010
0111
0011
,
1110
0110
1011
0101
1101
0011
1110
0101
,
1011
1100
1101
0101
1110
0101
1011
1001
,
1101
0002
2003
3000
1201
0000
1321
0000
,
1031
0100
0011
0010
1010
0100
1001
0100
,
0101
0010
1100
0001
1100
0010
1001
0010
,
0101
0010
1010
0100
0011
1000
0101
0010
,
1001
0010
1010
0100
0110
0010
1001
0101
,
1001
0100
0011
0010
1010
0100
1001
0100
,
0101
0010
1100
0001
1100
0010
1001
0010
,
0101
0010
1010
0100
0011
1000
0101
0010
,
1001
0010
1010
0100
0110
0010
1001
0101
,
1001
0100
0011
0010
1010
0100
1001
0100
,
0101
0010
1100
0001
1100
0010
1001
0010
,
0101
0010
1010
0100
0011
1000
0101
0010
,
1001
0010
1010
0100
0110
0010
1001
0101
,
1001
0100
0011
0010
1010
0100
1001
0100
,
0101
0010
1100
0001
1100
0010
1001
0010
,
0101
0010
1010
0100
0011
1000
0101
0010
,
0001
0010
0100
1000
0100
0010
0001
0010
0100
1000
0100
0010
0001
0010
0100
1000
0100
0010
0001
0010
0100
1000
0100
0010
,
1001
0000
0010
0000
1101
0010
1001
0000
0011
0000
0100
0000
1011
0100
0011
0000
,
1001
0000
0010
0000
1101
0010
1100
0000
0101
0000
0010
0000
1101
0010
1001
0000
,
0101
0000
0010
0000
1101
0010
1100
0000
0110
0000
0001
0000
1110
0001
1010
0000
,
1001
0000
0101
0000
0111
1000
0110
0000
0011
0000
2202
0000
0000
0000
3303
0000
,
1001
0000
0010
0000
1101
0010
1001
0000
0011
0000
0100
0000
1011
0100
0011
0000
,
1001
0000
0010
0000
1101
0010
1100
0000
0101
0000
0010
0000
1101
0010
1001
0000
,
0101
0000
0010
0000
1101
0010
1100
0000
0110
0000
0001
0000
1110
0001
1010
0000
,
1001
0000
0101
0000
0111
1000
0110
0000
0011
0000
2202
0000
0000
0000
3303
0000
,
1001
0000
0010
0000
1101
0010
1001
0000
0011
0000
0100
0000
1011
0100
0011
0000
,
1001
0000
0010
0000
1101
0010
1100
0000
0101
0000
0010
0000
1101
0010
1001
0000
,
0101
0000
0010
0000
1101
0010
1100
0000
0110
0000
0001
0000
1110
0001
1010
0000
,
1001
0000
0101
0000
0111
1000
0110
0000
0011
0000
2202
0000
0000
0000
3303
0000
,
1001
0000
0010
0000
1101
0010
1001
0000
0011
0000
0100
0000
1011
0100
0011
0000
,
1001
0000
0010
0000
1101
0010
1100
0000
0101
0000
0010
0000
1101
0010
1001
0000
,
0101
0000
0010
0000
1101
0010
1100
0000
0110
0000
0001
0000
1110
0001
1010
0000
,
2222
0000
0000
0000
0000
0000
0000
3333
,
1101
0000
0101
0000
1111
0000
0101
1110
,
0000
1101
1001
0000
0101
0100
1011
0100
,
0110
0000
1011
0000
1111
0000
1100
1011
,
0000
1101
1010
0000
0101
0001
1110
0010
,
0111
0000
1001
0000
1111
0000
1010
1101
,
0000
0101
1110
0000
0101
0100
1110
0010
,
0110
0000
1011
0000
1010
0000
0111
1010
,
0000
1110
0110
0000
1100
0010
1011
0010
,
1101
0000
0101
0000
1111
0000
0101
1110
,
0000
1101
1001
0000
0101
0100
1011
0100
,
0110
0000
1011
0000
1111
0000
1100
1011
,
0000
1101
1010
0000
0101
0001
1110
0010
,
0111
0000
1001
0000
1111
0000
1010
1101
,
0000
0101
1110
0000
0101
0100
1110
0010
,
0110
0000
1011
0000
1010
0000
0111
1010
,
0000
2000
3020
0030
1200
0000
1321
0000
,
1131
0110
1101
0011
1101
1010
0111
0011
,
1110
0110
1011
0101
1101
0011
1110
0101
,
1011
1100
1101
0101
1110
0101
1011
1001
,
1101
0011
1101
1001
1101
0011
1011
0110
,
1101
0110
1101
0011
1101
1010
0111
0011
,
1110
0110
1011
0101
1101
0011
1110
0101
,
1011
1100
1101
0101
1110
0101
1011
1001
,
1101
0011
1101
1001
1101
0011
1011
0110
,
1101
0110
1101
0011
1101
1010
0111
0011
,
1110
0110
1011
0101
1101
0011
1110
0101
,
1011
1100
1101
0101
1110
0101
1011
1001
,
1101
0011
1101
1001
1101
0011
1011
0110
,
1101
0110
1101
0011
1101
1010
0111
0011
,
1110
0110
1011
0101
1101
0011
1110
0101
,
1011
1100
1101
0101
1110
0101
1011
1001
,
1101
0002
2003
3000
1201
0000
1311
0000
;

//---------------dance-single - Copied from----------------
#NOTES:
     dance-single:
     Copied from:
     Hard:
     12:
     1.000,1.000,1.000,0.456,0.093,657.000,329.000,66.000,0.000,33.000:
0000
0000
0000
0000
,
0000
0000
0000
0000
,
0000
0000
0000
0000
,
0000
0000
0000
0000
,
0000
0000
0000
0000
,
1001
0000
0101
0000
1011
0000
0101
1010
,
0000
0101
1001
0000
0101
0000
1011
0000
,
0110
0000
1001
0000
1101
0000
1100
1001
,
0000
1001
1010
0000
0101
0000
1110
0000
,
0101
0000
1001
0000
0111
0000
1010
1001
,
0000
0101
1010
0000
0101
0000
1110
0000
,
0110
0000
1001
0000
1110
0000
0011
1010
,
0000
1010
0110
0000
1100
0000
1011
0000
,
1001
0000
0101
0000
1011
0000
0101
1010
,
0000
0101
1001
0000
0101
0000
1011
0000
,
0110
0000
1001
0000
1101
0000
1100
1001
,
0000
1001
1010
0000
0101
0000
1110
0000
,
0101
0000
1001
0000
0111
0000
1010
1001
,
0000
0101
1010
0000
0101
0000
1110
0000
,
0110
0000
1001
0000
1110
0000
0011
1010
,
0000
1000
0100
0000
0100
0000
0001
0000
,
1001
0100
0101
0010
1001
0010
0110
0100
,
1001
0010
1010
0001
1100
0010
1010
0100
,
1001
0100
0101
0010
1100
0001
1010
0001
,
1100
0001
1100
0001
0110
0010
1001
0100
,
1001
0100
0101
0010
1001
0010
0110
0100
,
1001
0010
1010
0001
1100
0010
1010
0100
,
1001
0100
0101
0010
1100
0001
1010
0001
,
1100
0001
1100
0001
0110
0010
1001
0100
,
1001
0100
0101
0010
1001
0010
0110
0100
,
1001
0010
1010
0001
1100
0010
1010
0100
,
1001
0100
0101
0010
1100
0001
1010
0001
,
1100
0001
1100
0001
0110
0010
1001
0100
,
1001
0100
0101
0010
1001
0010
0110
0100
,
1001
0010
1010
0001
1100
0010
1010
0100
,
1001
0100
0101
0010
1100
0001
1010
0001
,
1100
0001
1000
0000
0100
0000
0001
0000
,
1001
0200
0310
0020
1030
0002
1003
0200
,
0310
2000
3001
0020
1030
0020
0031
0200
,
0301
0020
1030
0200
0301
2000
3100
0020
,
1030
0002
0013
2000
3010
0020
1031
0101
,
1001
0200
0310
0020
1030
0002
1003
0200
,
0310
2000
3001
0020
1030
0020
0031
0200
,
0301
0020
1030
0200
0301
2000
3100
0020
,
1030
0002
0013
2000
3010
0020
1031
0101
,
1001
0200
0310
0020
1030
0002
1003
0200
,
0310
2000
3001
0020
1030
0020
0031
0200
,
0301
0020
1030
0200
0301
2000
3100
0020
,
1030
0002
0013
2000
3010
0020
1031
0101
,
1001
0200
0310
0020
1030
0002
1003
0200
,
0310
2000
3001
0020
1030
0020
0031
0200
,
0301
0020
1030
0200
0301
2000
3100
0020
,
2030
0000
0000
0000
0000
0000
0000
3000
,
1001
0000
0010
0000
1001
0010
1000
0000
0011
0000
0100
0000
1100
0001
0100
0000
,
1001
0000
0010
0000
0101
0010
1000
0000
0101
0000
0010
0000
1001
0100
0010
0000
,
0101
0000
0010
0000
0011
1000
0100
0000
0110
0000
0001
0000
1100
0001
0010
0000
,
1001
0000
0001
0000
0110
1000
0010
0000
0011
0000
2002
0000
0000
0000
3003
0000
,
1001
0000
0010
0000
1001
0010
1000
0000
0011
0000
0100
0000
1100
0001
0100
0000
,
1001
0000
0010
0000
0101
0010
1000
0000
0101
0000
0010
0000
1001
0100
0010
0000
,
0101
0000
0010
0000
0011
1000
0100
0000
0110
0000
0001
0000
1100
0001
0010
0000
,
1001
0000
0001
0000
0110
1000
0010
0000
0011
0000
2002
0000
0000
0000
3003
0000
,
1001
0000
0010
0000
1001
0010
1000
0000
0011
0000
0100
0000
1100
0001
0100
0000
,
1001
0000
0010
0000
0101
0010
1000
0000
0101
0000
0010
0000
1001
0100
0010
0000
,
0101
0000
0010
0000
0011
1000
0100
0000
0110
0000
0001
0000
1100
0001
0010
0000
,
1001
0000
0001
0000
0110
1000
0010
0000
0011
0000
2002
0000
0000
0000
3003
0000
,
1001
0000
0010
0000
1001
0010
1000
0000
0011
0000
0100
0000
1100
0001
0100
0000
,
1001
0000
0010
0000
0101
0010
1000
0000
0101
0000
0010
0000
1001
0100
0010
0000
,
0101
0000
0010
0000
0011
1000
0100
0000
0110
0000
0001
0000
1100
0001
0010
0000
,
2002
0000
0000
0000
0000
0000
0000
3003
,
1001
0000
0101
0000
1011
0000
0101
1010
,
0000
0101
1001
0000
0101
0000
1011
0000
,
0110
0000
1001
0000
1101
0000
1100
1001
,
0000
1001
1010
0000
0101
0000
1110
0000
,
0101
0000
1001
0000
0111
0000
1010
1001
,
0000
0101
1010
0000
0101
0000
1110
0000
,
0110
0000
1001
0000
1110
0000
0011
1010
,
0000
1010
0110
0000
1100
0000
1011
0000
,
1001
0000
0101
0000
1011
0000
0101
1010
,
0000
0101
1001
0000
0101
0000
1011
0000
,
0110
0000
1001
0000
1101
0000
1100
1001
,
0000
1001
1010
0000
0101
0000
1110
0000
,
0101
0000
1001
0000
0111
0000
1010
1001
,
0000
0101
1010
0000
0101
0000
1110
0000
,
0110
0000
1001
0000
1110
0000
0011
1010
,
0000
1000
0100
0000
0100
0000
0001
0000
,
1001
0100
0101
0010
1001
0010
0110
0100
,
1001
0010
1010
0001
1100
0010
1010
0100
,
1001
0100
0101
0010
1100
0001
1010
0001
,
1100
0001
1100
0001
0110
0010
1001
0100
,
1001
0100
0101
0010
1001
0010
0110
0100
,
1001
0010
1010
0001
1100
0010
1010
0100
,
1001
0100
0101
0010
1100
0001
1010
0001
,
1100
0001
1100
0001
0110
0010
1001
0100
,
1001
0100
0101
0010
1001
0010
0110
0100
,
1001
0010
1010
0001
1100
0010
1010
0100
,
1001
0100
0101
0010
1100
0001
1010
0001
,
1100
0001
1100
0001
0110
0010
1001
0100
,
1001
0100
0101
0010
1001
0010
0110
0100
,
1001
0010
1010
0001
1100
0010
1010
0100
,
1001
0100
0101
0010
1100
0001
1010
0001
,
1100
0001
1000
0000
0100
0000
0001
0000
;
