#TITLE:Blank File;
#SUBTITLE:Ecliptica (1999);
#ARTIST:Sonata Arctica;
#TITLETRANSLIT:;
#SUBTITLETRANSLIT:;
#ARTISTTRANSLIT:;
#CREDIT:;
#BANNER:blank file-banner.png;
#BACKGROUND:blank file-bg.png;
#LYRICSPATH:;
#CDTITLE:Joe D Original.PNG;
#MUSIC:Sonata Arctica - Blank File.mp3;
#OFFSET:0.000;
#SAMPLESTART:94.500;
#SAMPLELENGTH:12.000;
#SELECTABLE:YES;
#BPMS:0.000=165.000,9.000=175.000,25.000=170.500,60.500=169.000,69.000=172.000,73.000=168.000,81.000=165.000,91.500=162.000,97.000=167.000,106.500=165.000,118.000=169.000,124.000=164.000,136.500=175.000,137.000=173.000,147.000=170.000,165.500=175.500,172.000=172.000,178.000=170.000,212.000=162.000,232.000=168.000,238.500=162.000,249.000=165.000,298.500=169.000,301.500=175.000,316.500=174.000,320.500=173.000,340.000=170.800,356.000=175.000,367.000=169.000,382.000=175.000,393.000=176.000,400.000=172.000,420.000=175.000,428.500=165.000,439.500=168.000,447.500=171.000,470.500=166.500,526.500=170.000,550.000=180.000,554.000=183.000,570.000=176.000,576.000=179.000,580.000=182.000,582.000=174.000,589.500=171.000,601.500=168.000,615.500=165.000,627.500=170.000,638.500=167.000,663.000=169.000;
#STOPS:;
#BGCHANGES:;
// cache tags:
#FIRSTBEAT:1.000;
#LASTBEAT:680.500;
#SONGFILENAME:Songs/Astronomic Metal Collection 2/(Joe D) Blank File/Sonata Arctica - Blank File.sm;
#HASMUSIC:1;
#HASBANNER:1;
#MUSICLENGTH:245.528;
// end cache tags

//---------------dance-single - ----------------
#NOTES:
     dance-single:
     :
     Hard:
     12:
     1.000,1.000,0.868,0.863,1.000,1756.000,213.000,212.000,0.000,6.000:
0000
0000
0000
0000
1000
0100
1000
0100
0010
0100
0010
0100
0010
0001
0010
0001
,
1000
0001
1000
0001
0100
1000
0100
1000
0100
0010
0100
0010
1001
0000
0000
0000
,
2002
0000
0000
0000
0000
0000
0000
0000
0000
0000
0000
0000
3003
0000
0000
0000
0101
0000
0000
0000
0000
0000
0000
0000
1000
0000
0000
0000
0100
0000
0000
0000
1000
0000
0000
0000
0100
0000
0000
0000
2020
0000
0000
0000
0000
0000
0000
3030
1010
0000
0000
0000
0000
0000
0000
0000
0001
0000
0000
0000
0100
0000
0000
0000
,
0001
0000
0000
0000
0100
0000
0000
0000
0001
0000
0000
0000
0100
0000
0000
0000
0022
0000
0000
0000
0033
0000
0000
0000
1000
0000
0000
0000
0010
0000
0000
0000
1000
0000
0000
0000
0010
0000
0000
0000
2002
0000
0000
0000
0000
0000
0000
3003
1001
0000
0000
0000
0000
0000
0000
0000
0100
0000
0000
0000
0001
0000
0000
0000
,
0100
0000
0000
0000
0001
0000
0000
0000
0100
0000
0000
0000
0001
0000
0000
0000
0220
0000
0000
0000
0330
0000
0000
0000
1000
0000
0000
0000
0100
0000
0000
0000
1000
0000
0000
0000
0100
0000
0000
0000
2020
0000
0000
0000
0000
0000
0000
3030
1010
0000
0000
0000
0000
0000
0000
0000
0100
0000
0000
0000
0010
0000
0000
0000
,
0100
0000
0000
0000
0010
0000
0000
0000
0100
0000
0000
0000
0010
0000
0000
0000
2002
0000
0000
0000
3003
0000
0000
0000
0100
0000
0000
0000
0001
0000
0000
0000
0100
0000
0000
0000
0001
0000
0000
0000
0220
0000
0000
0000
0000
0000
0000
0330
0110
0000
0000
0000
0000
0000
0000
0000
1000
0000
0000
0000
0100
0000
0000
0000
,
0010
0001
0010
0001
1020
0000
1000
0000
0000
0000
1000
0000
0000
0000
1000
0000
,
0000
1030
0102
0100
0000
0100
0000
0100
,
0000
0000
0000
0000
0000
0000
0000
0000
0103
0000
0000
0000
0000
0000
0000
0000
0220
0000
0000
0000
0330
0000
0000
0000
1000
0000
0000
0000
0100
0000
0000
0000
1000
0000
0000
0000
0100
0000
0000
0000
2020
0000
0000
0000
0000
0000
0000
3030
1010
0000
0000
0000
0000
0000
0000
0000
0100
0000
0000
0000
0000
0000
0000
0000
,
0001
0000
0000
0000
1000
0000
0000
0000
0001
0000
0000
0000
0000
0000
0000
0000
0022
0000
0000
0000
0033
0000
0000
0000
1000
0000
0000
0000
0010
0000
0000
0000
1000
0000
0000
0000
0010
0000
0000
0000
2002
0000
0000
0000
0000
0000
0000
3003
1001
0000
0000
0000
0000
0000
0000
0000
0010
0000
0000
0000
0000
0000
0000
0000
,
1000
0000
0000
0000
0100
0000
0000
0000
1000
0000
0000
0000
0000
0000
0000
0000
0220
0000
0000
0000
0330
0000
0000
0000
1000
0000
0000
0000
0100
0000
0000
0000
1000
0000
0000
0000
0100
0000
0000
0000
2020
0000
0000
0000
0000
0000
0000
3030
1010
0000
0000
0000
0000
0000
0000
0000
0001
0000
0000
0000
0000
0000
0000
0000
,
1000
0000
0000
0000
0010
0000
0000
0000
1000
0000
0000
0000
0000
0000
0000
0000
2002
0000
0000
0000
3003
0000
0000
0000
0100
0000
0000
0000
0001
0000
0000
0000
0100
0000
0000
0000
0001
0000
0000
0000
0220
0000
0000
0000
0000
0000
0000
0330
1000
0000
0000
0000
0000
0000
0000
0000
0101
0000
0000
0000
0000
0000
0000
0000
,
0010
0001
0010
0000
1000
0000
0110
0000
1000
0001
1000
0000
0100
0000
1100
0000
,
0100
0010
0001
0000
0010
0000
0110
0000
1000
0100
1000
0000
0100
0000
1001
0000
,
0100
0001
0100
0000
0210
0000
0010
0000
0000
0000
0010
0000
0000
0000
0010
0000
,
0000
0310
2001
0001
0000
0001
0000
0001
,
0000
3001
0012
0010
0000
0010
0000
0010
,
0000
0000
0013
0000
2100
0000
0100
0000
0000
0000
0100
0000
0000
3000
0100
0010
,
0100
0010
0100
0010
0200
0300
1000
0100
0010
0001
1000
0010
1000
0010
0001
1000
,
0001
0010
0100
1000
0100
1000
0010
0100
1000
0001
0100
0010
0100
0010
0100
1000
,
0100
0010
1000
0001
2000
3000
0100
0010
0100
0010
0200
0300
0010
0001
0010
0001
,
0020
0030
1000
0100
0010
0100
2000
3000
0100
0010
0100
0001
0200
0300
1000
0100
,
0020
0030
0100
1000
0021
0000
0001
0000
0000
0000
0001
0000
0000
0000
0001
0000
,
0000
0001
0000
0001
0000
0001
0000
0001
,
0000
0000
0001
0030
2100
0000
0100
0000
0000
0000
0100
0000
0000
0000
0100
0000
,
0000
0000
3100
0000
1002
0000
1000
0000
0000
0000
1003
0000
0010
0100
1000
0000
,
0110
0000
0000
0010
1001
0100
0010
0100
0010
0001
0100
0010
0100
1000
0010
1000
,
0010
0100
1000
0100
0011
1000
0010
0100
0010
0001
0100
1000
0001
0010
0100
1000
,
0100
0010
0001
0010
0101
1000
0010
1000
0100
0010
0001
0010
0100
0001
1000
0010
,
0100
0001
0100
0010
2100
0000
0100
0000
0000
0000
0100
0000
0000
0000
0100
0000
,
0000
0000
3100
0000
1001
0010
0100
0010
0100
1000
0010
0100
0010
0001
0100
0001
,
0100
0010
0001
0010
1100
0001
0100
0010
0100
1000
0010
0001
1000
0100
0010
0001
,
0010
0100
1000
0100
2010
0000
0010
0000
0000
0000
0010
0000
0000
0000
0010
0000
,
3002
0000
1003
0000
0120
0000
0100
0000
0000
0000
0100
0000
0031
1000
0010
0000
,
1001
0000
0000
0000
0000
0000
0000
0000
0000
0000
0000
0000
0100
0000
0000
0000
2002
0000
0000
0000
3003
0000
0000
0000
0100
0000
0000
0000
0001
0000
0000
0000
0100
0000
0000
0000
0001
0000
0000
0000
0220
0000
0000
0000
0000
0000
0000
0330
0110
0000
0000
0000
0000
0000
0000
0000
1000
0000
0000
0000
0010
0000
0000
0000
,
1000
0000
0000
0000
0010
0000
0000
0000
1000
0000
0000
0000
0010
0000
0000
0000
2002
0000
0000
0000
3003
0000
0000
0000
0010
0000
0000
0000
0001
0000
0000
0000
0010
0000
0000
0000
0001
0000
0000
0000
0220
0000
0000
0000
0000
0000
0000
0330
0110
0000
0000
0000
0000
0000
0000
0000
1000
0000
0000
0000
0010
0000
0000
0000
,
1000
0000
0000
0000
0010
0000
0000
0000
1000
0000
0000
0000
0010
0000
0000
0000
2002
0000
0000
0000
3003
0000
0000
0000
0100
0000
0000
0000
0001
0000
0000
0000
0100
0000
0000
0000
0001
0000
0000
0000
0220
0000
0000
0000
0000
0000
0000
0330
0110
0000
0000
0000
0000
0000
0000
0000
1000
0000
0000
0000
0000
0000
0000
0000
,
0100
0000
0000
0000
0001
0000
0000
0000
0100
0000
0000
0000
0000
0000
0000
0000
0022
0000
0000
0000
0033
0000
0000
0000
0010
0000
0000
0000
0100
0000
0000
0000
0010
0000
0000
0000
0100
0000
0000
0000
2020
0000
0000
0000
0000
0000
0000
3030
1010
0000
0000
0000
0000
0000
0000
0000
0100
0000
0000
0000
0000
0000
0000
0000
,
0010
0001
0010
0000
2100
0000
0010
0000
0001
0010
0100
0000
0001
0000
0100
0000
,
0010
0100
3010
0000
0012
0000
0100
0000
1000
0010
1000
0000
0010
0000
0100
0000
,
1000
0000
0000
0000
0100
0000
0000
0000
0013
0000
0000
0000
0000
0000
0000
0000
0202
0000
0000
0000
0303
0000
0000
0000
1000
0000
0000
0000
0100
0000
0000
0000
1000
0000
0000
0000
0100
0000
0000
0000
2020
0000
0000
0000
0000
0000
0000
3030
1010
0000
0000
0000
0000
0000
0000
0000
0001
0000
0000
0000
0100
0000
0000
0000
,
0001
0000
0000
0000
0100
0000
0000
0000
0001
0000
0000
0000
0100
0000
0000
0000
0022
0000
0000
0000
0033
0000
0000
0000
1000
0000
0000
0000
0010
0000
0000
0000
1000
0000
0000
0000
0010
0000
0000
0000
2002
0000
0000
0000
0000
0000
0000
3003
1001
0000
0000
0000
0000
0000
0000
0000
0100
0000
0000
0000
0001
0000
0000
0000
,
0100
0000
0000
0000
0001
0000
0000
0000
0100
0000
0000
0000
0001
0000
0000
0000
0220
0000
0000
0000
0330
0000
0000
0000
1000
0000
0000
0000
0100
0000
0000
0000
1000
0000
0000
0000
0100
0000
0000
0000
2020
0000
0000
0000
0000
0000
0000
3030
1010
0000
0000
0000
0000
0000
0000
0000
0100
0000
0000
0000
0010
0000
0000
0000
,
0100
0000
0000
0000
0010
0000
0000
0000
0100
0000
0000
0000
0010
0000
0000
0000
2002
0000
0000
0000
3003
0000
0000
0000
0100
0000
0000
0000
0001
0000
0000
0000
0100
0000
0000
0000
0001
0000
0000
0000
0220
0000
0000
0000
0000
0000
0000
0330
0110
0000
0000
0000
0000
0000
0000
0000
0100
0000
0000
0000
1000
0000
0000
0000
,
0100
0000
0000
0000
1000
0000
0000
0000
0100
0000
0000
0000
1000
0000
0000
0000
0220
0000
0000
0000
0330
0000
0000
0000
0001
0000
0000
0000
0100
0000
0000
0000
0001
0000
0000
0000
0100
0000
0000
0000
0022
0000
0000
0000
0000
0000
0000
0033
0011
0000
0000
0000
0000
0000
0000
0000
1000
0000
0000
0000
0100
0000
0000
0000
,
1000
0000
0000
0000
0100
0000
0000
0000
1000
0000
0000
0000
0100
0000
0000
0000
2002
0000
0000
0000
3003
0000
0000
0000
0100
0000
0000
0000
0010
0000
0000
0000
0100
0000
0000
0000
0010
0000
0000
0000
2200
0000
0000
0000
0000
0000
0000
3300
1100
0000
0000
0000
0000
0000
0000
0000
0010
0000
0000
0000
0001
0000
0000
0000
,
0010
0001
0010
0001
0120
0000
0100
0000
1000
0100
1000
0000
0001
0000
0100
0000
,
1030
0100
1000
0000
0210
0000
0010
0000
1000
0001
1000
0000
0010
0000
1000
0000
,
0010
0001
0310
0000
2100
0000
0100
0000
0001
0010
0100
0000
0010
0000
0100
0000
,
0001
0010
0001
0000
0100
0000
0010
0000
0100
0001
0100
0000
3010
0000
0100
0010
,
0100
0010
0100
1000
0200
0300
1000
0100
0010
0001
1000
0010
1000
0010
0001
1000
,
0001
0010
0100
1000
0100
1000
0010
0100
1000
0001
0100
0010
0100
0010
0100
1000
,
0100
0010
1000
0001
2000
3000
0100
0010
0100
0010
0200
0300
0010
0001
0010
0001
,
0020
0030
1000
0100
0010
0100
2000
3000
0100
0010
0100
0001
0200
0300
1000
0100
,
0020
0030
0100
1000
0021
0000
0001
0000
0000
0000
0001
0000
0000
0000
0001
0000
,
0000
0001
0000
0001
0000
0001
0000
0001
,
0000
0000
0001
0030
2100
0000
0100
0000
0000
0000
0100
0000
0000
0000
0100
0000
,
0000
0000
0100
0000
0000
0000
0100
0000
0000
0000
3100
0000
0000
0101
0000
0000
,
0101
0000
0000
0110
1001
0100
0010
0100
0010
0001
0100
0010
0100
1000
0010
1000
,
0010
0100
1000
0100
0011
1000
0010
0100
0010
0001
0100
1000
0001
0010
0100
1000
,
0100
0010
0001
0010
0101
1000
0010
1000
0100
0010
0001
0010
0100
0001
1000
0010
,
0100
0001
0100
0010
2100
0000
0100
0000
0000
0000
0100
0000
0000
0000
0100
0000
,
0000
0000
3100
0000
1001
0010
0100
0010
0100
1000
0010
0100
0010
0001
0100
0001
,
0100
0010
0001
0010
1100
0001
0100
0010
0100
1000
0010
0001
1000
0100
0010
0001
,
0010
0100
1000
0100
2010
0000
0010
0000
0000
0000
0010
0000
0000
0000
0010
0000
,
3002
0000
1003
0000
0120
0000
0100
0000
0000
0000
0100
0000
0030
1000
0010
0000
,
1001
0000
0000
0010
1001
0100
0010
0100
0010
0001
0100
0010
0100
1000
0010
1000
,
0010
0100
1000
0100
0011
1000
0010
0100
0010
0001
0100
1000
0001
0010
0100
1000
,
0100
0010
0001
0010
0101
1000
0010
1000
0100
0010
0001
0010
0100
0001
1000
0010
,
0100
0001
0100
0010
2100
0000
0100
0000
0000
0000
0100
0000
3002
0000
0023
0000
,
0230
0000
0300
0000
1001
0010
0100
0010
0100
1000
0010
0100
0010
0001
0100
0001
,
0100
0010
0001
0010
1100
0001
0100
0010
0100
1000
0010
0001
1000
0100
0010
0001
,
0010
0100
1000
0100
2010
0000
0010
0000
0000
0000
0010
0000
0000
0000
0010
0000
,
3002
0000
0000
1003
0000
0000
0120
0000
0000
0100
0000
0000
0000
0000
0000
0100
0000
0000
0031
0000
1000
0000
0000
0000
,
1001
0000
0000
0010
1001
0000
0000
0100
0000
0000
0020
0000
0000
0000
0130
0000
,
2000
0000
0000
3000
0000
0000
0010
0001
0010
0100
1000
0100
1000
0001
1000
0020
0000
0000
0000
0000
0000
0000
0000
0000
,
0000
0000
0000
0030
0000
0000
0000
0000
0000
0000
0000
0000
1000
0000
0000
0100
0000
0000
1000
0000
0000
0100
0000
0000
0010
0000
0000
0100
0000
0000
1000
0000
0100
0000
0010
0000
0001
0000
0000
0100
0000
0000
0010
0000
1000
0000
0100
0000
,
0010
0000
0001
0000
0010
0000
1000
0000
0000
0001
0000
0000
0010
0000
0100
0000
1000
0000
0001
0000
0000
0100
0000
0000
0010
0000
0000
1000
0000
0000
0001
0000
0000
1000
0000
0000
0200
0000
0000
0000
0000
0000
0000
0000
0000
0000
0000
0000
,
0000
0000
0000
0000
0000
0000
0000
0000
0000
0000
0000
0000
0301
0000
0000
0010
0000
0000
1000
0000
0100
0000
0010
0000
0001
0000
0000
0010
0000
0000
0100
0000
0000
1000
0000
0000
0001
0000
0010
0000
0100
0000
1000
0000
0100
0000
0010
0000
,
0100
0000
0000
0010
0000
0000
0100
0000
0001
0000
0010
0000
1000
0000
0100
0000
1000
0000
0100
0000
0000
0010
0000
0000
1000
0000
0100
0000
1000
0000
0010
0000
1000
0000
0100
0000
0010
0000
0000
1000
0000
0000
0001
0000
0010
0000
0100
0000
,
1000
0000
0100
0000
1000
0000
0010
0000
0100
0000
1000
0000
0220
0000
0000
0000
0000
0000
0000
0000
0000
0000
0000
0000
0330
0000
0000
0000
0000
0000
0200
0000
0000
0300
0000
0000
0020
0000
0000
0000
0000
0000
0000
0000
0000
0000
0000
0000
,
2030
0000
3000
0000
0020
0000
0000
0000
0000
0000
2030
3200
0302
0000
0000
0000
,
0000
0003
0200
0000
0000
0000
0000
0320
,
0030
0000
0001
0010
0200
0000
0000
0000
1300
0100
0020
0000
0000
0000
0030
0000
,
0200
0000
0000
0300
0000
0000
0020
0000
0000
0000
0000
0000
1030
0100
0010
0002
0000
0000
0013
0100
1000
0100
0010
0100
,
1000
0000
0000
0010
0000
0000
1000
0000
0100
0000
0010
0000
0001
0000
0010
0000
0100
0000
0010
0000
0001
0000
1000
0000
0001
0000
0100
0000
1000
0000
0100
0000
1000
0000
0010
0000
1000
0000
0000
0100
0000
0000
0010
0000
0001
0000
0010
0000
,
0100
0000
1000
0000
0001
0000
1000
0000
0000
0100
0000
0000
0020
0000
0000
0000
0000
0000
0000
0000
0000
0030
0000
0000
1000
0000
0000
0000
0000
0000
0100
0000
0000
0000
0000
0000
0020
0000
0000
0000
0000
0000
0000
0000
0000
0000
0000
0000
,
0230
0000
0000
0000
0000
0000
1300
0100
1000
0010
0100
1000
0100
0010
0001
1000
0100
1000
0100
0010
0001
0010
0000
0000
,
0100
0000
1000
0010
0200
0000
0000
0000
0300
0000
0001
1000
0020
0000
0000
0000
,
0000
0000
0000
0000
0000
0000
0030
0000
0000
0000
0000
0000
0200
0000
0000
0000
0000
0000
0000
0000
0000
0000
0000
0000
0000
0000
0000
0000
0300
0000
0100
0000
0000
0010
0000
0000
0002
0000
0000
0000
0000
0000
0000
0000
0000
0000
0000
0000
,
0003
0000
0000
0000
0100
0000
1000
0000
0010
0000
1000
0100
0010
0000
0000
0100
,
0000
0000
0010
0000
0001
0000
0000
0100
0000
0000
0010
0000
0200
0000
0000
0000
,
0300
0000
0000
0000
1000
0000
0100
0000
0010
0000
0100
0010
0001
0000
0000
0010
,
0000
0100
0020
0000
0230
0000
2300
0000
,
3020
0000
0000
0000
2032
0000
0000
0000
3003
0000
0020
0000
0000
0000
0000
0030
,
0200
0000
0302
0023
0000
0000
2030
0000
,
3200
0000
0000
0000
0301
1000
0100
1000
0100
0010
0001
0010
0100
1000
0100
1000
,
0001
0000
0000
0010
0000
0000
0100
0000
0000
0010
0000
0000
0100
0000
0000
1000
0000
0000
0010
0000
0000
0001
0000
0000
0010
0000
0100
0000
0010
0000
1000
0000
0100
0000
1000
0000
0100
0000
0010
0000
0100
0000
0010
0000
0001
0000
0010
0000
,
0001
0010
0100
1000
0100
0010
1000
0100
0010
0100
1000
0100
0010
0100
1000
0010
1000
0100
0001
0010
0100
1000
0100
0010
,
0002
0000
0000
0003
0000
0000
1000
0100
1000
0100
0010
0001
0020
0000
0000
0000
0000
0030
0001
0010
0001
0010
0100
1000
,
0100
1000
0200
0000
0301
0010
0001
0100
0001
0010
0001
0100
0010
0001
0010
0100
,
0010
0001
0010
0001
0100
0010
0100
1000
0100
0010
0100
0010
1000
0100
1000
0010
,
1000
0100
1000
0010
0100
1000
0200
0000
0000
0000
1300
0000
1000
0010
2000
0000
,
0000
0000
3100
0000
0010
0100
0020
0000
0000
0000
1030
0000
0001
0100
0002
0000
,
0000
0000
1003
0000
0100
0010
0200
0000
0000
0000
1300
0000
0001
0100
0002
0000
,
0000
0000
0103
0000
0010
0001
0020
0000
0000
0000
0230
0300
2002
0000
3003
0000
,
2002
0000
3003
0000
0001
0000
0010
0001
0000
0010
0001
0000
0100
0010
0000
0010
,
0100
0000
1000
0000
0001
0000
0010
0001
0000
0010
0001
0000
0100
0010
0000
0010
,
0100
0000
1000
0000
0001
0000
0010
0001
0000
0010
0001
0000
0100
0010
0000
0010
,
0100
0000
1000
0000
0001
0000
0010
0001
0000
0010
0001
0000
0100
0010
0000
0010
,
0100
0000
1000
0000
0001
0000
0010
0001
0000
0010
0001
0000
0100
0010
0000
0010
,
0100
0000
1000
0000
0001
0000
0010
0001
0000
0010
0001
0000
0100
0010
0000
0010
,
0100
0000
1000
0000
0110
0001
0010
0001
1000
0001
0010
0100
1000
0100
0010
0001
,
1000
0010
0001
0100
1000
0010
0001
0010
1000
0001
0100
0010
0001
0010
0100
1000
,
0001
1000
0100
1000
0210
0000
0010
0000
0000
0000
0010
0000
0000
0000
0010
0000
,
0000
0310
2100
0100
0000
0100
0000
0100
,
0000
3100
0012
0010
0000
0010
0000
0013
,
0200
0310
2001
0001
0000
0001
0000
0001
,
0000
3001
0210
0010
0000
0010
0000
0010
,
0000
0310
2100
0100
0000
0100
0000
0100
,
0000
3100
0012
0010
0000
0010
0000
0013
,
0200
0000
0310
0000
2001
0000
0001
0000
0000
0000
3001
0000
0000
0110
0000
0110
,
1000
0100
0010
0100
1001
0100
0010
0100
0010
0001
0100
0010
0100
1000
0010
1000
,
0010
0100
1000
0100
0011
1000
0010
0100
0010
0001
0100
1000
0001
0010
0100
1000
,
0100
0010
0001
0010
0101
1000
0010
1000
0100
0010
0001
0010
0100
0001
1000
0010
,
0100
0001
0100
0010
2100
0000
0100
0000
0000
0000
0100
0000
0000
0000
0100
0000
,
0000
0000
3100
0000
1001
0010
0100
0010
0100
1000
0010
0100
0010
0001
0100
0001
,
0100
0010
0001
0010
1100
0001
0100
0010
0100
1000
0010
0001
1000
0100
0010
0001
,
0010
0100
1000
0100
2010
0000
0010
0000
0000
0000
0010
0000
0000
0000
0010
0000
,
3002
0000
1003
0000
0120
0000
0100
0000
0000
0000
0130
0000
0000
1001
0000
0110
,
1000
0001
1000
0001
0100
0010
0100
1000
0001
1000
0100
0010
0001
1000
0001
0100
,
0010
1000
0001
0010
0100
1000
0100
1000
0100
1000
0100
1000
0100
1000
0100
1000
,
0100
1000
0100
1000
0010
0001
0100
0001
1000
0001
0010
0100
1000
0001
1000
0010
,
0100
1000
0001
1000
0010
0001
0010
0001
0010
0001
0010
0001
0010
0001
0010
0001
,
0010
0001
0010
0001
1000
0010
1000
0001
0100
0010
0100
1000
0010
1000
0100
0001
,
0100
0010
0001
0010
0100
1000
0010
1000
0100
0001
0100
1000
0001
1000
0100
0010
,
0001
0010
0100
0010
1100
0000
1100
0000
0110
0000
0110
0000
0011
0000
0011
0000
,
0101
0101
1010
1010
1000
1000
0101
0000
,
1000
1000
0101
0000
1000
1000
0011
0000
,
1000
1000
0011
0000
1000
1000
1001
0000
,
1000
1000
1001
0000
1000
1000
0110
0000
,
1000
1000
0110
0000
1000
1000
0101
0000
,
1000
1000
0101
0000
1000
1000
1001
0000
,
1000
1000
1001
0000
1000
1000
0011
0000
,
1000
1000
0011
0000
2001
0000
0001
0000
,
3001
0000
0100
0010
0100
0010
0100
0010
1001
0100
0010
0100
0010
0001
0100
0010
,
0100
1000
0010
1000
0010
0100
1000
0100
0011
1000
0010
0100
0010
0001
0100
1000
,
0001
0010
0100
1000
0100
0010
0001
0010
0101
1000
0010
1000
0100
0010
0001
0010
,
0100
0001
1000
0010
0100
0001
0100
0010
2100
0000
0100
0000
0000
0000
0100
0000
,
0000
0000
0100
0000
0000
0000
3100
0000
1001
0010
0100
0010
0100
1000
0010
0100
,
0010
0001
0100
0001
0100
0010
0001
0010
1100
0001
0100
0010
0100
1000
0010
0001
,
1000
0100
0010
0001
0010
0100
1000
0100
2010
0000
0010
0000
0000
0000
0010
0000
,
0000
0010
3002
1003
0120
0100
0000
0100
,
0031
0000
0000
0000
1100
0000
0000
0000
0000
0000
0000
0000
1100
0000
0000
0000
0000
0000
0000
0000
0000
0001
0000
0000
0120
0000
0000
0000
0000
0000
0100
0000
0000
0000
0000
0000
0000
0000
0000
0000
0000
0000
0100
0000
0000
0000
0000
0000
,
0032
0010
0000
2003
3201
0001
0000
0001
,
0000
0001
0000
0301
0120
0100
0000
0100
,
2030
0100
3200
0010
0321
0001
0032
0010
,
0023
0100
0230
1000
1302
1000
0000
1000
,
0203
0010
0000
2300
3021
0001
0000
0001
,
0000
0001
0000
0031
2010
0010
0000
0010
,
3020
0001
0000
0032
1203
1000
0000
1000
,
0000
1000
0000
1300
0011
0100
0101
1000
,
0110
0100
1001
1000
0101
1000
0110
1000
,
0011
1000
1001
0100
0011
1000
0101
0100
,
0011
1000
0110
1000
0101
1000
1001
0100
,
1001
0010
1001
1000
0011
0100
1001
1000
,
1100
0010
0101
1000
0011
0100
1010
0001
,
0110
0000
0100
0000
1001
0000
1000
0000
0101
0000
0000
1100
0000
0000
0011
0000
,
0110
0000
0000
1001
0000
0000
1100
0000
0110
0000
0000
0011
0000
0000
0110
0000
,
1100
0000
0000
0011
0000
0000
0110
0000
2002
0000
0000
0000
0000
0000
0000
0000
,
0000
3003
0000
0000
0000
0000
0000
0000
;
