#TITLE:Enigma;
#SUBTITLE:;
#ARTIST:Rampant Gammer;
#TITLETRANSLIT:;
#SUBTITLETRANSLIT:;
#ARTISTTRANSLIT:;
#CREDIT:;
#BANNER:../Banner.png;
#BACKGROUND:../BG.png;
#LYRICSPATH:;
#CDTITLE:../CDTitleBRAEDEN.png;
#MUSIC:Enigma.ogg;
#OFFSET:-4.642;
#SAMPLESTART:19.913;
#SAMPLELENGTH:12.000;
#SELECTABLE:YES;
#BPMS:0.000=125.490,16.000=125.294,32.000=125.392,47.750=123.652,48.000=125.375,64.000=125.359,79.750=121.519,80.000=125.359,96.000=128.097,103.750=132.757,104.000=131.579,105.000=133.038,106.000=133.333,107.000=134.228,108.000=135.440,110.000=136.674,112.000=138.889,113.000=139.211,114.000=140.515,115.000=139.535,116.000=141.176,117.000=142.518,118.000=143.198,119.000=142.857,120.000=144.578,121.000=145.278,122.000=146.341,124.000=147.783,125.000=148.515,126.000=149.254,127.000=150.376,128.000=151.508,128.500=151.515,129.500=151.898,130.500=153.452,131.500=154.044,133.500=155.642,135.500=157.274,137.500=159.151,139.500=159.718,141.500=162.382,143.500=163.711,145.500=164.380,147.500=166.667,149.500=167.832,151.500=170.697,153.500=170.474,155.500=172.301,157.500=173.962,159.000=167.100,159.250=176.471,160.250=177.515,161.250=178.572,162.250=180.180,163.000=178.075,163.250=182.112,165.250=183.922,167.250=187.723,169.250=189.916,171.250=193.500,173.250=195.089,175.250=198.376,177.250=201.056,179.250=203.713,181.250=206.053,183.250=208.686,185.250=212.399,187.250=216.998,189.250=217.786,192.000=871.143;
#STOPS:;
#BGCHANGES:;
// cache tags:
#FIRSTBEAT:0.000;
#LASTBEAT:192.000;
#SONGFILENAME:Songs/Index Fusion - Part 2/Enigma - [Braeden]/Enigma.sm;
#HASMUSIC:1;
#HASBANNER:1;
#MUSICLENGTH:88.764;
// end cache tags

//---------------dance-single - ----------------
#NOTES:
     dance-single:
     :
     Beginner:
     5:
     0.319,0.406,0.113,0.023,0.000,186.000,10.000,2.000,0.000,0.000:
0000
0000
0000
0000
,
1000
0000
0000
0000
,
0001
0000
0000
0000
,
0010
0000
0010
0000
,
0100
0100
0100
0100
,
0010
0010
0010
0010
,
1000
1000
0001
0001
,
0100
0010
0100
0000
0001
0010
0001
0000
,
1001
0100
0010
0001
,
1000
0001
0100
0010
,
1000
0100
0010
0001
,
0100
0010
1000
0100
,
0010
0000
0000
0010
0000
0000
0000
0000
,
0001
0000
0000
0001
0000
0000
0000
0000
,
0010
0000
0010
0000
,
0100
1000
0001
0100
,
1001
0001
0010
0001
,
0100
0010
1000
0100
,
0010
0001
0100
0010
,
1000
1000
0001
0001
,
1000
0010
0100
0001
,
0010
0100
1000
0100
,
0010
0010
0001
0001
,
0100
0100
0010
0010
,
1001
0001
0100
0010
,
0100
0001
1000
0001
,
0100
0010
1000
0010
,
0100
0011
0001
0101
,
1000
0100
0010
0011
,
0001
0100
0010
1010
,
1000
0001
0010
0011
,
0001
0100
0010
0110
,
1000
0000
0001
0000
1000
0000
0001
1000
,
0001
0000
0100
0000
0010
0000
0100
0010
,
0100
0000
0001
0000
0010
0000
0001
0010
,
0001
1000
0001
1000
,
0001
0100
0001
0000
0010
0000
0001
0000
,
0100
0001
1000
0000
0001
0000
0100
0000
,
0010
0100
0010
0000
1000
0000
0100
0000
,
0010
0010
0001
0001
,
1000
0100
1000
0100
1000
0100
1000
0000
,
0001
0100
0001
0100
0001
0100
0001
0000
,
1000
0001
1000
0001
1000
0001
1000
0000
,
0010
0010
0100
0100
,
0001
0010
0100
1000
,
0100
0010
0001
0100
,
0020
0000
0000
0000
,
2000
0000
0000
3030
,
1001
0000
0000
0000
;

//---------------dance-single - ----------------
#NOTES:
     dance-single:
     :
     Easy:
     8:
     0.402,0.676,0.034,0.034,0.045,244.000,3.000,3.000,0.000,0.000:
0000
0000
0000
0000
,
0001
0000
0000
0100
0000
0000
0000
0000
,
0010
0000
0000
1000
0000
0000
0000
0000
,
0001
0000
1000
0000
,
0001
0100
0001
0100
0010
1000
0010
1000
,
0001
0010
0001
0010
0100
1000
0100
1000
,
0001
0100
0001
0100
0010
1000
0010
1000
0001
0100
0001
0100
0010
1000
0010
1000
,
0020
2030
3002
1003
,
1001
0001
0100
0010
,
1000
0001
0100
0010
1000
0000
1000
0000
,
0010
0100
1000
0100
0010
0000
1000
0000
,
1000
0010
0100
0010
1000
0000
1000
0000
,
0010
0000
0000
0010
0000
0000
1000
0000
,
0001
0000
0000
0001
0000
0000
0000
0000
,
0100
0100
0010
1000
,
0001
0010
0100
1000
,
1001
0001
0010
0001
,
0100
0000
0010
0000
1000
0100
0010
0000
,
0001
0000
0100
0000
0010
1000
0001
0000
,
0100
0100
0010
0010
,
1000
0001
0100
0010
,
1000
0100
0010
0001
,
0100
0010
1000
0100
,
0010
0010
0001
1000
,
0100
0010
0000
0001
0000
0100
0000
0010
,
0000
1000
0000
0010
0000
0100
0000
0001
,
0000
0010
0000
0100
0000
1000
0000
0100
,
0000
0010
0000
0001
0000
0100
0010
0100
,
0000
0001
0000
0010
0000
0100
0000
1000
,
0000
0100
0000
0010
0000
0001
0000
0100
,
0000
0010
0000
1000
0000
0100
0000
0010
,
0000
0001
0000
0100
0000
0010
0100
0010
,
0000
0100
0000
0001
0000
0010
0000
0100
,
0000
1000
0000
0100
0000
0010
0000
0001
,
0000
0100
0000
0010
0000
1000
0000
0100
,
0000
0010
0000
0001
0000
0100
0010
0100
,
0000
0010
0000
1000
0000
0100
0000
0010
,
0000
0001
0000
0100
0000
0010
0000
1000
,
0000
0100
0000
0010
0000
0001
0000
0100
,
0000
0010
0000
1000
0000
0100
0010
0100
,
0001
0010
0001
0010
0001
0010
0001
0010
,
0001
1000
0001
1000
0001
1000
0001
1000
,
0001
0100
0001
0100
0001
0100
0001
0100
,
0010
1000
0010
1000
0010
1000
0010
1000
,
0001
1000
0001
1000
0001
1000
0001
1000
,
0010
0100
0010
0100
0010
0100
0010
0100
,
0010
1000
0010
1000
0010
1000
0010
1000
,
0001
1000
0001
1000
0001
1000
0001
0000
,
1001
0000
0000
0000
;

//---------------dance-single - ----------------
#NOTES:
     dance-single:
     :
     Medium:
     9:
     0.584,0.784,0.225,0.000,0.203,343.000,20.000,0.000,0.000,0.000:
1000
0001
0000
0000
0000
0000
1000
0001
0000
0000
0000
0000
0000
0000
0000
0000
,
0001
0100
0000
0000
0000
0000
0001
0100
0000
0000
0000
0000
0000
0000
0000
0000
,
0001
1000
0000
0000
0000
0000
0001
1000
0000
0000
0000
0000
0000
0000
0000
0000
,
0001
1000
0000
0010
0000
0100
0001
1000
0001
0100
0000
0010
1000
0000
0001
0000
,
1000
1000
0010
0010
0100
0100
0001
0001
,
0010
0100
1000
0100
0010
0001
0010
0010
,
0001
0100
0010
1000
0001
0010
0100
1000
0001
0100
0010
1000
0100
0010
0001
1000
,
0010
0100
0001
0000
1000
0010
1000
0000
0001
1000
0010
0000
0100
0001
0100
0000
,
0010
0000
1000
0000
0010
0000
1000
0000
0010
1000
0010
0000
1000
0000
0000
0000
,
0001
0100
0001
0010
0001
0100
0001
0000
,
1000
0010
0100
0001
0010
0001
0100
0000
,
0010
1000
0000
0010
0000
0000
1000
0000
0010
1000
0010
1000
0010
0000
0000
0000
,
0100
0000
0000
0001
0000
0000
0100
0000
0000
0000
0000
0000
0010
0000
0000
0000
,
1000
0000
0000
0001
0000
0000
1000
0000
0000
0000
0000
0000
0000
0000
0000
0000
,
0010
0000
0000
0010
0000
0000
0010
0000
0000
0000
0000
0000
0100
0000
0000
0000
,
0001
0010
0100
1001
,
1001
0000
0001
0000
0010
0001
0010
0001
,
0100
0000
1010
0000
0001
0100
0101
0000
,
0010
1000
1010
0000
0100
0001
0101
0000
,
0001
0010
0011
0000
0001
0100
0101
0000
,
0010
1000
1010
0000
0001
0100
0101
0000
,
0001
0010
0011
0000
0001
0100
0101
0000
,
0010
1000
1010
0000
0100
0001
0101
0000
,
0001
0010
0001
0100
0001
1000
0001
0000
,
1000
0100
0010
0001
0010
0100
1000
0001
,
0100
0010
0100
0001
0010
0001
1000
0100
,
0010
0001
0010
0100
1000
0000
1001
0000
,
0001
1000
0000
0001
0000
1000
0000
0001
1000
0000
0000
0000
1001
0000
0001
0000
,
0100
0010
1000
0100
0010
0001
0100
0010
,
1000
0100
0010
0001
0010
0100
1000
0000
,
0001
1001
0010
0110
,
0001
0101
0010
1010
,
1000
0100
0010
0001
0010
0100
1000
0001
,
0100
0010
0100
0001
0010
0001
1000
0100
,
0010
0001
0100
0010
0100
0001
0010
0001
,
1000
0100
0010
0001
0010
0100
1000
0001
,
1000
0100
0010
0001
0010
0100
1000
0001
,
0100
0010
0100
0001
0010
0001
1000
0100
,
0010
0001
0010
0100
1000
0001
0100
0010
,
0100
0001
0010
0001
1000
0100
0010
0001
,
1000
0001
1000
0001
0100
0010
0100
0010
,
1000
0100
0010
0001
0010
0100
1000
0001
,
0100
0010
0100
0001
0010
0001
1000
0100
,
0010
0100
1000
0001
0010
0100
1000
0001
,
0100
0010
0100
0001
0010
0001
1000
0100
,
0010
0001
0010
0100
1000
0001
0100
0010
,
0100
0001
0010
0001
0100
0010
1000
0100
,
0010
0100
1000
0001
0010
0100
1000
0001
,
0100
0000
0000
0000
;

//---------------dance-single - ----------------
#NOTES:
     dance-single:
     :
     Challenge:
     14:
     1.000,1.000,0.259,0.214,1.000,646.000,23.000,19.000,16.000,0.000:

1000
0100
0000
0010
0000
0001
0010
0100
1000
0001
0000
0100
0010
0000
1000
0100
,
0020
0031
0100
0010
0000
1000
0100
0010
0001
0100
0000
0010
2000
3000
0001
0100
,
0020
1030
0100
0010
0000
0001
2000
3010
0100
0001
0000
0100
0020
0030
1000
0100
,
0010
0001
0000
0001
0000
0001
0100
0010
0100
0001
0000
0100
0010
0000
1000
0000
,
M100
0010
M000
0100
M000
0010
M001
0010
0M01
0010
0M00
0001
1M00
0000
0M01
1000
,
00M1
0100
00M1
1000
00M0
0100
10M0
0100
100M
0010
000M
1000
010M
0000
001M
0100
,
1000
0001
0100
0010
1000
0100
0010
0100
1000
0001
0010
0100
1000
0001
0100
0010
,
0100
0010
0100
0010
0100
0000
0010
0000
1000
0001
1000
0001
1000
0000
0010
0000
0100
0001
0100
0001
0100
0000
0010
0000
1000
0100
0010
0100
1000
0001
0100
0010
,
1000
0000
0100
0000
1100
0000
1000
1000
0010
0100
0001
0001
2000
3010
0000
0100
,
0001
0001
1000
0010
0200
0301
0100
0010
1000
0010
0200
0300
0101
0001
0000
1000
,
0010
0000
0010
0000
0100
0000
0001
0000
2000
0000
3010
0000
0100
0000
0100
0000
0001
0000
0000
0000
1000
0001
1000
0000
0010
0000
0100
0000
0000
0000
0001
0000
,
0100
0100
0010
1000
0200
0310
0001
0001
0100
0100
0010
1000
0200
0310
0001
0000
,
1001
0000
1000
0100
0000
0010
0001
0000
1000
0100
0010
0001
1001
0000
0010
0100
,
0001
0000
1000
1000
0000
0010
0100
0001
0100
0010
1000
0010
0200
0300
0001
1000
,
0010
0100
0001
1000
0010
0100
0001
0100
0001
0000
1000
0000
1001
0000
0010
0100
,
0000
0000
0000
0010
0000
0000
0100
0000
0000
0000
0000
0000
1001
0000
0000
0000
0000
0000
0001
0000
0000
0000
0000
0000
1001
0000
0000
0000
0000
0000
1000
0000
0000
0000
0000
0000
0001
0000
0000
0000
0100
0000
0000
0000
0000
0000
0000
0000
,
1001
0001
0000
0100
0000
0010
1000
0100
1000
0001
0000
0100
0010
0000
0004
0403
,
0310
0000
1000
0000
0010
0000
0000
0000
0110
0000
0000
0000
0100
0000
0001
0000
0100
0000
0010
1000
0010
0000
0000
0000
0100
0000
0000
0000
0001
0000
0100
0000
,
0010
1000
0100
0000
1100
0010
0001
0001
1000
0000
0200
0300
0110
0000
0010
0001
,
0100
0010
1000
0010
0200
0301
1000
0010
0100
0001
0010
0000
0010
0100
0000
0000
,
1100
0000
1000
0000
0001
0000
0010
0100
0010
0000
0001
0000
0100
0000
0010
0000
1000
0000
0000
0000
0001
1000
0001
0000
0100
0010
0100
0000
0010
0000
0000
0000
,
1000
0000
0001
0100
0001
0000
1000
0000
0010
0000
0000
0000
0200
0000
0000
0000
0301
0000
1000
0100
1000
0000
0010
0000
0200
0000
0000
0000
0301
0000
1000
0100
,
0010
0001
0010
0000
0100
0000
1000
0001
1000
0000
0010
0100
0010
0000
0000
0000
0100
0001
0100
0000
0010
0000
1000
0000
0020
0000
0030
0000
0100
0001
0100
0000
,
0010
1000
0010
0000
0100
0000
0001
1000
0010
0000
0000
0000
0100
0001
0100
0000
0010
1000
0001
0000
0100
0000
0010
0000
2000
0000
0000
3000
0010
0000
0000
0000
,
0100
0001
0100
0010
1000
1000
0001
0000
1000
0100
0010
0001
1001
0000
0010
0000
,
0100
0001
0100
0010
1000
1000
0010
0000
0100
0001
0100
0010
1010
0000
0100
0000
,
0001
0010
0100
1000
0002
0103
0010
0000
1000
0100
0010
0001
1001
0000
1000
0010
,
0100
0001
0000
0100
0000
0010
1000
0001
0100
0010
0000
1000
0100
0000
0010
0000
,
0001
0100
0010
1000
0100
0010
0001
0000
1000
0100
0000
0010
0011
0000
0001
0100
,
0010
1000
0001
0100
0010
1000
0100
0000
0010
0001
0000
0001
0010
0000
0100
1000
,
0001
0100
0010
1000
0000
0100
0010
0000
0001
0010
0000
0100
1000
0000
0001
0100
,
0010
1000
0000
0001
0000
0100
0010
1000
0100
0010
0000
0001
0100
0000
0010
0000
,
1000
0010
0110
0100
0001
0100
0110
0010
,
1000
0100
1100
1000
0001
0100
0110
0010
,
1000
0010
1010
0100
0001
0100
0101
0010
,
1000
0100
0000
0010
0000
0001
0010
0100
1000
0001
0000
0100
0010
0000
1000
0000
,
0001
0100
0010
1000
0000
0001
0010
0000
0100
1000
0000
0100
0010
0000
0001
0000
,
0100
0010
1000
0001
0000
0100
0010
0000
1000
0100
0010
0001
0010
0000
0100
0000
,
1000
0100
0010
0001
0010
0100
1000
0000
0001
0100
0010
0100
0001
0000
1000
0000
,
0001
0100
0000
0010
0000
1000
0100
0010
0100
1000
0000
0001
0100
0000
0010
0000
,
1000
0100
0010
0001
0010
0100
1000
0001
0100
0010
0100
0001
0010
0001
1000
0100
,
0010
0100
1000
0001
0010
0100
1000
0001
0100
0010
0100
0001
0010
0001
1000
0100
,
0010
0100
1000
0001
0010
0100
1000
0001
0100
0010
0100
0001
0010
0001
1000
0100
,
0010
0001
0010
0100
1000
0001
0100
0010
0100
0001
0010
0001
1000
0100
0010
0100
,
1000
0001
0100
0010
0100
0001
0010
0001
1000
0100
0010
0100
1000
0001
0100
0010
,
1000
0100
0010
0100
1000
0001
0010
0100
1000
0001
0100
0010
0100
0001
0010
0001
,
1000
0100
0010
0100
1000
0001
0010
0100
1000
0001
0100
0010
0100
0001
0010
0001
,
1000
0100
0010
0100
1000
0001
0010
0100
1000
0001
0010
0100
1000
0100
0010
0100
,
0010
0000
0000
0000
;
