#TITLE:Lively Passion!;
#SUBTITLE:(DJ SHARPNEL Hardrave Remix);
#ARTIST:民安★ROCK;
#TITLETRANSLIT:;
#SUBTITLETRANSLIT:;
#ARTISTTRANSLIT:People Depreciation ★ ROCK;
#CREDIT:owenviau1;
#BANNER:BN.png;
#BACKGROUND:BG.png;
#LYRICSPATH:;
#CDTITLE:../CDTitleOV1.png;
#MUSIC:Lively Passion! (DJ SHARPNEL Hardrave Remix).mp3;
#OFFSET:-1.175;
#SAMPLESTART:126.783;
#SAMPLELENGTH:29.999;
#SELECTABLE:YES;
#BPMS:0.000=230.000;
#STOPS:;
#BGCHANGES:;
// cache tags:
#FIRSTBEAT:1.000;
#LASTBEAT:969.000;
#SONGFILENAME:Songs/owenviau1 (2016) (Pad & Index)/Lively Passion! - [owenviau1] v1.0.1/Lively Passion!.sm;
#HASMUSIC:1;
#HASBANNER:1;
#MUSICLENGTH:265.093;
// end cache tags

//---------------dance-single - 21.38 (21) (owenviau----------------
#NOTES:
     dance-single:
     21.38 (21) (owenviau:
     Challenge:
     21:
     1.000,1.000,0.023,0.041,1.000,3266.000,6.000,11.000,0.000,0.000:
0000
0000
1000
0100
0010
0001
0100
0010
,
1000
0001
0100
0001
0010
0100
1000
0010
,
0100
0001
0010
0001
0100
0010
1000
0010
,
0100
0001
1000
0100
0010
0001
0100
0010
,
1000
0001
0100
0001
0010
0100
1000
0010
,
0100
0001
1000
0010
1000
0100
0010
0001
,
0100
0010
1000
0001
1000
0100
0010
0001
,
1000
0001
0010
0100
1000
0010
0100
0001
,
0100
0010
1000
0100
0010
0001
0100
0010
,
1000
0010
0100
0001
0010
0100
1000
0010
,
0100
0001
0100
0010
1000
0001
1000
0100
,
0010
0001
0100
0010
1000
0001
0100
0010
,
0100
0001
1001
1000
0100
0010
0001
0100
,
0010
1000
0010
0100
0001
1000
0100
0010
,
0001
0100
0010
1000
0001
0010
0100
1000
,
0010
0100
0001
0100
0010
1000
0001
0010
,
0100
0000
0000
0000
0000
0000
0000
0000
0000
0000
1000
0000
0000
0000
0000
0000
0000
0000
0000
0001
0000
0000
0000
0000
0000
0000
0000
0000
0000
0100
0000
0000
0000
0000
0000
0000
0000
0000
0010
0000
0000
0000
0000
0000
0000
0000
0000
0000
1000
0000
0000
0000
0000
0000
0000
0000
0000
0000
0000
0000
0001
0000
0000
0000
0000
0000
0000
0000
0000
0000
0000
0000
0010
0000
0000
0000
0000
0000
0000
0000
0000
0000
0000
0000
0100
0000
0000
0000
0000
0000
0000
0000
0000
0000
0000
0000
1000
0000
0000
0000
0000
0000
0000
0000
0000
0000
0000
0000
0010
0000
0000
0000
0000
0000
0000
0000
0000
0000
0000
0000
0100
0000
0000
0000
0000
0000
0000
0000
0000
0000
0000
0000
0001
0000
0000
0000
0000
0000
0000
0000
0000
0000
0000
0000
0100
0000
0000
0000
0000
0000
0000
0000
0000
0000
0000
0000
0010
0000
0000
0000
0000
0000
0000
0000
0000
0000
0000
0000
1000
0000
0000
0000
0000
0000
0000
0000
0000
0000
0000
0000
0100
0000
0000
0000
0000
0000
0000
0000
0000
0000
0000
0000
,
0010
0001
0100
0010
1000
0001
0010
0100
1000
0010
0100
0010
1000
0100
0010
0001
,
0100
0010
1000
0001
0010
0100
1000
0001
0100
0010
0100
0001
1000
0100
0010
0001
,
0100
0010
1000
0001
0100
0001
0010
0100
1000
0010
0100
0001
1000
0100
0010
0001
,
0100
0010
0100
0001
1000
0010
0100
0001
0010
0100
1000
0010
0100
0010
1000
0100
,
0010
0001
0100
0001
1000
0010
0100
0010
1000
0001
0010
0100
1000
0010
0100
0001
,
0100
0010
1000
0100
0010
0001
0100
0010
1000
0001
0010
0100
1000
0010
0100
0010
,
1000
0100
0010
0001
0100
0010
1000
0001
0010
0100
1000
0001
0100
0010
0100
0001
,
1000
0100
0010
0001
0100
0010
1000
0001
0100
0001
0010
0100
1000
0010
0100
0001
,
1000
0100
0010
0001
0100
0010
0100
0001
1000
0010
0100
0001
0010
0100
1000
0010
,
0100
0010
1000
0100
0010
0001
0100
0001
1000
0010
0100
0010
1000
0100
0010
0001
,
0100
0010
1000
0001
0100
0001
0010
0100
1000
0010
0100
0010
1000
0001
0100
0010
,
0100
0001
1000
0100
0010
0001
1000
0010
1000
0001
0010
0001
0100
0010
1000
0100
,
0010
0001
1000
0010
1000
0001
0100
0001
0010
0100
1000
0010
0100
0001
1000
0100
,
0010
0001
0100
0010
1000
0001
0010
0100
1000
0001
0100
0001
0010
0100
1000
0010
,
0100
0001
0100
0010
2000
3000
0001
0000
0200
0300
0001
0000
0020
0030
0100
0000
,
2000
0000
0000
0000
0000
0000
0000
0000
0000
0000
0010
0000
3000
0000
0000
0000
0000
0000
0000
0100
0000
0000
0000
0000
0000
0000
0000
0000
0000
0001
0000
0000
0000
0000
0000
0000
0000
0000
1000
0000
0000
0000
0000
0000
0000
0000
0000
0000
0001
0000
0000
0000
0000
0000
0000
0000
0000
0000
0000
0000
0010
0000
0000
0000
0000
0000
0000
0000
0000
0000
0000
0000
0100
0000
0000
0000
0000
0000
0000
0000
0000
0000
0000
0000
1000
0000
0000
0000
0000
0000
0000
0000
0000
0000
0000
0000
0010
0000
0000
0000
0000
0000
0000
0000
0000
0000
0000
0000
0100
0000
0000
0000
0000
0000
0000
0000
0000
0000
0000
0000
0001
0000
0000
0000
0000
0000
0000
0000
0000
0000
0000
0000
0100
0000
0000
0000
0000
0000
0000
0000
0000
0000
0000
0000
0010
0000
0000
0000
0000
0000
0000
0000
0000
0000
0000
0000
1000
0000
0000
0000
0000
0000
0000
0000
0000
0000
0000
0000
0100
0000
0000
0000
0000
0000
0000
0000
0000
0000
0000
0000
0010
0000
0000
0000
0000
0000
0000
0000
0000
0000
0000
0000
,
0001
0100
0010
1000
0001
0010
0100
1000
0010
0100
0010
1000
0100
0010
0001
0100
,
0010
1000
0010
0100
0001
1000
0010
0100
0010
1000
0001
1000
0100
0010
0001
0100
,
0010
1000
0001
0100
0001
0010
0100
1000
0010
0100
0001
1000
0100
0010
0001
0100
,
0010
0100
0001
1000
0010
0100
0001
0010
0100
1000
0010
0100
0010
1000
0100
0010
,
0001
0100
0001
1000
0010
0100
0010
1000
0100
0010
0001
0100
0010
1000
0001
0100
,
0001
0010
0100
1000
0010
0100
0010
1000
0001
0100
0010
0100
0001
1000
0100
0010
,
0001
1000
0010
1000
0001
0010
0001
0100
0010
1000
0100
0010
0001
1000
0010
1000
,
0001
0100
0001
0010
0100
1000
0010
0100
0001
1000
0100
0010
0001
0100
0010
1000
,
0001
0010
0100
1000
0001
0100
0001
0010
0100
1000
0010
0100
0001
0100
0010
1000
,
0001
1000
0010
0100
0001
1000
0100
0010
0001
0100
0010
1000
0001
0010
0001
0100
,
0010
1000
0001
0010
0100
1000
0010
0100
0001
0100
0010
1000
0100
0010
0001
0100
,
0010
1000
0001
0010
0100
1000
0010
0100
0010
1000
0100
0010
0001
0100
0010
1000
,
0001
0010
0100
1000
0001
0100
0010
0100
0001
1000
0100
0010
0001
0100
0010
1000
,
0001
0100
0001
0010
0100
1000
0010
0100
0001
1000
0100
0010
0001
0100
0010
0100
,
0001
1000
0010
0100
0001
0010
0100
1000
0010
0100
0010
1000
0100
0010
0001
0100
,
0001
1000
0010
0100
0010
1000
0100
0010
0001
0100
0010
1000
0001
0100
0001
0010
,
0100
1000
0010
0100
0010
1000
0001
0100
0010
0100
0001
1000
0100
0010
0001
1000
,
0010
0100
0001
0010
0001
0100
0010
1000
0100
0010
0001
1000
0010
1000
0001
0100
,
0001
0010
0100
1000
0010
0100
0001
1000
0100
0010
0001
0100
0010
1000
0001
0010
,
0100
1000
0001
0100
0001
0010
0100
1000
0010
0100
0001
0100
0010
1000
0001
1000
,
0010
0100
0001
1000
0100
0010
0001
0100
0010
1000
0001
0010
0001
0100
0010
1000
,
0001
0100
0001
0010
0100
1000
0010
0100
0001
0010
0100
1000
0010
0100
0001
0100
,
0010
1000
0100
0010
0001
0100
0010
1000
0001
0010
0100
1000
0010
0100
0010
1000
,
0100
0010
0001
0100
0010
1000
0001
0010
0100
1000
0001
0100
0010
0100
0001
1000
,
0100
0010
0001
0100
0010
1000
0001
0100
0001
0010
0100
1000
0010
0100
0001
1000
,
0100
0010
0001
0100
0010
0100
0001
1000
0010
0100
0001
0010
0100
1000
0010
0100
,
0010
1000
0100
0010
0001
0100
0001
1000
0010
0100
0010
1000
0100
0010
0001
0100
,
0010
1000
0001
0100
0001
0010
0100
1000
0010
0100
0010
1000
0001
0100
0010
0100
,
0001
1000
0100
0010
0001
1000
0010
1000
0001
0010
0001
0100
0010
1000
0100
0010
,
0001
1000
0010
1000
0001
0100
0001
0010
0100
1000
0010
0100
0001
1000
0100
0010
,
0001
0100
0010
1000
0001
0010
0100
1000
0001
0100
0001
0010
0100
1000
0010
0100
,
0001
0100
0010
1000
0001
0010
0100
1000
0010
0100
0001
0100
0010
1000
0001
1000
,
0100
0010
0001
0100
0010
1000
0010
0100
0001
0010
0100
1000
0010
0100
0001
1000
,
0100
1000
0001
0010
0100
1000
0010
0100
0001
0100
0010
1000
0010
0100
0001
1000
,
0100
0010
0001
1000
0010
0100
0001
0010
0100
1000
0001
1000
0100
0010
0001
1000
,
0100
1000
0010
0100
0010
1000
0001
0100
0001
1000
0010
0100
0001
1000
0100
0010
,
0001
0100
0010
1000
0100
0010
0001
0100
0010
0100
0001
1000
0100
0010
0001
0100
,
0010
1000
0001
0100
0001
0010
0100
1000
0010
0100
0001
0100
0010
1000
0100
0010
,
0001
0100
0010
1000
0001
0010
0100
1000
0010
0100
0010
1000
0100
0010
0001
0100
,
0010
1000
0001
0010
0100
1000
0001
0100
0010
0100
0001
1000
0100
0010
0001
0100
,
0010
1000
0001
0100
0001
0010
0100
1000
0010
0100
0001
1000
0100
0010
0001
0100
,
0010
0100
0001
1000
0010
0100
0001
0010
0100
1000
0010
0100
0010
1000
0100
0010
,
0001
0100
0001
1000
0010
0100
0010
1000
0100
0010
0001
0100
0010
1000
0001
0100
,
0001
0010
0100
1000
0010
0100
0010
1000
0001
0100
0010
0100
0001
1000
0100
0010
,
0001
1000
0010
1000
0001
0010
0001
0100
0010
1000
0100
0010
0001
1000
0010
1000
,
0001
0100
0001
0010
0100
1000
0010
0100
0001
1000
0100
0010
0001
0100
0010
1000
,
0001
0010
0100
1000
0001
0100
0001
0010
0100
1000
0010
0100
0001
0100
0010
1000
,
0001
1000
0010
0100
0001
1000
0100
0010
0001
0100
0010
1000
0001
0010
0001
0100
,
0010
1000
0001
0100
0001
0010
0100
1000
0010
0100
0001
0100
0010
1000
0100
0010
,
0001
0100
0010
1000
0001
0010
0100
1000
0010
0100
0010
1000
0100
0010
0001
0100
,
0010
1000
0001
0010
0100
1000
0001
0100
0010
0100
0001
1000
0100
0010
0001
0100
,
0010
1000
0001
0100
0001
0010
0100
1000
0010
0100
0001
1000
0100
0010
0001
0100
,
0010
0100
0001
1000
0010
0100
0001
0010
0100
1000
0010
0100
0010
1000
0100
0010
,
0001
0100
0001
1000
0010
0100
0010
1000
0100
0010
0001
0100
0010
1000
0001
0100
,
0001
0010
0100
1000
0010
0100
0010
1000
0001
0100
0010
0100
0001
1000
0100
0010
,
0001
1000
0010
1000
0001
0010
0001
0100
0010
1000
0100
0010
0001
1000
0010
1000
,
0001
0100
0001
0010
0100
1000
0010
0100
0001
1000
0100
0010
0001
0100
0010
1000
,
0001
0010
0100
1000
0001
0100
0001
0010
0100
1000
0010
0100
0001
0100
0010
1000
,
0001
1000
0010
0100
0001
1000
0100
0010
0001
0100
0010
1000
0001
0010
0001
0100
,
0010
1000
0001
0100
0001
0010
0100
1000
0001
0010
0100
1000
0010
0100
0001
0100
,
0010
1000
0100
0010
0001
0100
0010
1000
0001
0010
0100
1000
0010
0100
0010
1000
,
0100
0010
0001
0100
0010
1000
0001
0010
0100
1000
0001
0100
0010
0100
0001
1000
,
0100
0010
0001
0100
0010
1000
0001
0100
0001
0010
0100
1000
0010
0100
0001
1000
,
0100
0010
0001
0100
0010
0100
0001
1000
0010
0100
0001
0010
0100
1000
0010
0100
,
0010
1000
0100
0010
0001
0100
0001
1000
0010
0100
0010
1000
0100
0010
0001
0100
,
0010
1000
0001
0100
0001
0010
0100
1000
0010
0100
0010
1000
0001
0100
0010
0100
,
0001
1000
0100
0010
0001
1000
0010
1000
0001
0010
0001
0100
0010
1000
0100
0010
,
0001
1000
0010
1000
0001
0100
0001
0010
0100
1000
0010
0100
0001
1000
0100
0010
,
0001
0100
0010
1000
0001
0010
0100
1000
0001
0100
0001
0010
0100
1000
0010
0100
,
0001
0100
0010
1000
0001
1000
0010
0100
0001
1000
0100
0010
0001
0100
0010
1000
,
0001
0010
0001
0100
0010
0000
1000
0000
0100
0000
1000
0000
0001
0000
0100
0000
,
0010
0000
0000
0000
0000
0000
0000
0000
0000
0000
1000
0000
0000
0000
0000
0000
0000
0000
0000
0001
0000
0000
0000
0000
0000
0000
0000
0000
0000
0010
0000
0000
0000
0000
0000
0000
0000
0000
0100
0000
0000
0000
0000
0000
0000
0000
0000
0000
1000
0000
0000
0000
0000
0000
0000
0000
0000
0000
0000
0000
0000
0000
0000
0000
0000
0000
0000
0000
0000
0000
0000
0000
0010
0000
0000
0000
0000
0000
0000
0000
0000
0000
0000
0000
0000
0000
0000
0000
0000
0000
0000
0000
0000
0000
0000
0000
0100
0000
0000
0000
0000
0000
0000
0000
0000
0000
0000
0000
0000
0000
0000
0000
0000
0000
0000
0000
0000
0000
0000
0000
0001
0000
0000
0000
0000
0000
0000
0000
0000
0000
0000
0000
0000
0000
0000
0000
0000
0000
0000
0000
0000
0000
0000
0000
0010
0000
0000
0000
0000
0000
0000
0000
0000
0000
0000
0000
0000
0000
0000
0000
0000
0000
0000
0000
0000
0000
0000
0000
0100
0000
0000
0000
0000
0000
0000
0000
0000
0000
0000
0000
0000
0000
0000
0000
0000
0000
0000
0000
0000
0000
0000
0000
,
1000
0010
0100
0010
1000
0001
0100
0010
,
1000
0100
0010
0001
1000
0010
0100
0001
,
0010
0100
1000
0001
0010
0001
0100
0010
,
2000
0000
0000
3000
0101
0000
0001
0000
0010
0000
0100
0000
1000
0000
0010
0000
,
0100
0001
1000
0010
1000
0001
0100
0001
,
1000
0100
0010
0001
0100
0010
1000
0001
,
0010
0100
1000
0010
0100
0010
1000
0001
,
0200
0000
0000
0300
1010
0000
1000
0000
0001
0000
0010
0000
0100
0000
1000
0000
,
0010
0100
0010
1000
0001
0100
0001
0010
,
0100
1000
0010
0100
0001
1000
0100
0010
,
0001
1000
0010
1000
0001
0100
0010
0100
,
0001
1000
0100
0010
0001
1000
0010
0100
,
0001
0010
0100
1000
0001
0010
0001
0100
,
0010
1000
0100
0010
0001
1000
0010
1000
,
0001
0100
0010
1000
0100
0010
0001
0100
,
0010
0000
0000
0000
0000
0000
0000
0000
0000
0000
1000
0000
0000
0000
0000
0000
0000
0000
0000
0100
0000
0000
0000
0000
0000
0000
0000
0000
0000
0010
0000
0000
0000
0000
0000
0000
0000
0000
0001
0000
0000
0000
0000
0000
0000
0000
0000
0000
1000
0000
0000
0000
0000
0000
0000
0000
0000
0000
0000
0000
0010
0000
0000
0000
0000
0000
0000
0000
0000
0000
0000
0000
0100
0000
0000
0000
0000
0000
0000
0000
0000
0000
0000
0000
0001
0000
0000
0000
0000
0000
0000
0000
0000
0000
0000
0000
1000
0000
0000
0000
0000
0000
0000
0000
0000
0000
0000
0000
0010
0000
0000
0000
0000
0000
0000
0000
0000
0000
0000
0000
0100
0000
0000
0000
0000
0000
0000
0000
0000
0000
0000
0000
0001
0000
0000
0000
0000
0000
0000
0000
0000
0000
0000
0000
0100
0000
0000
0000
0000
0000
0000
0000
0000
0000
0000
0000
0010
0000
0000
0000
0000
0000
0000
0000
0000
0000
0000
0000
1000
0000
0000
0000
0000
0000
0000
0000
0000
0000
0000
0000
0100
0000
0000
0000
0000
0000
0000
0000
0000
0000
0000
0000
,
0010
0001
0100
0010
1000
0001
0010
0100
1000
0010
0100
0010
1000
0100
0010
0001
,
0100
0010
1000
0001
0010
0100
1000
0001
0100
0010
0100
0001
1000
0100
0010
0001
,
0100
0010
1000
0001
0100
0001
0010
0100
1000
0010
0100
0001
1000
0100
0010
0001
,
0100
0010
0100
0001
1000
0010
0100
0001
0010
0100
1000
0010
0100
0010
1000
0100
,
0010
0001
0100
0001
1000
0010
0100
0010
1000
0001
0010
0100
1000
0010
0100
0001
,
0100
0010
1000
0100
0010
0001
0100
0010
1000
0001
0010
0100
1000
0010
0100
0010
,
1000
0100
0010
0001
0100
0010
1000
0001
0010
0100
1000
0001
0100
0010
0100
0001
,
1000
0100
0010
0001
0100
0010
1000
0001
0100
0001
0010
0100
1000
0010
0100
0001
,
1000
0100
0010
0001
0100
0010
0100
0001
1000
0010
0100
0001
0010
0100
1000
0010
,
0100
0010
1000
0100
0010
0001
0100
0001
1000
0010
0100
0010
1000
0100
0010
0001
,
0100
0010
1000
0001
0100
0001
0010
0100
1000
0010
0100
0010
1000
0001
0100
0010
,
0100
0001
1000
0100
0010
0001
1000
0010
1000
0001
0010
0001
0100
0010
1000
0100
,
0010
0001
1000
0010
1000
0001
0100
0001
0010
0100
1000
0010
0100
0001
1000
0100
,
0010
0001
0100
0010
1000
0001
0010
0100
1000
0001
0100
0001
0010
0100
1000
0010
,
0100
0001
0100
0010
1000
0001
0010
0100
1000
0010
0100
0001
0100
0010
1000
0100
,
0010
0001
0100
0010
1000
0001
0010
0100
1000
0010
0100
0010
1000
0100
0010
0001
,
0100
0010
1000
0001
0010
0100
1000
0001
0100
0010
0100
0001
1000
0100
0010
0001
,
0100
0010
1000
0001
0100
0001
0010
0100
1000
0010
0100
0001
1000
0100
0010
0001
,
0100
0010
0100
0001
1000
0010
0100
0001
0010
0100
1000
0010
0100
0010
1000
0100
,
0010
0001
0100
0001
1000
0010
0100
0010
1000
0001
0010
0100
1000
0010
0100
0001
,
0100
0010
1000
0100
0010
0001
0100
0010
1000
0001
0010
0100
1000
0010
0100
0010
,
1000
0100
0010
0001
0100
0010
1000
0001
0010
0100
1000
0001
0100
0010
0100
0001
,
1000
0100
0010
0001
0100
0010
1000
0001
0100
0001
0010
0100
1000
0010
0100
0001
,
1000
0100
0010
0001
0100
0010
0100
0001
1000
0010
0100
0001
0010
0100
1000
0010
,
0100
0010
1000
0100
0010
0001
0100
0001
1000
0010
0100
0010
1000
0100
0010
0001
,
0100
0010
1000
0001
0100
0001
0010
0100
1000
0010
0100
0010
1000
0001
0100
0010
,
0100
0001
1000
0100
0010
0001
1000
0010
1000
0001
0010
0001
0100
0010
1000
0100
,
0010
0001
1000
0010
1000
0001
0100
0001
0010
0100
1000
0010
0100
0001
1000
0100
,
0010
0001
0100
0010
1000
0001
0010
0100
1000
0001
0100
0001
0010
0100
1000
0010
,
0100
0001
0100
0010
1000
0001
0010
0100
1000
0010
0100
0001
0100
0010
1000
0100
,
0010
0001
0100
0010
1000
0001
0010
0100
1000
0010
0100
0010
1000
0100
0010
0001
,
0100
0010
1000
0001
0010
0100
1000
0001
0100
0010
0100
0001
1000
0100
0010
0001
,
0100
0010
1000
0001
0100
0001
0010
0100
1000
0010
0100
0001
1000
0100
0010
0001
,
0100
0010
0100
0001
1000
0010
0100
0001
0010
0100
1000
0010
0100
0010
1000
0100
,
0010
0001
0100
0001
1000
0010
0100
0010
1000
0001
0010
0100
1000
0010
0100
0001
,
0100
0010
1000
0100
0010
0001
0100
0010
1000
0001
0010
0100
1000
0010
0100
0010
,
1000
0100
0010
0001
0100
0010
1000
0001
0010
0100
1000
0001
0100
0010
0100
0001
,
1000
0100
0010
0001
0100
0010
1000
0001
0100
0001
0010
0100
1000
0010
0100
0001
,
1000
0100
0010
0001
0100
0010
0100
0001
1000
0010
0100
0001
0010
0100
1000
0010
,
0100
0000
0000
0000
0000
0000
0000
0000
0000
0000
0001
0000
0000
0000
0000
0000
0000
0000
0000
1000
0000
0000
0000
0000
0000
0000
0000
0000
0000
0100
0000
0000
0000
0000
0000
0000
0000
0000
0010
0000
0000
0000
0000
0000
0000
0000
0000
0000
0001
0000
0000
0000
0000
0000
0000
0000
0000
0000
0000
0000
0000
0000
0000
0000
0000
0000
0000
0000
0000
0000
0000
0000
0100
0000
0000
0000
0000
0000
0000
0000
0000
0000
0000
0000
0000
0000
0000
0000
0000
0000
0000
0000
0000
0000
0000
0000
0010
0000
0000
0000
0000
0000
0000
0000
0000
0000
0000
0000
0000
0000
0000
0000
0000
0000
0000
0000
0000
0000
0000
0000
1000
0000
0000
0000
0000
0000
0000
0000
0000
0000
0000
0000
0000
0000
0000
0000
0000
0000
0000
0000
0000
0000
0000
0000
0001
0000
0000
0000
0000
0000
0000
0000
0000
0000
0000
0000
0000
0000
0000
0000
0000
0000
0000
0000
0000
0000
0000
0000
0100
0000
0000
0000
0000
0000
0000
0000
0000
0000
0000
0000
0000
0000
0000
0000
0000
0000
0000
0000
0000
0000
0000
0000
,
0001
0010
0100
1000
0010
0100
0001
1000
,
0100
0000
0010
0001
1000
0010
0100
0010
,
1000
0001
0100
0001
0010
0100
1000
0010
,
1000
0000
0100
0010
0001
0100
0010
1000
,
0010
0100
0001
1000
0100
0010
0001
0100
,
0010
0000
1000
0001
0100
0010
1000
0100
,
0010
0001
1000
0010
1000
0001
0100
0010
,
1000
0000
1001
1000
0010
0100
0001
1000
,
0001
0010
0100
1000
0010
0100
0001
1000
,
0100
0000
0010
0001
1000
0010
0100
0010
,
1000
0001
0100
0001
0010
0100
1000
0010
,
1000
0000
0100
0010
0001
0100
0010
1000
,
0010
0100
0001
1000
0100
0010
0001
0100
,
0010
0000
1000
0001
0100
0010
1000
0100
,
0010
0001
1000
0010
1000
0001
0100
0010
,
1000
0000
0101
0001
1000
0010
0100
0001
,
1000
0100
0010
0001
0100
0010
1000
0001
,
0010
0100
1000
0010
0100
0010
1000
0001
,
0100
0001
0010
0100
1000
0010
0100
0001
,
1000
0100
1000
0010
0100
0001
0010
0100
,
1000
0001
0010
0001
0100
0010
1000
0001
,
0010
0100
1000
0010
0100
0001
1000
0100
,
0010
0001
0100
0001
1000
0010
0100
0001
,
1000
0100
0010
0001
0100
0010
1000
0001
,
0010
0001
0100
0010
1000
0001
0100
0001
,
0010
0100
1000
0010
0100
0001
1000
0100
,
0010
0001
1000
0010
1000
0001
0100
0010
,
1000
0001
0010
0001
1000
0100
0010
0001
,
0100
0010
1000
0001
0100
0001
1000
0100
,
0010
0001
0100
0010
1000
0001
0010
0100
,
1000
0010
0100
0010
1000
0100
0010
0001
,
0100
0010
1001
1000
0100
0010
0001
0100
,
0010
1000
0010
0100
0001
0010
0001
1000
,
0100
0010
0001
0100
0010
1000
0001
0100
,
0001
0010
0100
1000
0010
0100
0001
1000
,
0100
0010
0001
1000
0010
1000
0001
0100
,
0001
0010
0100
1000
0010
0100
0001
1000
,
0100
1000
0010
0100
0001
0010
0001
1000
,
0010
1000
0100
0010
0001
0100
0010
1000
,
0100
0000
0000
0000
0000
0000
0000
0000
0000
0000
0010
0000
0000
0000
0000
0000
0000
0000
0000
0001
0000
0000
0000
0000
0000
0000
0000
0000
0000
0100
0000
0000
0000
0000
0000
0000
0000
0000
0010
0000
0000
0000
0000
0000
0000
0000
0000
0000
2000
0000
0000
0000
0000
0000
0000
0000
0000
0000
0000
0000
0000
0000
0000
0000
0000
0000
0000
0000
0000
0000
0000
0000
0000
0000
0000
0000
0000
0000
0000
0000
0000
0000
0000
0000
0000
0000
0000
0000
0000
0000
0000
0000
0000
0000
0000
0000
0000
0000
0000
0000
0000
0000
0000
0000
0000
0000
0000
0000
0000
0000
0000
0000
0000
0000
0000
0000
0000
0000
0000
0000
0000
0000
0000
0000
0000
0000
0000
0000
0000
0000
0000
0000
0000
0000
0000
0000
0000
0000
0000
0000
0000
0000
0000
0000
3002
0000
0000
0000
0000
0000
0000
0000
0000
0000
0000
0000
0000
0000
0000
0000
0000
0000
0000
0000
0000
0000
0000
0000
0000
0000
0000
0000
0000
0000
0000
0000
0000
0000
0000
0000
0000
0000
0000
0000
0000
0000
0000
0000
0000
0000
0000
0000
,
0003
0000
0000
0000
0200
0000
0000
0300
0020
0000
0000
0030
2000
0000
0000
3000
,
0001
0000
0000
0000
0000
0000
0000
0000
0000
0000
0010
0000
0000
0000
0000
0000
0000
0000
0000
0100
0000
0000
0000
0000
0000
0000
0000
0000
0000
1000
0000
0000
0000
0000
0000
0000
0000
0000
0010
0000
0000
0000
0000
0000
0000
0000
0000
0000
0100
0000
0000
0000
0000
0000
0000
0000
0000
0000
0000
0000
0010
0000
0000
0000
0000
0000
0000
0000
0000
0000
0000
0000
1000
0000
0000
0000
0000
0000
0000
0000
0000
0000
0000
0000
0001
0000
0000
0000
0000
0000
0000
0000
0000
0000
0000
0000
0010
0000
0000
0000
0000
0000
0000
0000
0000
0000
0000
0000
0100
0000
0000
0000
0000
0000
0000
0000
0000
0000
0000
0000
1000
0000
0000
0000
0000
0000
0000
0000
0000
0000
0000
0000
0100
0000
0000
0000
0000
0000
0000
0000
0000
0000
0000
0000
0010
0000
0000
0000
0000
0000
0000
0000
0000
0000
0000
0000
0001
0000
0000
0000
0000
0000
0000
0000
0000
0000
0000
0000
0100
0000
0000
0000
0000
0000
0000
0000
0000
0000
0000
0000
0010
0000
0000
0000
0000
0000
0000
0000
0000
0000
0000
0000
,
1000
0001
0010
0100
1000
0001
0100
0010
1000
0100
0010
0001
0100
0010
1000
0001
,
0010
0100
1000
0001
0100
0010
0100
0001
1000
0100
0010
0001
0100
0010
1000
0001
,
0100
0001
0010
0100
1000
0010
0100
0001
1000
0100
0010
0001
0100
0010
0100
0001
,
1000
0010
0100
0001
0010
0100
1000
0010
0100
0010
1000
0100
0010
0001
0100
0001
,
1000
0010
0100
0010
1000
0001
0010
0100
1000
0010
0100
0001
0100
0010
1000
0100
,
0010
0001
0100
0010
1000
0001
0010
0100
1000
0010
0100
0010
1000
0100
0010
0001
,
0100
0010
1000
0001
0010
0100
1000
0001
0100
0010
0100
0001
1000
0100
0010
0001
,
0100
0010
1000
0001
0100
0001
0010
0100
1000
0010
0100
0001
1000
0100
0010
0001
,
0100
0010
0100
0001
1000
0010
0100
0001
0010
0100
1000
0010
0100
0010
1000
0100
,
0010
0001
0100
0001
1000
0010
0100
0010
1000
0100
0010
0001
0100
0010
1000
0001
,
0100
0001
0010
0100
1000
0010
0100
0010
1000
0001
0100
0010
0100
0001
1000
0100
,
0010
0001
1000
0010
1000
0001
0010
0001
0100
0010
1000
0100
0010
0001
1000
0010
,
1000
0001
0100
0001
0010
0100
1000
0010
0100
0001
1000
0100
0010
0001
0100
0010
,
1000
0001
0010
0100
1000
0001
0100
0001
0010
0100
1000
0010
0100
0001
0100
0010
,
1000
0010
0100
0001
0100
0010
1000
0100
0010
0001
0100
0010
1000
0001
0010
0100
,
1000
0010
0100
0010
1000
0100
0010
0001
0100
0010
1000
0001
0010
0100
1000
0001
,
0100
0010
0100
0001
1000
0100
0010
0001
0100
0010
1000
0001
0100
0001
0010
0100
,
1000
0010
0100
0001
1000
0100
0010
0001
0100
0010
0100
0001
1000
0010
0100
0001
,
0010
0100
1000
0010
0100
0010
1000
0100
0010
0001
0100
0001
1000
0010
0100
0010
,
1000
0001
0010
0100
1000
0010
0100
0001
0100
0010
1000
0100
0010
0001
0100
0010
,
1000
0001
0010
0100
1000
0010
0100
0010
1000
0100
0010
0001
0100
0010
1000
0001
,
0010
0100
1000
0001
0100
0010
0100
0001
1000
0100
0010
0001
0100
0010
1000
0001
,
0100
0001
0010
0100
1000
0010
0100
0001
1000
0100
0010
0001
0100
0010
0100
0001
,
1000
0010
0100
0001
0010
0100
1000
0010
0100
0010
1000
0100
0010
0001
0100
0001
,
1000
0010
0100
0010
1000
0100
0010
0001
0100
0010
1000
0001
0100
0001
0010
0100
,
1000
0010
0100
0010
1000
0001
0100
0010
0100
0001
1000
0100
0010
0001
1000
0010
,
1000
0001
0010
0001
0100
0010
1000
0100
0010
0001
1000
0010
1000
0001
0100
0001
,
0010
0100
1000
0010
0100
0001
1000
0100
0010
0001
0100
0010
1000
0001
0010
0100
,
1000
0010
0100
0001
0100
0010
1000
0100
0010
0001
0100
0010
1000
0001
0010
0100
,
1000
0010
0100
0010
1000
0100
0010
0001
0100
0010
1000
0001
0010
0100
1000
0001
,
0100
0010
0100
0001
1000
0100
0010
0001
0100
0010
1000
0001
0100
0001
0010
0100
,
1000
0010
0100
0001
1000
0100
0010
0001
0100
0010
0100
0001
1000
0010
0100
0001
,
0010
0100
1000
0010
0100
0010
1000
0100
0010
0001
0100
0001
1000
0010
0100
0010
,
1000
0001
0010
0100
1000
0010
0100
0001
0100
0010
1000
0100
0010
0001
0100
0010
,
1000
0001
0010
0100
1000
0010
0100
0010
1000
0100
0010
0001
0100
0010
1000
0001
,
0010
0100
1000
0001
0100
0010
0100
0001
1000
0100
0010
0001
0100
0010
1000
0001
,
0100
0001
0010
0100
1000
0010
0100
0001
1000
0100
0010
0001
0100
0010
0100
0001
,
1000
0010
0100
0001
0010
0100
1000
0010
0100
0010
1000
0100
0010
0001
0100
0001
,
1000
0010
0100
0010
1000
0100
0010
0001
0100
0010
1000
0001
0100
0001
0010
0100
,
1000
0000
0000
0000
0000
0000
0000
0000
0000
0000
0010
0000
0000
0000
0000
0000
0000
0000
0000
0100
0000
0000
0000
0000
0000
0000
0000
0000
0000
0001
0000
0000
0000
0000
0000
0000
0000
0000
1000
0000
0000
0000
0000
0000
0000
0000
0000
0000
0100
0000
0000
0000
0000
0000
0000
0000
0000
0000
0000
0000
0000
0000
0000
0000
0000
0000
0000
0000
0000
0000
0000
0000
0000
0000
0000
0000
0000
0000
0000
0000
0000
0000
0000
0000
0000
0000
0000
0000
0000
0000
0000
0000
0000
0000
0000
0000
0000
0000
0000
0000
0000
0000
0000
0000
0000
0000
0000
0000
0000
0000
0000
0000
0000
0000
0000
0000
0000
0000
0000
0000
0000
0000
0000
0000
0000
0000
0000
0000
0000
0000
0000
0000
0000
0000
0000
0000
0000
0000
0000
0000
0000
0000
0000
0000
0000
0000
0000
0000
0000
0000
0000
0000
0000
0000
0000
0000
0000
0000
0000
0000
0000
0000
0000
0000
0000
0000
0000
0000
0000
0000
0000
0000
0000
0000
0000
0000
0000
0000
0000
0000
0000
0000
0000
0000
0000
0000
0000
0000
0000
0000
0000
0000
,
0000
0000
0000
0000
,
0000
0000
0000
0000
,
0000
0000
0000
0000
,
0000
0000
0000
0000
,
0000
0000
0000
0000
,
0000
0000
0000
0000
,
0000
0000
0000
0000
,
0000
0000
0000
0000
,
0000
0000
0000
0000
,
0000
0000
0000
0000
;
