#TITLE:Do Or Die;
#SUBTITLE:feat. Childish Gambino;
#ARTIST:Flux Pavilion;
#TITLETRANSLIT:;
#SUBTITLETRANSLIT:;
#ARTISTTRANSLIT:;
#CREDIT:;
#BANNER:../Wubstream - ban.png;
#BACKGROUND:../Wubstream - bg.png;
#LYRICSPATH:;
#CDTITLE:;
#MUSIC:Flux Pavilion - Do Or Die (feat. Childish Gambino).ogg;
#OFFSET:-0.269;
#SAMPLESTART:73.096;
#SAMPLELENGTH:24.000;
#SELECTABLE:YES;
#BPMS:0.000=153.333;
#STOPS:;
#BGCHANGES:;
// cache tags:
#FIRSTBEAT:8.000;
#LASTBEAT:380.000;
#SONGFILENAME:Songs/Wubstream/Do Or Die - [Rynker]/do or die.sm;
#HASMUSIC:1;
#HASBANNER:1;
#MUSICLENGTH:150.150;
// end cache tags

//---------------dance-single - Rynker----------------
#NOTES:
     dance-single:
     Rynker:
     Challenge:
     17:
     1.000,1.000,0.087,0.240,1.000,1335.000,13.000,36.000,0.000,0.000:




0000
0000
0000
0000
,
0000
0000
0000
0000
,
1001
0000
1000
0001
0100
0001
0010
0100
,
0000
1000
1000
0000
0101
0000
1000
0000
,
0001
0000
1000
0010
0100
0001
1000
0100
,
0000
0010
0010
0000
1100
0000
0001
0000
,
0100
0000
0010
0100
0001
1000
0100
0010
,
0000
0001
0001
0000
1010
0000
1000
0000
,
0001
0000
0010
0100
0010
0001
1000
0010
,
0000
0100
0100
0000
0101
0000
0001
0000
,
1000
0100
0010
0001
0010
0100
1000
0001
0100
0001
1000
0010
1000
0001
0010
0100
1000
0100
0010
0001
1000
0001
1000
0010
,
1000
0001
0100
0001
1000
0100
0010
0001
0010
0100
1000
0001
1000
0001
0100
0010
0100
0001
1000
0100
0010
0100
1000
0001
,
0100
0001
1000
0010
1000
0001
0010
0100
1000
0100
0010
0001
1000
0001
0100
0010
1000
0001
0100
0010
0100
0001
1000
0100
,
1000
0001
0010
0100
1000
0100
0010
0001
1000
0001
0100
0010
0100
0001
1000
0100
1000
0001
0010
0100
1000
0001
1000
0001
,
0100
0010
0100
0001
1000
0100
0010
0100
1000
0001
1000
0010
0100
0001
0100
0001
1000
0010
1000
0001
0010
0100
1000
0100
,
0010
0001
1000
0001
0100
0010
1000
0010
0100
0001
0100
0001
1000
0100
1000
0001
0010
0100
1000
0100
0010
0001
1000
0001
,
0100
0010
0100
0001
1000
0100
0010
0001
0010
0100
1000
0001
1000
0001
0100
0010
0100
0001
1000
0001
0100
0010
0100
0001
,
1000
0100
0010
0001
0010
0100
1000
0001
1000
0001
0010
0100
0010
0001
1000
0100
1000
0001
0010
0100
1000
0001
0100
0010
,
1000
0001
0100
0001
1000
0010
0100
0001
1000
0100
0010
0001
0010
0100
1000
0001
,
0100
0001
1000
0010
1000
0001
0010
0100
1000
0100
0010
0001
1000
0001
1000
0010
,
0100
0001
1000
0100
0010
0001
0010
0100
1000
0001
0100
0001
1000
0010
1000
0001
,
0010
0100
1000
0001
0010
0100
0010
0001
1000
0100
0010
0001
1000
0001
0100
0010
,
1000
0010
0100
0001
1000
0010
0100
0001
0010
0100
1000
0100
0010
0001
0100
0010
,
1000
0100
1000
0001
0100
0010
0100
0001
1000
0100
0010
0001
0010
0100
1000
0010
,
0100
0001
1000
0001
0100
0001
0010
0100
2000
0000
0000
0000
0000
0000
0000
0000
,
0000
0000
0000
0000
0000
0000
0000
3000
0000
0000
0000
0000
0000
0000
0000
0000
,
0001
0100
0001
0100
0010
1000
0001
0010
,
0100
1000
0100
0010
0001
1000
0010
0100
,
0001
1000
0100
0010
0001
0010
0100
1000
,
0001
0100
0010
0100
0001
0010
0100
1000
,
0010
0100
0001
1000
0001
0010
0001
0100
0010
1000
0100
1000
0001
1000
0010
0100
0001
1000
0100
0010
0001
0010
0100
1000
,
0010
0000
0100
0000
0001
0000
1000
0000
0001
0000
0010
0000
0100
0000
1000
0000
0010
0000
1000
0000
0001
0000
1000
0000
0100
0000
0010
0000
0001
0000
0010
0000
0100
0000
1000
0000
0001
0000
1000
0000
0100
0000
0010
0000
0000
0001
0000
0000
,
1000
0010
0100
0001
1000
0100
0010
0001
0010
0100
1000
0001
,
0000
0000
0000
0000
,
2002
0000
0000
0000
0000
3003
1000
0000
0001
0100
0001
0000
,
1000
0000
0001
0100
0001
0000
1000
0000
0001
0100
0001
0000
,
1000
0000
0001
0100
0001
0000
1000
0000
0001
0100
0001
0010
,
0200
0000
0000
2300
0000
0000
3002
0000
0000
0203
0000
0300
,
2002
0000
0000
0000
0000
3003
0001
0000
1000
0100
1000
0000
,
0001
0000
1000
0100
1000
0000
0001
0000
1000
0100
1000
0000
,
0001
0000
1000
0100
1000
0010
0100
0001
0010
0100
1000
0010
,
0200
0000
0000
0301
0000
0000
2000
0000
0000
3200
0000
0300
,
2002
0000
0000
0000
0000
3003
1000
0000
0001
0100
0001
0000
,
1000
0000
0001
0100
0001
0000
1000
0000
0001
0100
0001
0000
,
1000
0000
0001
0100
0001
0000
1000
0000
0001
0100
0001
0000
,
2000
0000
0000
3020
0000
0000
0230
0000
0000
0302
0000
0003
,
2002
0000
0000
0000
0000
0000
0000
0000
0000
0000
3003
0000
1000
0100
0010
0001
0010
0100
1000
0001
0100
0010
0100
0001
,
1000
0100
1000
0001
0010
0100
1000
0001
0100
0001
1000
0010
0100
0001
1000
0100
1000
0001
0010
0100
1000
0001
0100
0010
,
0100
0001
1000
0100
0010
0001
0010
0100
1000
0001
1000
0001
0100
0010
0100
0001
1000
0001
0100
0010
0100
0001
1000
0100
,
0010
0100
1000
0001
0010
0100
0010
0001
1000
0001
0100
0010
1000
0010
0100
0001
1000
0100
0010
0001
1000
0001
0100
0010
,
1000
0000
0000
0000
,
2002
0000
0000
0000
3003
0000
0001
0000
1000
0100
1000
0000
,
0001
0000
1000
0100
1000
0000
0001
0000
1000
0100
1000
0000
,
0001
0000
1000
0100
1000
0000
0001
0000
1000
0100
1000
0000
,
0002
0000
0000
0023
0000
0000
0230
0000
0000
2300
0000
3000
,
2002
0000
0000
0000
0000
0000
0000
0000
0000
0000
3003
0000
1000
0001
0100
0001
1000
0010
0100
0001
1000
0100
0010
0001
,
0010
0100
1000
0001
0010
0100
1000
0001
0100
0010
1000
0010
0100
0001
1000
0100
0010
0100
1000
0001
0010
0100
0010
0001
,
1000
0001
0100
0010
0100
0001
1000
0010
0100
0010
1000
0001
0010
0100
1000
0100
0010
0001
1000
0001
0100
0010
0100
0001
,
1000
0000
0000
0000
,
0001
1000
0001
1000
0010
0100
0010
1000
0001
1000
0010
0100
0001
1000
0100
0010
0001
1000
0100
0010
0100
1000
0001
0010
,
0001
1000
0010
1000
0001
0100
0001
1000
0100
0010
0001
0010
0100
1000
0001
1000
0010
0100
0001
0100
0010
1000
0001
0010
,
0100
0010
0001
1000
0001
1000
0100
0010
0001
1000
0010
0100
0010
1000
0001
1000
0010
0100
0001
0100
0010
1000
0001
0010
,
0100
1000
0100
0010
0001
1000
0010
1000
0001
0100
0001
1000
0100
0010
0001
0010
0100
1000
0001
1000
0010
0100
0001
0100
,
0010
1000
0001
0100
0010
0100
0001
1000
0001
0010
0100
1000
0100
0010
0001
1000
0001
1000
0100
0010
0100
1000
0001
1000
,
0010
0100
0010
1000
0001
1000
0010
0100
0001
0100
0010
1000
0001
1000
0001
0010
0100
1000
0100
0010
0001
1000
0001
1000
,
0100
0010
0100
1000
0001
1000
0010
0100
0001
0100
0010
1000
0001
0010
0100
1000
0001
0010
0100
1000
0100
0010
0001
1000
,
0010
0100
0010
1000
0001
0010
0100
0010
0001
1000
0100
0010
0001
0000
0000
0000
0000
0000
0000
0000
0000
0000
0000
0000
,
1000
0001
0100
0001
1000
0010
1000
0001
0100
0010
0100
0001
1000
0100
0010
0001
0010
0100
1000
0001
1000
0001
0010
0100
,
0010
0001
1000
0001
0100
0010
0100
0001
1000
0010
1000
0001
0100
0010
0100
0001
1000
0100
0010
0001
0010
0100
1000
0001
,
1000
0001
0010
0100
0010
0001
1000
0001
1000
0010
0100
0010
1000
0001
1000
0001
0100
0010
0100
0001
1000
0100
0010
0100
,
1000
0001
0010
0100
0010
0001
1000
0001
1000
0010
0100
0001
1000
0010
0100
0001
1000
0001
1000
0010
0100
0001
1000
0100
,
0010
0001
0010
0100
1000
0100
0010
0001
1000
0001
1000
0010
0100
0010
1000
0001
0010
0100
1000
0100
0010
0001
1000
0001
,
1000
0010
0100
0010
1000
0001
0010
0100
1000
0001
0010
0100
0010
0001
1000
0001
0100
0010
0100
0001
1000
0010
0100
0010
,
1000
0001
0100
0010
1000
0001
0010
0100
1000
0001
0010
0100
1000
0001
0100
0010
0100
0001
1000
0010
0100
0001
1000
0100
,
0010
0001
0010
0100
1000
0001
1000
0100
0010
0001
1000
0100
1000
0000
0000
0000
0000
0000
0000
0000
0000
0000
0000
0000
,
0001
0100
0010
0100
0001
1000
0010
0100
0001
1000
0010
0100
0001
1000
0100
0010
0001
0010
0100
1000
0001
1000
0100
0010
,
0001
1000
0010
0100
0001
0100
0010
1000
0001
0100
0001
1000
0100
0010
0001
0010
0100
1000
0001
0010
0100
1000
0001
1000
,
0010
0100
0001
1000
0010
0100
0001
0100
0010
1000
0001
1000
0100
0010
0001
0010
0100
1000
0001
0010
0001
1000
0100
0010
,
0001
1000
0010
0100
0001
0100
0010
1000
0001
0100
0010
1000
0001
0010
0100
1000
0100
0010
0001
0010
0100
1000
0001
1000
,
0010
0100
0001
0100
0010
1000
0001
1000
0001
0100
0010
1000
0001
0010
0100
1000
0100
0010
0001
1000
0100
1000
0001
0010
,
0001
1000
0010
0100
0001
0100
0010
1000
0001
0100
0001
1000
0100
0010
0001
0010
0100
1000
0001
0010
0100
0010
0001
1000
,
0001
0010
0100
1000
0010
0100
0001
1000
0010
1000
0100
0010
0001
1000
0001
0100
0010
1000
0001
0010
0100
1000
0010
0100
,
0001
0000
0000
0000
,
2002
0000
0000
0000
0000
3003
1000
0000
0001
0000
0100
0000
,
1000
0000
0001
0000
0100
0000
1000
0000
0001
0000
0100
0000
,
1000
0000
0001
0000
0100
0000
1000
0000
0001
0100
0010
1000
,
0200
0000
0000
0310
0000
0010
0002
0000
0000
2003
0000
3000
,
0220
0000
0000
0000
0000
0330
0001
0000
1000
0100
1000
0001
,
0100
0000
0010
1000
0010
0100
0001
0000
1000
0100
0010
0001
,
0010
0000
0100
1000
0001
0100
0010
0000
1000
0100
0010
0001
,
0100
0010
1000
0100
0010
0001
0100
0010
1000
0100
0010
0001
,
0200
0000
0000
0000
0000
0000
0000
0000
0000
0000
0300
0000
0001
1000
0010
0100
0001
1000
0100
0010
0001
0010
0100
1000
,
0001
0100
0001
1000
0010
1000
0001
0010
0100
1000
0100
0010
0001
1000
0010
0100
0001
1000
0010
0100
0001
1000
0100
0010
,
0001
1000
0001
0100
0010
1000
0001
0100
0001
1000
0100
0010
0100
1000
0001
0100
0010
1000
0001
0100
0001
1000
0000
0000
;

//---------------dance-single - Rynker----------------
#NOTES:
     dance-single:
     Rynker:
     Hard:
     13:
     1.000,1.000,0.087,0.240,1.000,1013.000,13.000,36.000,1.000,0.000:

0000
0000
0000
0000
,
0000
0000
0000
0000
,
1001
0000
1000
0001
0100
0001
0010
0100
,
0000
1000
1000
0000
0101
0000
1000
0000
,
0001
0000
1000
0010
0100
0001
1000
0100
,
0000
0010
0010
0000
1100
0000
0001
0000
,
0100
0000
0010
0100
0001
1000
0100
0010
,
0000
0001
0001
0000
1010
0000
1000
0000
,
0001
0000
0010
0100
0010
0001
1000
0010
,
0000
0100
0100
0000
0101
0000
0001
0000
,
1000
0100
0010
0001
0010
0100
1000
0001
0100
0001
1000
0010
1000
0001
0100
0010
,
0100
0001
1000
0100
0010
0001
0010
0100
1000
0001
0100
0010
0100
0001
1000
0100
,
0010
0100
1000
0010
0100
0001
0100
0010
1000
0001
1000
0001
0010
0100
0010
0001
,
1000
0001
0100
0010
1000
0100
1000
0010
0100
0001
0100
0010
0100
0001
1000
0100
,
1000
0001
0010
0100
0010
0001
1000
0001
0100
0010
0100
0001
1000
0001
1000
0100
,
0010
0001
0010
0100
1000
0001
1000
0001
0100
0010
0100
0001
0010
0100
1000
0100
,
0010
0001
1000
0001
0100
0010
0100
0010
1000
0001
1000
0001
0010
0100
1000
0010
,
0100
0001
0100
0010
1000
0100
1000
0001
0010
0100
1000
0001
0100
0010
0100
0001
,
1000
0001
0100
0001
1000
0010
0100
0001
1000
0100
0010
0001
0010
0100
1000
0001
,
0100
0001
1000
0010
1000
0001
0010
0100
1000
0100
0010
0001
1000
0001
1000
0010
,
0100
0001
1000
0100
0010
0001
0010
0100
1000
0001
0100
0001
1000
0010
1000
0001
,
0010
0100
1000
0001
0010
0100
0010
0001
1000
0100
0010
0001
1000
0001
0100
0010
,
1000
0010
0100
0001
1000
0010
0100
0001
0010
0100
1000
0100
0010
0001
0100
0010
,
1000
0100
1000
0001
0100
0010
0100
0001
1000
0100
0010
0001
0010
0100
1000
0010
,
0100
0001
1000
0001
0100
0001
0010
0100
2000
0000
0000
0000
0000
0000
0000
0000
,
0000
0000
0000
0000
0000
0000
0000
3000
0000
0000
0000
0000
0000
0000
0000
0000
,
0001
0100
0001
0100
0010
1000
0001
0010
,
0100
1000
0100
0010
0001
1000
0010
0100
,
0001
1000
0100
0010
0001
0010
0100
1000
,
0001
0100
0010
0100
0001
0010
0100
1000
,
0100
0010
0001
0010
0100
1000
0010
0100
0001
0100
0010
1000
0001
0010
0100
1000
,
0100
0010
0001
1000
0001
0100
0010
0100
0001
1000
0100
1000
0001
0010
0001
1000
,
0001
0100
0010
1000
0001
0010
0100
1000
0001
1000
0001
0100
,
0000
0000
0000
0000
,
2002
0000
0000
0000
0000
3003
1000
0000
0001
0100
0001
0000
,
1000
0000
0001
0100
0001
0000
1000
0000
0001
0100
0001
0000
,
1000
0000
0001
0100
0001
0000
1000
0000
0001
0100
0001
0010
,
0200
0000
0000
2300
0000
0000
3002
0000
0000
0203
0000
0300
,
2002
0000
0000
0000
0000
3003
0001
0000
1000
0100
1000
0000
,
0001
0000
1000
0100
1000
0000
0001
0000
1000
0100
1000
0000
,
0001
0000
1000
0100
1000
0010
0100
0001
0010
0100
1000
0010
,
0200
0000
0000
0301
0000
0000
2000
0000
0000
3200
0000
0300
,
2002
0000
0000
0000
0000
3003
1000
0000
0001
0100
0001
0000
,
1000
0000
0001
0100
0001
0000
1000
0000
0001
0100
0001
0000
,
1000
0000
0001
0100
0001
0000
1000
0000
0001
0100
0001
0000
,
2000
0000
0000
3020
0000
0000
0230
0000
0000
0302
0000
0003
,
2002
0000
0000
0000
0000
0000
0000
0000
0000
0000
0000
0000
0000
0000
0000
0000
0000
0000
0000
0000
3003
0000
0000
0000
1000
0000
0000
0100
0000
0000
0010
0000
0000
0001
0000
0000
1000
0000
0000
0001
0000
0000
0100
0000
0000
0010
0000
0000
,
0100
0001
1000
0100
0010
0001
0010
0100
1000
0010
0100
0001
0100
0010
1000
0001
,
0010
0100
0010
0001
1000
0001
1000
0010
0100
0010
1000
0001
1000
0001
0010
0100
,
0010
0001
1000
0001
0100
0010
1000
0100
1000
0010
0100
0001
0100
0010
1000
0001
,
1000
0000
0000
0000
,
2002
0000
0000
0000
3003
0000
0001
0000
1000
0100
1000
0000
,
0001
0000
1000
0100
1000
0000
0001
0000
1000
0100
1000
0000
,
0001
0000
1000
0100
1000
0000
0001
0000
1000
0100
1000
0000
,
0002
0000
0000
0023
0000
0000
0230
0000
0000
2300
0000
3000
,
2002
0000
0000
0000
0000
0000
0000
0000
0000
0000
0000
0000
0000
0000
0000
0000
0000
0000
0000
0000
3003
0000
0000
0000
1000
0000
0000
0010
0000
0000
0100
0000
0000
0001
0000
0000
0100
0000
0000
0010
0000
0000
1000
0000
0000
0001
0000
0000
,
0010
0100
0010
0001
1000
0001
0100
0010
1000
0100
1000
0010
0100
0001
0100
0010
,
1000
0001
0010
0100
0010
0001
1000
0001
0100
0010
0100
0001
1000
0001
0010
0100
,
1000
0000
0000
0000
,
0001
0010
0100
0010
0001
1000
0001
0100
0010
0100
0001
1000
0100
1000
0010
0100
,
0001
0100
0010
1000
0100
1000
0001
0010
0100
0010
0001
1000
0001
0100
0010
0100
,
0001
1000
0100
1000
0001
0010
0100
0010
0001
1000
0001
0100
0010
0100
0001
1000
,
0100
1000
0001
0010
0100
0010
0001
1000
0001
0100
0010
0100
0001
1000
0100
1000
,
0010
0100
0001
0100
0010
1000
0100
1000
0001
0010
0100
0010
0001
1000
0001
0100
,
0010
1000
0100
1000
0010
0100
0001
0100
0010
1000
0001
1000
0001
0010
0100
0010
,
0001
1000
0001
0100
0010
0100
0001
1000
0100
1000
0001
0010
0100
1000
0001
0100
,
0010
0100
0001
0010
0100
1000
0100
0010
0001
0000
0000
0000
0000
0000
0000
0000
,
1000
0100
0010
0100
1000
0001
0100
0010
0100
0001
0010
0100
1000
0100
0010
0001
,
1000
0001
0100
0010
0100
0001
1000
0100
1000
0001
0010
0100
0010
0001
1000
0001
,
0100
0010
0100
0001
1000
0100
1000
0001
0010
0100
0010
0001
1000
0001
0100
0010
,
0100
0001
0010
0100
1000
0100
0010
0100
1000
0010
0100
0001
0100
0010
1000
0001
,
0010
0100
0010
0001
1000
0001
0100
0010
0100
0001
1000
0100
1000
0001
0010
0100
,
1000
0001
0100
0010
0100
0001
0010
0100
1000
0001
0100
0010
0100
0001
1000
0100
,
1000
0001
0010
0100
1000
0001
0100
0001
1000
0100
1000
0001
0010
0100
0010
0001
,
1000
0001
0100
0010
0100
0001
1000
0100
1000
0000
0000
0000
0000
0000
0000
0000
,
0001
0100
0001
0100
0010
1000
0001
0010
0100
1000
0100
0010
0001
1000
0001
0100
,
0010
0100
0001
1000
0100
1000
0001
0010
0100
1000
0001
0100
0010
0100
0001
0010
,
0100
1000
0100
0010
0001
1000
0001
0100
0010
0100
0001
1000
0100
1000
0001
0010
,
0100
0010
0001
1000
0001
0100
0010
0100
0001
1000
0100
1000
0001
0010
0100
0010
,
0001
1000
0001
0100
0010
0100
0001
1000
0100
1000
0001
0010
0100
0010
0001
1000
,
0001
0100
0010
1000
0100
1000
0100
0010
0001
0010
0001
1000
0001
0100
0010
0100
,
0001
1000
0100
1000
0001
0010
0100
1000
0001
0100
0010
0100
0001
1000
0100
0010
,
0001
0000
0000
0000
,
2002
0000
0000
0000
0000
3003
1000
0000
0001
0000
0100
0000
,
1000
0000
0001
0000
0100
0000
1000
0000
0001
0000
0100
0000
,
1000
0000
0001
0000
0100
0000
1000
0000
0001
0100
0010
1000
,
0200
0000
0000
0310
0000
0010
0002
0000
0000
2003
0000
3000
,
0220
0000
0000
0000
0000
0330
0001
0000
1000
0100
1000
0001
,
0100
0000
0010
1000
0010
0100
0001
0000
1000
0100
0010
0001
,
0010
0000
0100
1000
0001
0100
0010
0000
1000
0100
0010
0001
,
0100
0010
1000
0100
0010
0001
0100
0010
1000
0100
0010
0001
,
0200
0000
0000
0000
0000
0000
0000
0000
0000
0000
0000
0000
0000
0000
0000
0000
0000
0000
0000
0000
0300
0000
0000
0000
0001
0000
0000
1000
0000
0000
0001
0000
0000
0100
0000
0000
0010
0000
0000
0100
0000
0000
0001
0000
0000
1000
0000
0000
,
0100
1000
0001
0010
0100
0010
0001
1000
0001
0100
0010
0100
0001
0010
0100
1000
,
0100
0010
0001
1000
0001
0100
0010
0100
0001
1000
0100
1000
0001
0010
0100
0000
,
0000
0000
0000
0000
,
M000
0000
0000
0000
;
