#TITLE:Greenwood Village;
#SUBTITLE:SHORT;
#ARTIST:Dave Wise;
#TITLETRANSLIT:;
#SUBTITLETRANSLIT:;
#ARTISTTRANSLIT:;
#CREDIT:;
#BANNER:;
#BACKGROUND:;
#LYRICSPATH:;
#CDTITLE:!cdTitle.png;
#MUSIC:40-greenwood-village.ogg;
#OFFSET:-0.260;
#SAMPLESTART:45.676;
#SAMPLELENGTH:12.000;
#SELECTABLE:YES;
#BPMS:0.000=132.030;
#STOPS:;
#BGCHANGES:;
// cache tags:
#FIRSTBEAT:8.000;
#LASTBEAT:173.000;
#SONGFILENAME:Songs/SSSC Pack 2/Greenwood Village - [Mandodo]/40-greenwood-village.sm;
#HASMUSIC:1;
#HASBANNER:0;
#MUSICLENGTH:105.000;
// end cache tags

//---------------dance-single - Mandodo----------------
#NOTES:
     dance-single:
     Mandodo:
     Challenge:
     11:
     0.854,0.865,0.000,0.857,1.000,538.000,0.000,90.000,6.000,0.000:

0000
0000
0000
0000
,
0000
0000
0000
0000
,
0001
0000
0100
0010
0000
0010
0000
0100
0001
0000
1000
0000
0100
1000
0100
0000
,
1000
0000
0000
0000
0000
0000
0001
0000
0000
0100
0000
0000
0000
0000
0000
0100
0000
0000
0010
0000
0000
0100
0000
0000
0001
0000
0000
0000
0000
0000
1000
0000
0000
0100
0000
0000
0000
0000
0000
0100
0000
0000
0010
0000
0001
0000
0010
0000
,
0100
0000
1000
0001
0100
0000
0010
0100
0001
0000
1000
0100
1000
0001
0100
0000
,
0010
0000
0000
0000
0000
0000
0200
0000
0000
0000
0000
0000
0000
0000
0000
0000
0000
0000
0301
0000
0000
0000
0000
0000
1000
0000
0000
0000
0000
0000
0100
0000
0000
0000
0000
0000
0100
0000
0000
0010
0000
0000
0001
0000
1000
0000
0001
0000
,
0100
0000
0010
0100
0001
0000
1000
0100
0010
0000
0001
0100
0001
1000
0010
0000
,
0100
0000
0000
0000
0000
0000
0020
0000
0000
0000
0000
0000
0000
0000
0000
0000
0000
0000
1030
0000
0000
0000
0000
0000
0100
0000
0000
0000
0000
0000
0010
0000
0000
0100
0000
0000
0010
0000
0000
0100
0000
0000
1000
0000
0001
0000
1000
0000
,
0010
0000
0000
0000
0000
0000
0100
0000
0000
0001
0000
0000
0100
0000
0000
0001
0000
0000
1000
0000
0000
0000
0000
0000
0001
0000
1000
0000
0001
0000
0100
0000
0010
0000
1000
0000
0010
0000
0100
0000
0000
0000
0010
0000
1000
0000
0010
0000
,
0100
0000
0000
0000
0000
0000
0001
0000
0000
1000
0000
0000
0100
0000
0000
1000
0000
0000
0001
0000
0000
0000
0000
0000
0100
0000
0001
0000
1000
0000
0001
0000
0100
0000
0010
0000
1000
0000
0001
0000
0100
0000
0000
0000
0000
0000
0000
0000
,
0001
1000
0001
1000
0100
1000
0010
0100
0001
1000
0100
1000
0001
0010
0100
1000
0001
0100
0010
1000
0010
0100
0001
1000
,
0010
0000
0010
1000
0000
1000
0000
0001
0010
0000
0100
0000
1000
0100
1000
0000
,
0001
0000
0000
0000
0000
0000
0000
0000
0000
0000
0000
0000
1000
0000
0000
0000
0000
0000
0001
0000
0000
0000
0000
0000
1000
0000
0000
0000
0000
0000
0000
0000
0000
0000
0000
0000
0000
0000
0000
0000
0000
0000
0000
0000
0000
0000
0000
0000
0010
0000
0000
0000
0000
0000
0000
0000
0000
0000
0000
0000
0100
0000
0000
0000
0000
0000
0000
0000
0000
0000
0000
0000
0010
0000
0000
0000
0000
0000
0000
0000
0000
0000
0000
0000
0100
0000
0000
0000
0000
0000
0000
0000
0000
0000
0000
0000
0001
0000
0000
0000
0000
0000
0000
0000
0000
0000
0000
0000
0000
0000
0000
0000
0000
0000
0000
0000
0000
0000
0000
0000
0001
0000
0000
0000
0000
0000
0000
0000
0000
0000
0000
0000
1000
0000
0000
0000
0000
0000
0000
0000
0000
0000
0000
0000
0100
0000
0000
0000
0000
0000
0000
0000
0000
0000
0000
0000
0010
0000
0000
0000
0000
0000
0000
0000
0000
0000
0000
0000
0001
0000
0000
0000
0000
0000
0000
0000
1000
0000
0000
0000
0000
0000
0000
0000
0001
0000
0000
0000
0000
0000
0000
0000
,
0100
0000
0010
1000
0100
0000
0010
0001
0100
0000
0010
1000
0100
0010
0001
0000
,
1000
0000
0000
0000
0000
0000
0000
0000
0000
0000
0000
0000
0001
0000
0000
0000
0000
0000
1000
0000
0000
0000
0000
0000
0001
0000
0000
0000
0000
0000
0000
0000
0000
0000
0000
0000
0000
0000
0000
0000
0000
0000
0000
0000
0000
0000
0000
0000
0100
0000
0000
0000
0000
0000
0000
0000
0000
0000
0000
0000
0010
0000
0000
0000
0000
0000
0000
0000
0000
0000
0000
0000
0100
0000
0000
0000
0000
0000
0000
0000
0000
0000
0000
0000
0001
0000
0000
0000
0000
0000
0000
0000
0000
0000
0000
0000
1000
0000
0000
0000
0000
0000
0000
0000
0000
0000
0000
0000
0000
0000
0000
0000
0000
0000
0000
0000
0000
0000
0000
0000
1000
0000
0000
0000
0000
0000
0000
0000
0000
0000
0000
0000
0100
0000
0000
0000
0000
0000
0000
0000
0000
0000
0000
0000
0010
0000
0000
0000
0000
0000
0000
0000
0000
0000
0000
0000
0001
0000
0000
0000
0000
0000
0000
0000
0000
0000
0000
0000
0010
0000
0000
0000
0000
0000
0000
0000
0100
0000
0000
0000
0000
0000
0000
0000
1000
0000
0000
0000
0000
0000
0000
0000
,
0001
0000
0000
0000
0000
0000
0100
0000
0000
0010
0000
0000
0100
0000
0000
0001
0000
0000
1000
0000
0000
0000
0000
0000
0001
0000
0100
0000
0010
0000
1000
0000
0010
0000
0100
0000
0001
0000
1000
0000
0000
0000
0001
0000
0100
0000
0010
0000
,
0100
0000
0000
0000
0000
0000
0001
0000
0000
1000
0000
0000
0100
0000
0000
1000
0000
0000
0001
0000
0000
0000
0000
0000
0010
0000
0100
0000
1000
0000
0100
0000
0010
0000
0001
0000
1000
0000
0010
0000
0100
0000
0000
0000
0000
0000
0000
0000
,
0001
0000
1000
0100
0000
0100
0010
0001
0010
0000
0100
1000
0000
1000
0010
0200
,
0302
2003
3200
0300
0200
0320
0032
0003
0002
0023
0230
0300
2000
3000
0020
0030
,
0001
0000
002M
2030
3200
0320
0032
0003
1000
0001
0100
0000
0100
0001
1000
0020
,
0230
0302
2003
3000
2000
3200
0320
0030
0020
0230
2300
3000
0002
0003
0020
0030
,
1000
0000
0000
0000
0000
0000
M020
0000
0000
0032
0000
0000
0023
0000
0000
0230
0000
0000
2300
0000
0000
3000
0000
0000
0002
0000
0000
0000
0000
0000
0000
0000
0000
0000
0000
0000
0003
0000
0000
0000
0000
0000
0100
0000
0001
0000
0100
0000
,
0010
0000
0100
0001
0000
0001
1000
0000
0100
0000
0010
0100
0000
0100
1000
0000
,
0010
0000
0000
0000
0000
0000
0100
0000
0000
0001
0000
0000
0000
0000
0000
0001
0000
0000
1000
0000
0000
0000
0000
0000
0100
0000
0000
0000
0000
0000
0010
0000
0000
0001
0000
0000
0000
0000
0000
0001
0000
0000
0010
0000
0100
0000
1000
0000
,
0001
0100
1000
0100
0001
0010
1000
0010
,
0001
0000
0001
1000
0001
1000
0010
0000
0100
0000
0001
1000
0000
1000
0200
0320
,
0032
0003
2000
3000
0020
0030
0002
0003
0020
0030
2000
3000
0200
0300
0002
0003
,
0200
0000
0000
0300
0000
0000
2000
0000
0000
3020
0000
0000
0230
0000
0000
0302
0000
0000
2003
0000
0000
3000
0000
0000
0200
0000
0000
0300
0000
0000
0010
0000
0000
0001
0000
0000
0000
0000
0000
0001
0000
0000
1000
0000
0010
0000
1000
0000
,
0001
0100
1000
0100
0001
0010
1000
0010
,
0001
0000
0001
0010
0100
1000
0001
0000
0100
0000
0010
1000
0000
1000
0200
2300
,
3020
0030
0200
0300
0002
0003
2000
3000
0200
0300
0020
0030
0002
0003
2000
3000
,
0020
0030
0020
0230
0302
2003
3200
0300
2000
0000
0000
0000
0000
0000
0000
0000
,
3001
0100
0001
1000
0010
0100
0001
1000
0010
0100
0001
1000
0010
0100
0001
1000
,
0010
0100
0001
1000
0010
0100
0001
1000
0010
0100
0001
1000
0010
0100
0001
1000
,
0200
0310
0001
0010
0100
1000
0001
0100
0020
1030
0001
1000
0100
1000
0001
0100
,
0020
1030
0001
1000
0100
0010
0100
1000
0002
0103
0010
0100
0001
1000
0010
0100
,
0002
1003
0100
0010
0001
0010
0100
1000
0002
0103
0010
0100
0001
1000
0100
0010
,
0200
1300
0001
0100
0010
0100
0001
0010
0200
1300
0100
0010
0001
0010
0100
1000
,
0002
0103
0010
1000
0001
0100
0010
1000
0200
1300
0001
0100
0010
0100
0001
0010
,
0200
1300
0100
1000
0010
0100
0010
0100
0002
1003
0010
1000
0100
0010
0001
0010
,
0200
1300
0010
1000
0100
1000
0010
0100
0002
1003
0001
0010
0100
1000
0001
1000
,
0200
0310
0001
0010
0200
0310
0001
0010
0200
0310
0001
0010
0200
0310
0001
1000
,
0020
0030
0100
0001
0000
1000
0100
0010
0001
0000
1000
0010
0000
0100
0001
1000
,
0010
MMMM
0000
0000
;
