#TITLE:Ahh, Das Ist Musik;
#SUBTITLE:;
#ARTIST:Interrupt Vector;
#TITLETRANSLIT:;
#SUBTITLETRANSLIT:;
#ARTISTTRANSLIT:;
#CREDIT:;
#BANNER:Ahh, Das Ist Musik - banner.jpg;
#BACKGROUND:Ahh, Das Ist Musik - bg.jpg;
#LYRICSPATH:;
#CDTITLE:pfx - icon.png;
#MUSIC:interruptvector_vs_DJ_Plague-ahh_das_ist_musik.mp3;
#OFFSET:-5.043;
#SAMPLESTART:21.923;
#SAMPLELENGTH:19.000;
#SELECTABLE:YES;
#BPMS:0.000=100.000,17.000=125.240,41.000=250.000,137.000=62.500,145.000=125.000,182.250=250.000,182.500=125.000,189.000=250.000,278.000=124.999,360.000=250.000,457.000=124.000,461.000=125.000,465.000=250.000,529.000=125.360,553.000=250.000;
#STOPS:182.250=0.020
,360.000=0.480
;
#BGCHANGES:;
// cache tags:
#FIRSTBEAT:0.000;
#LASTBEAT:649.000;
#SONGFILENAME:Songs/Community Keyboard Megapack - Volume 1/(pfx13AE) Ahh, Das Ist Musik/Ahh, Das Ist Musik.sm;
#HASMUSIC:1;
#HASBANNER:1;
#MUSICLENGTH:279.406;
// end cache tags

//---------------dance-single - Hard----------------
#NOTES:
     dance-single:
     Hard:
     Hard:
     12:
     0.800,1.000,0.941,0.011,0.478,1299.000,263.000,3.000,0.000,0.000:
1000
0000
0010
0000
0000
0000
0000
0000
0000
0000
0000
0000
0000
0000
0000
0000
0000
1000
0000
0010
0000
0000
0000
0000
0000
0000
0000
0000
0000
0000
0000
0000
,
0000
1000
0010
0000
0000
0000
0000
0000
0001
0000
0000
0000
0001
0000
0000
0000
,
0000
0000
0000
0000
,
0000
0000
0000
0000
,
0000
0000
0000
0000
1001
0000
0100
0100
1000
0001
0100
0010
1000
0000
1000
0100
,
0010
0000
0011
0000
1100
0000
1000
1000
0010
1000
0001
0010
0100
0000
0100
0010
,
0001
0000
1010
0000
1100
0000
1000
1000
0010
0100
0001
1000
0100
0000
0010
0001
,
1000
0000
0110
0000
1001
0000
0001
0001
0010
0100
1000
0100
0010
0000
1000
0100
,
0010
0001
1000
0001
1000
0000
1000
0000
0001
0000
0001
0000
1000
0100
0010
0001
,
1000
0000
0000
0000
1000
0000
0000
0000
0001
0000
0001
0010
0001
0000
1000
0100
1000
0000
0010
0000
0001
0000
1000
0100
1000
0000
0100
0000
0010
0000
0001
0000
,
1000
0100
1000
0100
1000
0100
1000
0100
1001
0000
0000
0000
0001
0000
0000
0000
0011
0000
0000
0000
0010
0000
0000
0000
0110
0000
0000
0000
0100
0000
0000
0000
,
1100
1000
1010
0010
0110
0100
0110
0010
,
1010
1000
1001
0001
0101
0100
0110
0010
,
1010
1000
1100
0100
0110
0010
0011
0001
,
1001
1100
0110
0011
,
0110
0000
0000
0000
1000
0100
1000
0100
1000
0000
1000
0000
1000
0001
0100
0001
,
0100
0000
0000
0000
1010
0000
1000
0000
1001
0000
1000
0000
1000
0010
0100
0001
,
1000
0000
0001
0000
1000
0100
0010
0000
0001
0000
0100
0000
0010
0000
0010
0000
,
0010
0110
1001
1100
,
0011
0000
0000
0000
1000
0100
0010
0100
1000
0001
0010
0100
1000
0100
0010
0001
,
1000
0000
0000
0000
1001
0000
1000
0100
1000
0000
0001
0010
0001
0000
0100
0010
,
0100
0000
0010
0000
1000
0000
0001
1000
0001
0000
0100
0000
0001
0000
0010
0000
,
0100
0110
0011
1100
,
0110
0000
0000
0000
1000
0100
0010
0001
1000
0100
0010
0000
0001
0000
1000
0000
,
0010
0000
0000
0000
0110
0000
0010
1000
0010
0000
0100
0001
0100
0000
0010
0000
,
0001
1000
0100
0010
0100
1000
0001
0010
,
0100
1000
0110
0000
0011
0000
1100
0000
,
1001
0000
0000
0000
1000
0100
1000
0010
1000
0000
0100
0000
0010
0000
0001
0000
,
0010
0100
0010
0001
0010
0000
0100
0000
1000
0000
0100
0010
0100
0000
1000
0001
,
1000
0000
0001
0010
0001
0000
0100
0000
0010
0000
1000
0000
0001
0000
1000
0000
,
0010
0100
0001
0000
1100
0000
0110
0000
,
1100
0110
1100
0110
,
1100
0000
0000
0000
0110
0000
0100
1000
0100
0000
0010
0001
0010
0000
0100
0010
,
0100
1000
0001
0100
0010
1000
0100
0010
,
0001
0000
0000
0000
0000
0000
0000
0000
0001
0000
1000
0000
0100
0000
0010
0001
1000
0000
0001
0000
0100
0010
1000
0000
0001
0010
0001
0000
0001
0000
0000
1000
,
0100
0000
0100
0000
0010
0000
0000
0000
0001
0000
1000
0000
0010
0000
0100
0010
1000
0000
0001
0000
1000
0100
0010
0000
0001
1000
0001
0000
0001
0000
0000
0010
,
0100
0000
0100
0000
1000
0000
0100
0010
0001
0000
0000
0000
0001
0000
0000
0000
0001
0000
0000
0000
1000
0000
0100
0000
1000
0001
0010
0001
0100
0000
0000
0000
,
0010
0000
0010
0000
1000
0100
0010
0000
0001
0000
1000
0000
0100
0010
0001
1000
,
1000
0000
1000
0000
2001
0000
0001
0000
0001
0000
0001
0001
0001
0001
0001
0000
,
3001
0000
0000
0000
0001
0000
0000
0000
0110
0000
0000
0000
1000
0000
0000
0000
0001
0000
0000
0000
0100
0000
0000
0000
1000
0100
0010
0000
0001
0000
0100
0000
,
0010
0000
0000
0000
1000
0000
0000
0000
1100
0000
0000
0000
0001
0000
0000
0000
0010
0000
0000
0000
0100
0000
1000
0000
0010
0000
0100
0001
0010
0000
0000
0000
,
0100
0000
0000
0000
1000
0000
0000
0000
0110
0000
0000
0000
0001
0000
0000
0000
1000
0000
0000
0000
0010
0000
0000
0000
0100
0000
0010
1000
0100
0000
0010
0000
,
0001
0000
0000
0000
1000
0000
0000
0000
0101
0000
0000
0000
0010
0000
0000
0000
1000
0000
0000
0000
0100
0010
0001
0000
1000
0000
0100
0010
0001
0000
0000
0000
,
1000
0000
0000
0000
0010
0000
0000
0000
0101
0000
0000
0000
0001
0000
0000
0000
0010
0000
0000
0000
0100
0000
0000
0000
1000
0001
0100
0000
0010
0000
1000
0000
,
0100
0000
0000
0000
0010
0000
0000
0000
0110
0000
0000
0000
0001
0000
0000
0000
1000
0000
0000
0000
0100
0000
1000
0000
0001
0000
1000
0100
0010
0000
0000
0000
,
0001
0000
0000
0000
0100
0000
0000
0000
1010
0000
0000
0000
1000
0000
0000
0000
0100
0000
0000
0000
0010
0000
0000
0000
0001
0000
0010
0000
0100
0000
1000
0100
,
0010
0100
0001
1000
0001
0100
0010
1000
,
0001
0000
1001
0100
0010
0100
0010
0100
,
0010
0100
0010
0100
0010
0100
0010
0100
,
0010
1000
0100
1000
0010
0000
0100
0000
0010
0000
0100
0000
0010
0000
0000
0000
,
0100
0001
0100
0000
0010
1000
0010
0000
,
0010
0000
1000
1000
0001
0001
0100
0100
,
0010
0010
1000
1000
0100
0100
0010
0010
,
0001
0001
1000
0100
0010
0001
1000
0001
,
0100
0001
1000
0100
1000
0000
0001
0000
,
1000
0100
1000
0001
1000
0000
0100
0000
0010
0000
0100
0000
1000
0000
0100
0000
,
0010
0001
0100
0010
0100
0001
0100
0010
,
1000
0100
0010
0100
1000
0000
0001
0000
1000
0000
0010
0000
0100
0000
0001
0000
,
1000
0100
0010
0001
0010
0100
0010
0001
,
1000
0001
0100
0010
1000
0000
1000
0000
0001
0000
0001
0000
0100
0000
0100
0000
,
0010
0010
1000
1000
0100
0100
0010
0010
,
0001
0010
0100
1000
0100
0000
0010
0000
0100
0000
0010
0000
0001
0000
0010
0000
,
0100
1000
0010
0100
0010
1000
0100
0000
,
0001
0010
0001
1000
0100
0000
0010
0000
0100
0000
1000
0000
0001
0000
0100
0000
,
0001
1000
0010
0100
0001
0100
0010
1000
,
0001
1000
0100
1000
0001
0000
1000
0000
0100
0000
0010
0000
0100
0000
1000
0000
,
0001
0100
0010
0100
0001
0000
0110
0000
,
1000
0000
0100
0000
0010
0000
0001
0000
1000
0100
0010
0100
1000
0000
0100
0000
,
0010
0001
0100
0010
1000
0000
1000
0000
,
0000
0000
0000
0000
1000
0001
1000
0001
1000
0000
0000
0000
0000
0000
0000
0000
,
0000
0000
1001
0001
0010
0100
0010
0001
,
1000
0100
0010
0100
1000
0001
0100
0010
,
0100
0002
0000
1003
0100
0010
0001
1000
,
0010
0100
0001
1000
0100
0010
0001
0010
,
0100
1000
0001
1000
0100
0010
0001
1000
,
0010
0100
0001
1000
0100
0010
0001
0010
,
0100
2000
0000
3001
0010
0100
1000
0001
,
0100
0010
1000
0001
0010
0100
1000
0100
,
0010
0000
0001
0000
1000
0000
0001
0010
0001
0010
0100
1000
0100
1000
0010
0100
,
0010
0100
0010
0000
0010
0000
1000
0100
1000
0100
0010
0001
0010
0001
0100
0000
,
0100
0000
0100
0000
0100
0000
0010
1000
0010
1000
0001
0100
0001
0100
0010
0100
,
0010
0100
0010
0000
0010
0000
1000
0100
1000
0100
0010
0001
0010
0001
0100
0000
,
0100
0000
0100
0000
0100
0000
0001
1000
0001
1000
0010
0100
0010
0100
0001
0100
,
0001
0100
0001
0000
0001
0000
0010
0100
0010
0100
1000
0001
1000
0001
0100
0000
,
0100
0000
0100
0000
0100
0000
0010
1000
0010
1000
0001
0100
0001
0100
0010
0100
,
0010
0100
0010
0000
0010
0000
0001
0010
0001
0010
0100
1000
0100
1000
0010
0000
,
0010
0000
0010
0000
0010
0000
1000
0100
0010
0100
1000
0010
0100
0010
1000
0100
,
0010
0001
0010
0000
0010
0000
0001
0010
0100
0010
0001
0100
0010
0100
0001
0000
,
0001
0000
0001
0000
0001
0000
1000
0100
0010
0001
1000
0010
0100
0001
1000
0100
,
0010
0001
0010
0000
0010
0000
0001
0010
0100
1000
0001
0100
0010
1000
0001
0000
,
1000
0000
0000
0000
1001
0000
0000
0000
0001
0010
0100
0010
0001
0000
0000
0000
,
0011
0000
0101
0000
0110
0000
1010
1010
,
1010
0000
0000
0000
0110
0000
0000
0000
0110
0000
0000
0000
1000
0001
0100
0001
,
1000
0100
0010
0000
0001
0010
0001
0000
0010
0000
0100
0000
1000
0000
0000
0000
,
1100
0000
0001
1000
0010
0100
0001
1000
,
0001
0010
0100
1000
0100
0010
1001
0000
,
1001
0000
0000
0000
1000
0100
1000
0000
0001
0010
0001
0000
1000
0001
1000
0000
,
0010
0100
0010
0000
1000
0000
0100
0000
0010
0000
0001
0000
0010
0000
0000
0000
,
0110
0000
0000
0000
1001
0000
0000
0000
1000
0100
1000
0000
0011
0000
0000
0000
,
0110
0000
1001
0000
0101
0000
1100
1100
,
1100
0000
0000
0000
0011
0000
0000
0000
0011
0000
0000
0000
1000
0010
0100
0010
,
1000
0001
0010
0000
0100
1000
0100
0000
0010
0000
0001
0000
1000
0000
0000
0000
,
0110
0000
0110
0001
1000
0100
0010
0000
,
0011
0110
1001
1100
,
0011
0000
0000
0000
1000
0100
1000
0000
0100
0010
0100
0000
0010
0001
0010
0000
,
0001
1000
0001
0000
1000
0000
0100
0000
0010
0000
0001
0000
0010
0000
0000
0000
,
1001
0000
0000
0000
1000
0000
0100
0000
0010
0000
0001
0010
0001
0000
1000
0000
,
0010
0100
0001
0000
1100
0000
0110
0110
,
0110
0000
0000
0000
1100
0000
0000
0000
1010
0000
0000
0000
0001
0100
0001
1000
,
0100
0010
0001
0000
1000
0001
0100
0000
0010
0000
1000
0000
0100
0000
0000
0000
,
0011
0000
0000
0000
1000
0000
0001
0000
0100
0000
0010
1000
0010
0000
0000
0000
,
0011
1100
0110
1001
,
0101
0000
0000
0000
1000
0100
0010
0000
0001
0010
0100
0000
1000
0001
0100
0000
,
0001
1000
0100
0000
0010
0000
0001
0000
1000
0000
0010
0000
0100
0000
0000
0000
,
0110
0000
0001
0001
0001
0001
0001
0001
,
0001
0001
0001
0000
0000
0000
0000
0000
,
0000
0000
1100
0110
0011
1100
0110
0000
,
1100
0000
1010
0000
0000
0000
0011
1001
,
0110
0000
0000
0000
1100
0000
0000
0000
0000
0000
0000
0000
0001
0010
0100
1000
,
0100
0010
0001
0000
1000
0100
0010
0000
0001
0000
1000
0000
0010
0000
0000
0000
,
0101
0000
1010
0110
0101
1001
0101
0110
,
1100
0110
1001
0000
0000
0000
1100
0000
,
1100
0000
0000
0000
0001
0010
0001
1000
0100
1000
0001
0000
1000
0100
0010
0000
,
0001
0010
0100
0000
1000
0000
0001
0000
0100
0000
0000
0000
1010
0000
0000
0000
,
0000
0000
0000
0000
1100
0000
0000
0000
1000
0001
0100
0010
1001
0000
0000
0000
,
1100
0000
0011
0000
0110
0000
1100
1100
,
1100
0000
0000
0000
0101
0000
0000
0000
0101
0000
0000
0000
1000
0001
0100
0010
,
1000
0100
1000
0000
0001
0010
0100
0000
1000
0000
0100
0000
0010
0000
0000
0000
,
0010
0000
1100
0110
0011
0101
1010
0000
,
0110
0011
1100
0110
,
0000
0000
0000
0000
1000
0001
0100
0000
0100
0001
0010
0000
0010
0100
1000
0000
,
1000
0010
0100
0000
0011
0000
0110
0000
1100
0000
1010
0000
0101
0000
0000
0000
,
0110
0000
1001
0000
0000
1100
0000
0001
,
1100
0000
0001
1100
0000
0001
1100
0000
,
1001
0000
0110
0000
0000
0011
0000
0100
,
0011
0000
0100
0011
0000
0100
0011
0000
,
1001
0000
1010
0000
0000
0110
0000
0001
,
0110
0000
0001
0110
0000
0001
0110
0000
,
1100
0110
1100
0110
,
0011
1100
0101
0110
,
1100
0011
1100
0110
,
0101
0110
1100
0110
,
1100
0101
1001
0011
,
1001
0110
1100
0011
,
0101
0110
1100
0011
,
0110
1001
0110
0101
,
1100
0011
0011
0011
,
0011
0000
1100
0001
0110
1000
0110
0000
,
0110
0000
0000
0000
0101
0000
0000
0000
1100
0000
0100
0010
0001
0000
0000
0000
,
1000
0000
0000
0101
0000
1010
0000
0101
,
0000
0000
1100
0000
1000
0100
0010
0000
0001
0010
1100
0000
1010
0000
0000
0000
,
1000
0010
0100
0001
1000
0000
0010
0000
1100
0000
0010
0000
1001
0000
0000
0000
,
0011
0000
0000
0000
1100
0000
0000
0010
0101
0000
1100
0000
1100
0000
0000
0000
,
1000
0001
0011
0000
1100
0000
0010
0000
1100
0000
0001
1000
0110
0000
0000
0000
,
0011
1100
1010
0101
,
0110
0000
0110
0110
0110
0110
0110
0000
,
1100
0000
0000
0000
0011
0000
1000
0100
1000
0000
1000
0100
0010
0000
0000
0000
,
0011
0000
0000
1100
0000
0011
0000
0110
,
0000
0000
0011
0000
1000
0100
0010
0100
1000
0000
0001
1000
0110
0000
0000
0000
,
0001
0010
0100
0010
0001
0000
1000
0000
1100
0000
0100
0000
0110
0000
0000
0000
,
1100
0000
0000
0000
1100
0000
0000
0001
0101
0000
0011
0000
0101
0000
0001
0010
,
1100
0110
0011
1000
0101
0001
0101
0000
,
1001
0100
0000
0000
;
