#TITLE:FF7 Boss Fight;
#SUBTITLE:(Finishing Touch Edit);
#ARTIST:The Black Mages;
#TITLETRANSLIT:;
#SUBTITLETRANSLIT:;
#ARTISTTRANSLIT:;
#CREDIT:Step-Chart By;
#BANNER:FF7 Boss Battle.jpg;
#BACKGROUND:FF7 Boss Battle-bg.jpg;
#LYRICSPATH:;
#CDTITLE:;
#MUSIC:FF7 boss battle.mp3;
#OFFSET:-3.430;
#SAMPLESTART:40.472;
#SAMPLELENGTH:12.000;
#SELECTABLE:YES;
#BPMS:0.000=161.980;
#STOPS:;
#BGCHANGES:;
// cache tags:
#FIRSTBEAT:8.000;
#LASTBEAT:269.250;
#SONGFILENAME:Songs/cedric step/FF7 Boss Battle (FTE(/FF7 Boss Battle.sm;
#HASMUSIC:1;
#HASBANNER:1;
#MUSICLENGTH:107.815;
// end cache tags

//---------------dance-single - Blank----------------
#NOTES:
     dance-single:
     Blank:
     Challenge:
     10:
     0.787,0.812,0.037,0.594,1.000,526.000,4.000,64.000,81.000,2.000:

0000
0000
0000
0000
,
0000
0000
0000
0000
,
0010
1000
0100
0001
0000
0000
0100
0001
0010
1000
0000
0000
,
0001
1000
0010
0001
0100
1000
0010
0100
0001
1000
0010
0100
,
0001
0010
1000
0100
0000
0000
1000
0100
0001
0010
0000
0000
,
1000
0001
0100
1000
0010
0001
0100
0010
1000
0001
0000
0000
,
0100
0000
0010
0000
0100
0000
0010
0000
0000
M0M0
0000
0000
1000
0000
0001
0000
1000
0000
0001
0000
0000
0M0M
0000
0000
,
0100
0010
1000
0001
0000
0000
0010
0000
0010
0000
0010
0000
,
0001
0000
1000
0000
0001
0000
1000
0000
0000
M0M0
0000
0000
0010
0000
0100
0000
0010
0000
0100
0000
0000
0M0M
0000
0000
,
0001
1000
0010
0100
0000
0000
0100
0000
0100
0000
0100
0000
,
0010
0000
1000
0000
0010
0000
1000
0000
0000
M00M
0000
0000
0001
0000
0100
0000
0001
0000
0100
0000
0000
0MM0
0000
0000
,
0010
0001
1000
0100
0000
0000
0001
0000
0001
0000
0001
0000
,
0100
0000
0001
0000
0100
0000
0001
0000
0000
M00M
0000
0000
1000
0000
0010
0000
1000
0000
0010
0000
0000
0MM0
0000
0000
,
0100
1000
0001
0010
0000
0000
1000
0000
1000
0000
1000
0000
,
0110
0000
0000
0001
0100
0010
1000
0100
0001
1000
0010
0100
,
0001
0000
0000
1000
0010
0100
0001
0010
1000
0001
0100
0010
,
2M00
0000
3200
00M0
0302
0000
M203
0000
2300
00M0
3002
0000
,
0M23
0000
2030
000M
3020
0000
M032
0000
2003
0M00
3002
0000
,
1103
0000
0000
0010
1000
0001
0100
0010
0001
1000
0100
0010
,
0001
0000
0000
0100
0001
1000
0010
0100
1000
0001
0010
0100
,
200M
0000
3002
00M0
0203
0000
M320
0000
2030
000M
3002
0000
,
02M3
0000
0320
M000
0032
0000
02M3
0000
2300
0M00
3002
0000
,
0113
0000
0000
1000
1000
0001
0001
0000
0000
0100
0100
0010
,
0010
0000
0000
0001
0001
1000
1000
0000
0000
0110
0000
0000
,
1000
0010
0100
1000
0001
0100
0010
0001
0100
0010
1000
0001
,
0100
0010
0100
0001
0010
1000
0100
0001
0010
0100
0001
1000
,
0100
0010
1000
0001
0100
0001
0010
0100
1000
0010
1000
0001
,
0100
0010
1000
0001
0100
0010
1000
0100
0001
0020
0000
0000
,
0031
0100
0010
0001
1000
0010
0100
1000
0010
0100
0001
1000
,
0010
0100
0010
1000
0100
0001
0010
1000
0100
0010
1000
0001
,
0010
0100
0001
1000
0010
1000
0100
0010
0001
0100
0001
1000
,
0010
0100
0001
1000
0010
0100
0001
0010
1000
0200
0000
0000
,
0301
0000
0100
0000
1000
0000
0010
0000
0000
M0M0
0000
0000
1000
0000
0010
0000
0001
0000
0100
0000
0000
0000
0000
0000
,
002M
0000
0000
0030
0010
0000
0000
0000
0010
0000
0000
0000
M200
0000
0000
0300
0100
0000
0000
0000
0100
0000
0000
0000
,
0010
0000
0001
0000
0100
0000
1000
0000
0000
MM00
0000
0000
0100
0000
1000
0000
0010
0000
0001
0000
0000
0000
0000
0000
,
2M00
0000
0000
3000
1000
0000
0000
0000
1000
0000
0000
0000
00M2
0000
0000
0003
0001
0000
0000
0000
0001
0000
0000
0000
,
0010
1000
0001
0100
0000
0000
0100
0001
1000
0010
0000
0000
,
M200
0000
0000
0300
0001
0000
0000
0000
1000
0000
0000
0000
002M
0000
0000
0030
1000
0000
0000
0000
0001
0000
0000
0000
,
1000
0001
0100
0010
0000
0000
0001
1000
0010
0100
0000
0000
,
00M2
0000
0000
0003
0100
0000
0000
0000
0010
0000
0000
0000
2M00
0000
0000
3000
0010
0000
0000
0000
0100
0000
0000
0000
,
0001
0000
0100
0000
0001
0000
0200
0000
0000
0000
0000
0000
0300
0000
0000
MM00
0000
0000
1000
0000
0010
0000
1000
0000
,
0010
0000
0000
0200
0000
0000
03M2
0000
0000
0013
0100
0001
,
1000
0000
0000
0000
0100
0000
0020
0000
0000
0000
0000
0000
0030
0000
0000
00MM
0000
0000
0001
0000
1000
0000
0001
0000
,
1000
0000
0002
0000
2003
000M
3002
0000
,
0103
0000
0010
0000
1000
0000
0020
0000
0000
0000
0000
0000
0030
0000
0000
M0M0
0000
0000
1000
0000
0001
0000
0100
0000
,
0001
0000
0000
2000
0000
0000
3M20
0000
0000
0031
1000
0010
,
1000
0000
0000
0000
0010
0000
0200
0000
0000
0000
0000
0000
0300
0000
0000
0MM0
0000
0000
0010
0000
1000
0000
0001
0000
,
1000
0000
0200
0000
0320
0M00
0230
0000
,
0310
0000
0001
0000
1000
0000
0020
0000
0000
0000
0000
0000
0030
0000
0000
M0M0
0000
0000
1000
0000
0100
0000
0010
0000
,
1000
0000
0000
2000
0000
0000
32M0
0000
0000
0301
0010
0100
,
0001
0000
0000
0000
0010
0000
2000
0000
0000
0000
0000
0000
3000
0000
0000
MM00
0000
0000
0100
0000
0010
0000
0001
0000
,
1000
0000
2000
0000
3002
M000
2003
0000
,
3010
0000
0100
0000
1000
0000
0002
0000
0000
0000
0000
0000
0003
0000
0000
0M0M
0000
0000
0100
0000
0001
0000
0010
0000
,
1000
0000
0000
0002
0000
0000
0M23
0000
0000
1030
0100
0001
,
0100
1000
0001
0010
1000
0010
0001
0100
0010
0100
0010
1000
,
0001
1000
0001
0100
0010
1000
0001
0100
0010
1000
0100
0001
,
0M20
0000
0000
0030
1000
0000
0000
0000
1000
0000
0000
0000
00M2
0000
0000
0003
0100
0000
0000
0000
0100
0000
0000
0000
,
200M
0000
0000
0000
0000
0000
0000
0000
0010
3000
0000
0000
0000
0000
0000
0000
0010
0000
0000
0000
0000
0000
0000
0000
M200
0000
0000
0000
0000
0000
0300
0000
0001
0000
0000
0000
0000
0000
0000
0000
0001
0000
0000
0000
0000
0000
0000
0000
,
1000
0000
0100
0000
0010
0000
0001
0000
0000
M00M
0000
0000
1000
0000
0100
0000
0010
0000
0001
0000
0000
0000
0000
0000
,
0001
0000
0010
0000
0100
0000
1000
0000
0000
M00M
0000
0000
0001
0000
0010
0000
0100
0000
1000
0000
0000
0000
0000
0000
,
0010
0000
0100
0000
0001
0000
1000
0000
0010
0000
0100
0000
0001
0000
1000
0000
0010
0000
0100
0000
0000
0M00
0000
0000
,
0100
0000
0010
0000
1000
0000
0001
0000
0100
0000
0010
0000
1000
0000
0001
0000
0100
0000
0010
0000
0000
00MM
0000
0000
,
0001
0000
0100
0000
0010
0000
1000
0000
0001
0000
0100
0000
0010
0000
1000
0000
0001
0000
1000
0000
0000
M000
0000
0000
,
1000
0000
0010
0000
0100
0000
0001
0000
1000
0000
0010
0000
0100
0000
0001
0000
1000
0000
0001
0000
0000
0M0M
0000
0000
,
0100
0001
0010
1000
0100
0001
0010
0100
0001
1000
0010
0100
,
1000
0010
0100
0010
0001
1000
0010
0100
0001
1000
0100
0001
,
0010
0000
00M0
0020
0000
0000
0000
0000
0030
0000
0000
0000
0100
0000
0M00
0200
,
0000
0000
0000
0000
0000
0300
0000
0000
0000
0000
0000
0000
0000
0000
0000
0000
;

//---------------dance-single - Blank----------------
#NOTES:
     dance-single:
     Blank:
     Hard:
     9:
     0.660,0.780,0.074,0.519,0.988,434.000,8.000,56.000,0.000,0.000:

0000
0000
0000
0000
,
0000
0000
0000
0000
,
1000
0100
0001
0010
0000
0000
0001
0010
1000
0100
0000
0000
,
0010
0100
0010
0100
0000
0000
0110
0000
0000
1001
0000
0000
,
0100
0001
0010
1000
0000
0000
0010
1000
0100
0001
0000
0000
,
0001
1000
0001
1000
0000
0000
1100
0000
0000
1001
0000
0000
,
0010
0100
1000
0010
0000
0000
0100
0010
0001
0100
0000
0000
,
0010
1000
0010
1000
0000
0000
0001
0000
1000
0000
0001
0000
,
1000
0001
0100
0001
0000
0000
0001
1000
0010
1000
0000
0000
,
0100
0001
0100
0001
0000
0000
1000
0000
0001
0000
1000
0000
,
0010
0100
0001
1000
0000
0000
0100
0010
1000
0001
0000
0000
,
0100
0010
0100
0010
0000
0000
0010
0000
0100
0000
0010
0000
,
1000
0010
0100
0001
0000
0000
0001
0100
0010
1000
0000
0000
,
0001
0010
0100
1000
0000
0000
0100
0000
0010
0000
0100
0000
,
0010
0000
0000
0100
0001
1000
0010
0001
0100
1000
0010
0001
,
1000
0000
0000
0010
0001
1000
0010
1000
0001
0100
0010
0001
,
2000
0000
3200
0000
,
0320
0000
0032
0000
,
0103
0000
0000
0010
0001
1000
0010
0100
1000
0001
0010
0100
,
0010
0000
0000
0100
1000
0001
0100
0010
0001
1000
0100
0010
,
0002
0000
0023
0000
,
0230
0000
2300
0000
,
3010
0000
0001
0100
0000
0001
0100
0000
0010
1000
0000
0010
,
1000
0000
0001
1000
0000
0010
0001
0000
1000
0001
0000
0100
,
0001
0010
1000
0001
0100
0010
1000
0001
0100
1000
0010
0001
,
0100
0010
1000
0001
0100
0010
0100
1000
0001
0100
0000
0000
,
0001
0100
0010
1000
0001
0010
1000
0100
0001
0010
1000
0001
,
0100
1000
0010
0001
0100
0010
1000
0001
0010
1000
0000
0000
,
0001
0100
0010
0001
1000
0100
0010
0001
0100
1000
0010
0100
,
1000
0001
0010
0100
1000
0010
0001
1000
0100
0001
0000
0000
,
1000
0010
0100
1000
0001
0010
0100
1000
0010
0001
0100
0010
,
0001
1000
0100
0010
0001
0100
1000
0010
0001
0100
0000
0000
,
2000
0000
3010
0010
,
0020
0000
0000
0000
,
0230
0300
0100
0000
0200
0300
0100
0000
,
0200
0000
0000
0000
,
0302
0000
0103
0100
,
0200
0000
0000
0000
,
0320
0030
0010
0000
0020
0030
0010
0000
,
0020
0000
0000
0000
,
1030
0000
0001
0200
0000
0000
0300
0000
0000
0001
0100
0001
,
0200
0000
0000
0320
0000
0000
0032
0000
0000
1003
0010
1000
,
0010
0000
0100
0002
0000
0000
0003
0000
0000
0100
0010
0100
,
0020
2030
3002
0203
,
0301
0000
1000
0020
0000
0000
0030
0000
0000
1000
0010
1000
,
0020
0000
0000
0230
0000
0000
2300
0000
0000
3001
0100
0001
,
0100
0000
0010
2000
0000
0000
3000
0000
0000
0010
0100
0010
,
0200
0302
2003
3020
,
0130
0000
0010
2000
0000
0000
3000
0000
0000
0001
1000
0001
,
2000
0000
0000
3002
0000
0000
2003
0000
0000
3010
1000
0010
,
1000
0000
0100
0002
0000
0000
0003
0000
0000
1000
0001
1000
,
0002
2003
3002
2003
,
3010
0000
0100
0002
0000
0000
0003
0000
0000
1000
0001
1000
,
0002
2003
3020
0230
,
0301
1000
0010
0100
0001
1000
0100
0001
0100
0010
0000
0000
,
1000
0001
0100
0010
1000
0001
0010
1000
0010
0100
0000
0000
,
0020
0000
0230
0000
,
0302
0000
2003
0000
,
3001
0010
0100
1000
0000
0000
0011
0000
0000
1001
0000
0000
,
1000
0100
0010
0001
0000
0000
1100
0000
0000
1001
0000
0000
,
0010
1000
0100
0010
0000
0000
0100
0001
0010
0100
0000
0000
,
0001
0100
0010
0001
0000
0000
1000
0010
0100
1000
0000
0000
,
0010
0100
1000
0100
0010
0100
1000
0100
0010
0100
0000
0000
,
0100
0010
0001
0010
0100
0010
0001
0010
0100
0010
0000
0000
,
1000
0010
0001
0100
1000
0010
0001
0100
0010
1000
0100
0001
,
0010
1000
0010
0100
0001
1000
0010
0100
0001
1000
0010
0100
,
1000
0000
0000
2000
0000
0000
0000
0000
3000
0000
0000
0000
0001
0000
0000
0002
,
0000
0003
0000
0000
;

//---------------dance-single - Blank----------------
#NOTES:
     dance-single:
     Blank:
     Medium:
     7:
     0.472,0.593,0.204,0.427,0.348,288.000,22.000,46.000,0.000,0.000:

0000
0000
0000
0000
,
0000
0000
0000
0000
,
0010
0000
0100
1000
0000
0000
0100
0000
0010
0001
0000
0000
,
1000
0000
0010
0100
0000
0000
0010
0000
0000
0011
0000
0000
,
0001
0000
0100
0001
0000
0000
1000
0000
0010
1000
0000
0000
,
0100
0000
0001
1000
0000
0000
0100
0000
0000
1100
0000
0000
,
0002
0000
0000
0013
0000
0000
0010
0000
0010
0001
0000
0000
,
0002
0013
1000
1010
,
2000
0000
0000
3100
0000
0000
0100
0000
0100
1000
0000
0000
,
2000
3100
0001
0101
,
0020
0000
0000
0130
0000
0000
0100
0000
0100
0010
0000
0000
,
0020
0130
0110
1010
,
0200
0000
0000
0310
0000
0000
0010
0000
0010
0100
0000
0000
,
0200
0310
1001
0101
,
0110
0000
0000
1000
0010
0100
0001
0000
0000
0000
0000
0000
,
1001
0000
0000
0001
0100
0010
1000
0000
0000
0000
0000
0000
,
1000
1000
0010
0010
,
0001
0001
0100
0100
,
0011
0000
0000
0100
0001
0010
1000
0000
0000
0000
0000
0000
,
1100
0000
0000
0010
1000
0100
0001
0000
0000
0000
0000
0000
,
0100
0100
0001
0001
,
0010
0010
1000
1000
,
1010
0000
0110
0000
,
0101
0000
1001
0000
,
1000
0100
0001
0010
0000
0000
0200
0000
0000
0310
0000
0000
,
1000
0100
0001
0010
0000
0000
0020
0000
0000
0130
0000
0000
,
0100
1000
0001
0010
0000
0000
0002
0000
0000
1003
0000
0000
,
0010
0001
1000
0100
0000
0000
2000
0000
0000
3001
0000
0000
,
0100
0010
0100
0010
0000
0000
0200
0000
0000
1300
0000
0000
,
0001
1000
0001
1000
0000
0000
0020
0000
0000
0031
0000
0000
,
1000
0001
1000
0001
0000
0000
2000
0000
0000
3010
0000
0000
,
0010
0100
0010
0100
0000
0000
0002
0000
0000
0103
0000
0000
,
1100
0000
0000
0000
2000
3000
2000
3000
,
2000
0000
0000
3000
,
0020
0030
0200
0300
0020
0030
0200
0300
,
0020
0000
0000
0030
,
0011
0000
0000
0000
0002
0003
0002
0003
,
0002
0000
0000
0003
,
0200
0300
0020
0030
0200
0300
0020
0030
,
0200
0000
0000
0300
,
0010
0000
1000
0200
0000
0000
0000
0000
0000
0000
0000
0000
,
0301
0010
0100
1000
,
0010
0000
0100
0010
0000
0000
0000
0000
0000
0001
1000
0001
,
1000
0100
0010
0001
,
0100
0000
0001
0020
0000
0000
0000
0000
0000
0000
0000
0000
,
0130
1000
0001
0010
,
0100
0000
0010
0100
0000
0000
0000
0000
0000
1000
0010
1000
,
0010
0001
1000
0100
,
0001
0000
0010
2000
0000
0000
0000
0000
0000
0000
0000
0000
,
3100
0001
1000
0010
,
1000
0000
0001
1000
0000
0000
0000
0000
0000
0001
1000
0001
,
1000
0100
0010
0100
,
1000
0000
0010
0002
0000
0000
0000
0000
0000
0000
0000
0000
,
0013
1000
0001
0100
,
0100
0001
0100
0001
0000
0000
0010
1000
0010
1000
0000
0000
,
1000
0001
1000
0001
0000
0000
0100
0010
0100
0010
0000
0000
,
0220
0000
0000
0000
0000
0000
0000
0330
,
2002
0000
0000
0000
0000
0000
0000
3003
,
2020
0000
0000
0000
0000
0000
0000
3030
,
0202
0000
0000
0000
0000
0000
0000
0303
,
1000
0010
1000
0100
0000
0000
0010
0000
0000
0100
0000
0000
,
0001
0100
0001
0010
0000
0000
0100
0000
0000
0010
0000
0000
,
0100
0010
0100
0001
0000
0000
1000
0000
0000
0001
0000
0000
,
0010
0100
0010
1000
0000
0000
0001
0000
0000
1000
0000
0000
,
0100
1000
0001
1000
0000
0000
0010
0001
1000
0001
0000
0000
,
0010
1000
0001
0100
0010
1000
0001
0010
0100
1000
0000
0000
,
0100
0000
0000
2000
0000
0000
0000
0000
3000
0000
0000
0000
0010
0000
0000
0002
,
0000
0003
0000
0000
;

//---------------dance-single - Blank----------------
#NOTES:
     dance-single:
     Blank:
     Easy:
     4:
     0.341,0.530,0.167,0.343,0.121,202.000,18.000,37.000,0.000,0.000:

0000
0000
0000
0000
,
0000
0000
0000
0000
,
1000
0000
0001
0000
,
1000
0100
0010
0001
0000
0000
0100
0000
0000
0010
0000
0000
,
0001
0000
1000
0000
,
0001
0010
0100
1000
0000
0000
0010
0000
0000
0100
0000
0000
,
0020
0130
2000
3010
,
0200
0301
1001
1001
,
0002
0103
0020
1030
,
0200
0310
0110
0110
,
2000
3001
0020
0130
,
0002
1003
1010
1100
,
0002
1003
0020
0130
,
2000
3001
0101
0011
,
1001
0000
0000
0010
0100
1000
0001
0000
0000
0000
0000
0000
,
2000
3002
2003
3000
,
0020
0000
0000
0000
,
0230
0000
0000
0300
,
0110
0000
0000
0100
0010
0001
1000
0000
0000
0000
0000
0000
,
0002
2003
3002
0003
,
0200
0000
0000
0000
,
0320
0000
0000
0030
,
1001
0000
1100
0000
,
0011
0000
1001
0000
,
1000
0000
1000
0000
,
0001
0100
0001
0100
,
0001
0000
0001
0000
,
1000
0010
1000
0010
,
0100
0000
0100
0000
,
0010
0100
0010
0100
,
0010
0000
0010
0000
,
0100
0010
0100
0010
,
0200
0000
0300
0010
,
1001
0000
0000
0000
,
0020
0000
0030
0100
,
0110
0000
0000
0000
,
0002
0000
0003
1000
,
1100
0000
0000
0000
,
2000
0000
3000
0001
,
0011
0000
0000
0000
,
0100
1000
0000
0001
,
0000
0001
0000
0001
,
0010
0001
0000
0010
,
0002
0000
0000
0003
,
0010
0001
0000
1000
,
0000
1000
0000
1000
,
0100
1000
0000
0100
,
2000
0000
0000
3000
,
0001
0100
0000
0010
,
0000
0010
0000
0010
,
0100
0010
0000
0100
,
0020
0000
0000
0030
,
1000
0010
0000
0100
,
0000
0100
0000
0100
,
0001
1000
0002
0003
,
1000
0001
2000
3000
,
0010
0100
0020
0030
,
0100
0010
0200
0300
,
1000
0010
2000
3000
,
0001
0100
0002
0003
,
1000
0000
0000
0010
0000
0000
1000
0100
0010
0001
0000
0000
,
0001
0000
0000
0100
0000
0000
0001
0010
0100
1000
0000
0000
,
0010
0000
0000
0001
0000
0000
0010
1000
0010
1000
0000
0000
,
0100
0000
0000
1000
0000
0000
0100
0001
0100
0001
0000
0000
,
1000
0001
0100
0010
0000
0000
0001
1000
0010
0100
0000
0000
,
0010
0100
0001
1000
0000
0000
0100
0010
1000
0001
0000
0000
,
1000
0000
0000
0020
0000
0000
0000
0000
0030
0000
0000
0000
0001
0000
0000
0200
,
0000
0300
0000
0000
;
