#TITLE:Universe City;
#SUBTITLE:;
#ARTIST:EON;
#TITLETRANSLIT:;
#SUBTITLETRANSLIT:;
#ARTISTTRANSLIT:;
#CREDIT:owenviau1;
#BANNER:BG.PNG;
#BACKGROUND:BG.PNG;
#LYRICSPATH:;
#CDTITLE:ov1_title.png;
#MUSIC:Universe City - EON.mp3;
#OFFSET:-13.800;
#SAMPLESTART:100.000;
#SAMPLELENGTH:29.999;
#SELECTABLE:YES;
#BPMS:0.000=140.000;
#STOPS:;
#BGCHANGES:;
// cache tags:
#FIRSTBEAT:0.000;
#LASTBEAT:638.000;
#SONGFILENAME:Songs/Owenviau1 Simfiles 4/Universe City - EON [owenviau1]/Universe City - EON.sm;
#HASMUSIC:1;
#HASBANNER:1;
#MUSICLENGTH:288.104;
// end cache tags

//---------------dance-single - ----------------
#NOTES:
     dance-single:
     :
     Challenge:
     12:
     1.000,1.000,0.837,0.243,1.000,2077.000,241.000,70.000,63.000,4.000:
1000
0001
1000
0000
0010
0100
0010
0000
0001
0100
0001
0000
1000
0010
1000
0000
,
0001
0100
0010
0000
1000
0001
0100
0000
0010
1000
0001
0000
1000
0100
0010
0000
,
0001
0010
0100
0000
1000
0001
0010
0000
1000
0001
0100
0000
0010
1000
0001
0000
,
1000
0100
0010
0000
0001
0010
0100
0000
1000
0001
0100
0000
0010
1000
0001
0000
,
0001
0100
0010
0000
1000
0010
0100
0000
0001
0100
0010
0000
1000
0100
0010
0000
,
0001
0010
0100
0000
1000
0100
0010
0000
1000
0001
0100
0000
0010
1000
0001
0000
,
1001
0110
1010
0101
1010
1100
1001
0101
,
1000
0000
0000
0100
0000
0000
0010
0000
0000
0001
0000
0000
1000
0000
0000
0010
0000
0000
1000
0000
0000
0001
0000
0000
0100
0000
0000
0010
0000
0000
1000
0000
0000
0001
0000
0000
1000
0000
0100
0000
0010
0000
0001
0000
1000
0000
0010
0000
,
1001
0100
0010
0001
1010
0100
0001
0010
0100
1000
0100
0010
0101
1000
0001
0100
,
0010
1000
0001
1000
0110
0001
0010
0100
1000
0100
0010
0100
1001
0010
0100
1000
,
0001
0100
0010
1000
0011
1000
0100
0010
0001
0010
0100
1000
0110
0001
1000
0001
,
0100
0010
1000
0001
0110
1000
0001
1000
0010
0100
0010
1000
0101
1000
0010
1000
,
0001
0100
0001
0100
1010
0001
0010
0100
1000
0100
0010
0001
1001
0100
0010
1000
,
0001
0010
0100
1000
0110
0001
1000
0100
0010
0001
0100
0010
1100
0001
1000
0010
,
0100
0001
1000
0100
0011
1000
0001
0100
0010
1000
0100
0010
1001
0100
1000
0010
,
0101
0000
0100
0000
1010
0000
0001
0000
0110
0000
0110
0000
1001
0010
0100
0001
,
1010
0100
0010
0001
0011
1000
0001
0100
0010
1000
0001
0100
1010
0001
1000
0010
,
0100
0001
1000
0100
0011
0001
0010
0100
1000
0100
0010
0001
1100
0010
1000
0100
,
0010
0001
1000
0001
0110
1000
0100
0010
0001
0010
0100
1000
1001
0010
0100
0001
,
0010
0100
1000
0010
0101
1000
0001
0100
0010
1000
0001
0100
1010
0001
0100
0001
,
1000
0010
1000
0100
0011
0001
1000
0010
0100
0001
0010
0100
1100
0001
0010
0100
,
1000
0100
0010
0001
0110
1000
0001
0100
0010
1000
0100
0010
1001
0100
0010
0001
,
1000
0010
1000
0001
0101
1000
0100
0010
0001
0010
0100
1000
1010
0100
0010
0001
,
1001
0000
0100
0000
1001
0000
0010
0000
1100
0000
0101
0000
0110
0001
1000
0010
,
1001
0100
0010
0000
0001
0100
0010
0000
1000
0100
0010
0000
0001
0100
0010
0000
,
1000
0001
0100
0000
0010
1000
0001
0000
1000
0100
1000
0000
0010
0100
0010
0000
,
0001
0100
0001
0000
1000
0010
1000
0000
0001
1000
0001
0000
0100
0010
1000
0000
,
0100
0010
0001
0000
0010
0100
1000
0000
0100
0010
0001
0000
1000
0001
0100
0000
,
1000
0001
0010
0000
1000
0001
0100
0000
0001
1000
0010
0000
1000
0001
0010
0000
,
1000
0001
0100
0000
0010
1000
0100
0000
0010
0001
0100
0000
0010
1000
0001
0000
,
0100
1000
0010
0000
0100
0001
0010
0000
1000
0100
0010
0000
0001
1000
0010
0000
,
0100
0001
0010
0000
1000
0001
0100
0000
0010
1000
0001
0000
0010
0100
0001
1000
,
1001
0100
0010
0000
0001
0100
0010
0000
1000
0100
0010
0000
0001
0100
0010
0000
,
1000
0001
0100
0000
0010
1000
0001
0000
1000
0100
1000
0000
0010
0100
0010
0000
,
0001
0100
0001
0000
1000
0010
1000
0000
0001
1000
0001
0000
0100
0010
1000
0000
,
0100
0010
0001
0000
0010
0100
1000
0000
0100
0010
0001
0000
1000
0001
0100
0000
,
1000
0001
0010
0000
1000
0001
0100
0000
0001
1000
0010
0000
1000
0001
0010
0000
,
1000
0001
0100
0000
0010
1000
0100
0000
0010
0001
0100
0000
0010
1000
0001
0000
,
0100
1000
0010
0000
0100
0001
0010
0000
1000
0100
0010
0000
0001
1000
0010
0000
,
0100
0001
0010
0000
1000
0001
0100
0000
0010
1000
0001
0000
0010
0100
0001
1000
,
1001
0001
1000
0000
0010
0100
0010
0000
0001
0100
0001
0000
1000
0010
1000
0000
,
0001
0100
0010
0000
1000
0001
0100
0000
0010
1000
0001
0000
1000
0100
0010
0000
,
0001
0000
0010
0000
0100
0000
0000
0000
1000
0000
0001
0000
0010
0000
0000
0000
2000
3000
0001
0000
0200
0300
0000
0000
0010
0000
1000
0000
0002
0003
0000
0000
,
1000
0000
0100
0000
0020
0030
0000
0000
0001
0000
0010
0000
0200
0300
0000
0000
1000
0000
0001
0000
0200
0300
0000
0000
0010
0000
1000
0000
0002
0003
0000
0000
,
0001
0100
0010
0000
1000
0010
0100
0000
0001
0100
0010
0000
1000
0100
0010
0000
,
0001
0010
0100
0000
1000
0100
0010
0000
1000
0001
0100
0000
0010
1000
0001
0000
,
1000
0001
1000
0000
0010
0100
0010
0000
0001
0100
0001
0000
1000
0010
1000
0000
,
0001
0100
0010
0000
1000
0001
0100
0000
0010
1000
0001
0000
1000
0100
0010
0000
,
MM01
0010
0100
0000
1000
0001
0010
0000
1000
0001
0100
0000
0010
1000
0001
0000
,
1000
0100
0010
0000
0001
0010
0100
0000
1000
0001
0100
0000
0010
1000
0001
0000
,
0001
0000
0100
0000
0010
0000
0000
0000
1000
0000
0010
0000
0100
0000
0000
0000
0002
0003
0100
0000
0020
0030
0000
0000
1000
0000
0100
0000
0020
0030
0000
0000
,
0001
0000
0010
0000
0200
0300
0000
0000
1000
0000
0100
0000
0020
0030
0000
0000
1000
0000
0001
0000
0200
0300
0000
0000
0010
0000
1000
0000
0002
0003
0000
0000
,
1000
0001
0100
0000
0010
1000
0001
0000
1000
0100
0010
0000
0100
0010
0001
0000
,
1000
0001
0100
0000
0010
1000
0001
0000
0100
0001
1000
0000
0001
0100
0010
0000
,
1000
0001
0100
0000
1000
0100
0010
0000
0001
0010
0100
0000
0001
1000
0010
0000
,
0100
0001
1000
0000
0100
0010
0001
0000
1000
0010
0100
0000
0001
1000
0100
0000
,
1001
0010
1000
0001
1100
0010
0001
0010
0100
1000
0001
0100
1010
0001
1000
0100
,
0010
0001
0010
0100
1001
0010
0100
0001
1000
0100
0010
0001
1100
0001
1000
0010
,
0100
0001
1000
0010
0110
1000
0100
0010
0001
0010
0100
1000
1001
0010
0100
0001
,
1000
0100
0010
0001
1010
0100
0001
0010
0100
1000
0100
0010
1001
0100
0010
1000
,
0100
0010
0001
1000
0011
0100
1000
0001
0100
0010
1000
0001
0110
1000
0001
1000
,
0010
0100
0010
1000
1001
0100
0010
0001
1000
0010
0100
0001
1100
0010
0100
0001
,
1000
0100
0010
0001
0110
1000
0001
0100
0010
1000
0100
0010
1001
0100
0010
0001
,
1000
0010
0100
0001
1010
0100
0010
0001
1000
0010
0100
0001
1010
0100
0010
0001
,
1001
0100
0010
1000
0101
0010
0001
0010
0100
1000
0001
0100
1010
0001
1000
0100
,
0010
0001
0010
0100
1001
0010
0100
0001
1000
0100
0010
0001
1100
0001
1000
0010
,
0100
0001
1000
0010
0110
1000
0100
0010
0001
0010
0100
1000
1001
0010
0100
0001
,
1000
0100
0010
0001
1010
0100
0001
0010
0100
1000
0100
0010
1001
0100
0010
1000
,
0100
0010
0001
1000
0011
0100
1000
0001
0100
0010
1000
0001
0110
1000
0001
1000
,
0010
0100
0010
1000
1001
0100
0010
0001
1000
0010
0100
0001
1100
0010
0100
0001
,
1100
0110
0011
1001
0110
1001
1100
0110
,
0001
0000
0000
0010
0000
0000
0100
0000
0000
1000
0000
0000
0001
0000
0000
0100
0000
0000
0010
0000
0000
1000
0000
0000
0001
0000
0000
0010
0000
0000
0100
0000
1000
0000
0100
0000
0010
0000
0001
0000
1000
0000
0010
0000
1000
0000
0001
0000
,
0220
0000
0000
0000
,
1331
0010
1000
0001
1100
0010
0001
0010
0100
1000
0001
0100
1010
0001
1000
0100
,
0010
0001
0010
0100
1001
0010
0100
0001
1000
0100
0010
0001
1100
0001
1000
0010
,
0100
0001
1000
0010
0110
1000
0100
0010
0001
0010
0100
1000
1001
0010
0100
0001
,
1000
0100
0010
0001
1010
0100
0001
0010
0100
1000
0100
0010
1001
0100
0010
1000
,
0100
0010
0001
1000
0011
0100
1000
0001
0100
0010
1000
0001
0110
1000
0001
1000
,
0010
0100
0010
1000
1001
0100
0010
0001
1000
0010
0100
0001
1100
0010
0100
0001
,
1000
0100
0010
0001
0110
1000
0001
0100
0010
1000
0100
0010
1001
0100
0010
0001
,
1000
0010
0100
0001
1010
0100
0010
0001
1000
0010
0100
0001
1010
0100
0010
0001
,
1001
0100
0010
1000
0101
0010
0001
0010
0100
1000
0001
0100
1010
0001
1000
0100
,
0010
0001
0010
0100
1001
0010
0100
0001
1000
0100
0010
0001
1100
0001
1000
0010
,
0100
0001
1000
0010
0110
1000
0100
0010
0001
0010
0100
1000
1001
0010
0100
0001
,
1000
0100
0010
0001
1010
0100
0001
0010
0100
1000
0100
0010
1001
0100
0010
1000
,
0100
0010
0001
1000
0011
0100
1000
0001
0100
0010
1000
0001
0110
1000
0001
1000
,
0010
0100
0010
1000
1001
0100
0010
0001
0010
0100
1000
0100
0011
1000
0001
0100
,
0010
1000
0100
0010
1100
0001
0010
0100
1000
0100
0010
0001
0110
1000
0001
1000
,
0010
0100
0010
1000
0101
0010
0001
1000
0001
0100
0010
1000
0100
0010
0001
0100
,
1001
0010
1001
0100
0010
0001
1010
0100
,
0001
0010
1001
0010
0100
0001
1010
0100
,
0010
0001
1001
0010
0100
0001
1010
0100
,
0010
0001
0110
1000
0100
0001
0110
1000
,
0001
0100
1010
0100
0010
0001
1001
0100
,
0010
1000
0101
0010
1000
0100
1001
0001
,
0100
0010
1001
1000
0100
0010
1001
0100
,
0010
0000
1000
0000
0101
0000
0010
0000
1100
0000
0001
0000
1000
0010
0100
0010
,
1001
0001
1000
0000
0010
0100
0010
0000
0001
0100
0001
0000
1000
0010
1000
0000
,
0001
0100
0010
0000
1000
0001
0100
0000
0010
1000
0001
0000
1000
0100
0010
0000
,
0001
0010
0100
0000
1000
0001
0010
0000
1000
0001
0100
0000
0010
1000
0001
0000
,
1000
0100
0010
0000
0001
0010
0100
0000
1000
0001
0100
0000
0010
1000
0001
0000
,
0001
0100
0010
0000
1000
0010
0100
0000
0001
0100
0010
0000
1000
0100
0010
0000
,
0001
0010
0100
0000
1000
0100
0010
0000
1000
0001
0100
0000
0010
1000
0001
0000
,
0010
1000
0001
0000
1000
0100
0010
0000
0001
0010
0100
0000
1000
0001
0100
0000
,
0010
1000
0001
0000
0100
0010
1000
0000
0001
0100
0010
0000
1000
0100
0010
0000
,
1001
0000
0000
0000
0000
0000
0200
0320
0030
0020
0030
0000
0000
0000
0000
2000
,
3000
0000
0000
0000
0000
0000
0000
2000
3000
0000
0002
0003
0000
0000
0000
0220
,
0330
0000
0000
2000
3002
0003
0020
0230
2300
3002
0203
0320
2030
3002
0203
0300
,
0000
0220
0000
0000
,
2332
3003
0000
0000
0000
0000
0200
0320
0030
0020
0030
0000
0000
0000
0000
2000
,
3000
0000
0000
0000
0000
0000
0000
2000
3000
0000
0002
0003
0000
0000
0000
0220
,
0330
0000
0000
2000
3002
0003
0020
0230
2300
3002
0203
0320
2030
3002
0203
0300
,
0000
0000
0000
0000
0000
0200
0302
0003
0020
0230
2300
3002
0203
0320
2030
3000
,
1000
0001
1000
0000
0010
0100
0010
0000
0001
0100
0001
0000
1000
0010
1000
0000
,
0001
0100
0010
0000
1000
0001
0100
0000
0010
1000
0001
0000
1000
0100
0010
0000
,
0001
0010
0100
0000
1000
0001
0010
0000
1000
0001
0100
0000
0010
1000
0001
0000
,
1000
0100
0010
0000
0001
0010
0100
0000
1000
0001
0100
0000
0010
1000
0001
0000
,
0001
0100
0010
0000
1000
0010
0100
0000
0001
0100
0010
0000
1000
0100
0010
0000
,
0001
0010
0100
0000
1000
0100
0010
0000
1000
0001
0100
0000
0010
1000
0001
0000
,
0110
1001
0011
0110
1001
1100
1001
0110
,
1000
0000
0000
0010
0000
0000
0100
0000
0000
0001
0000
0000
1000
0000
0000
0001
0000
0000
0010
0000
0000
0100
0000
0000
1000
0000
0000
0001
0000
0000
1000
0000
0100
0000
0010
0000
0001
0000
1000
0000
0010
0000
0100
0000
0001
0000
0000
0000
,
1001
0010
1000
0001
1100
0010
0001
0010
0100
1000
0001
0100
1010
0001
1000
0100
,
0010
0001
0010
0100
1001
0010
0100
0001
1000
0100
0010
0001
1100
0001
1000
0010
,
0100
0001
1000
0010
0110
1000
0100
0010
0001
0010
0100
1000
1001
0010
0100
0001
,
1000
0100
0010
0001
1010
0100
0001
0010
0100
1000
0100
0010
1001
0100
0010
1000
,
0100
0010
0001
1000
0011
0100
1000
0001
0100
0010
1000
0001
0110
1000
0001
1000
,
0010
0100
0010
1000
1001
0100
0010
0001
1000
0010
0100
0001
1100
0010
0100
0001
,
1000
0100
0010
0001
0110
1000
0001
0100
0010
1000
0100
0010
1001
0100
0010
0001
,
1000
0010
0100
0001
1010
0100
0010
0001
1000
0010
0100
0001
1010
0100
0010
0001
,
1001
0100
0010
1000
0101
0010
0001
0010
0100
1000
0001
0100
1010
0001
1000
0100
,
0010
0001
0010
0100
1001
0010
0100
0001
1000
0100
0010
0001
1100
0001
1000
0010
,
0100
0001
1000
0010
0110
1000
0100
0010
0001
0010
0100
1000
1001
0010
0100
0001
,
1000
0100
0010
0001
1010
0100
0001
0010
0100
1000
0100
0010
1001
0100
0010
1000
,
0100
0010
0001
1000
0011
0100
1000
0001
0100
0010
1000
0001
0110
1000
0001
1000
,
0010
0100
0010
1000
1001
0100
0010
0001
0010
0100
1000
0100
0011
1000
0001
0100
,
0010
1000
0100
0010
1100
0001
0010
0100
1000
0100
0010
0001
0110
1000
0001
1000
,
0010
0100
0010
1000
0101
0010
0001
1000
0001
0100
0010
1000
0100
0010
0001
0100
,
2040
0000
0000
0000
,
0000
0034
0000
0000
,
3223
0000
0000
0000
,
1331
0010
1000
0001
1100
0010
0001
0010
0100
1000
0001
0100
1010
0001
1000
0100
,
0010
0001
0010
0100
1001
0010
0100
0001
1000
0100
0010
0001
1100
0001
1000
0010
,
0100
0001
1000
0010
0110
1000
0100
0010
0001
0010
0100
1000
1001
0010
0100
0001
,
1000
0100
0010
0001
1010
0100
0001
0010
0100
1000
0100
0010
1001
0100
0010
1000
,
0100
0010
0001
1000
0011
0100
1000
0001
0100
0010
1000
0001
0110
1000
0001
1000
,
0010
0100
0010
1000
1001
0100
0010
0001
1000
0010
0100
0001
1100
0010
0100
0001
,
1000
0100
0010
0001
0110
1000
0001
0100
0010
1000
0100
0010
1001
0100
0010
0001
,
1000
0010
0100
0001
1010
0100
0010
0001
1000
0010
0100
0001
1010
0100
0010
0001
,
1001
0100
0010
1000
0101
0010
0001
0010
0100
1000
0001
0100
1010
0001
1000
0100
,
0010
0001
0010
0100
1001
0010
0100
0001
1000
0100
0010
0001
1100
0001
1000
0010
,
0100
0001
1000
0010
0110
1000
0100
0010
0001
0010
0100
1000
1001
0010
0100
0001
,
1000
0100
0010
0001
1010
0100
0001
0010
0100
1000
0100
0010
1001
0100
0010
1000
,
0100
0010
0001
1000
0011
0100
1000
0001
0100
0010
1000
0001
0110
1000
0001
1000
,
0010
0100
0010
1000
1001
0100
0010
0001
0010
0100
1000
0100
0011
1000
0001
0100
,
0010
1000
0100
0010
1100
0001
0010
0100
1000
0100
0010
0001
0110
1000
0001
1000
,
0010
0100
0010
1000
0101
0010
0001
1000
0001
0100
0010
1000
0101
0010
0001
0100
,
10M1
0000
0MM0
1001
0MM0
0000
1MM1
0000
0MM0
1001
0MM0
0000
1MM1
0000
0MM0
1001
,
0MM0
0000
1MM1
0000
0MM0
1001
0MM0
0000
1MM1
0000
0MM0
1001
0MM0
0000
1MM1
0000
,
0MM0
1001
0MM0
0000
1MM1
0000
0MM0
1001
0MM0
0000
1MM1
0000
0MM0
1001
0MM0
0000
,
1MM1
0000
0MM0
1001
0MM0
0MM0
1MM1
0000
MMMM
0000
0000
0000
0000
0000
0000
0000
;

//---------------dance-single - ----------------
#NOTES:
     dance-single:
     :
     Hard:
     9:
     0.436,0.497,0.042,0.042,0.000,855.000,12.000,12.000,0.000,0.000:

1000
0100
0010
0001
,
1000
1000
0001
0001
,
0100
0010
1000
0010
,
0100
0001
0010
0100
,
1000
0001
0100
0010
,
1000
0001
0010
0100
,
1000
0100
0010
0001
1000
0001
1000
0001
,
0100
0010
1000
0010
0100
0001
0010
0000
,
0010
0001
1000
0001
0100
0001
0010
0000
,
0100
1000
0001
0000
0100
0010
1000
0000
,
0001
0100
0001
0010
0100
0000
1000
0000
,
1000
0001
0100
0010
1000
0001
0010
0000
,
0010
0001
1000
0001
0100
0001
0010
0000
,
0100
1000
0001
0000
0001
1000
0100
0000
,
1000
0010
0100
0010
1000
0010
0100
0000
,
0001
0010
0100
1000
0001
1000
0010
0100
,
1001
0000
0001
0000
0100
0010
1000
0000
,
1000
0001
0010
0100
0010
0001
1000
0000
,
0100
0001
1000
0001
0100
0010
1000
0000
,
1000
0100
0001
0100
1000
0100
0001
0000
,
1000
0010
0001
0100
0010
0001
1000
0000
,
1000
0100
0001
0010
1000
0100
0001
0000
,
1000
0001
0100
0010
0100
0001
0010
0000
,
0010
0001
1000
0000
1000
0001
0100
0010
,
1000
0001
0010
0000
0010
0001
1000
0000
,
1000
1000
0100
0000
0001
0001
1000
0000
,
0100
0010
1000
0000
1000
0010
0100
0000
,
0001
1000
0100
0000
1000
0001
0100
0000
,
0001
0010
0100
0000
0010
0001
1000
0000
,
1000
0001
0100
0000
0100
0001
0010
0000
,
1000
1000
1000
0000
0001
0001
0001
0000
,
0100
0010
1000
0000
1000
0010
0100
0000
,
1001
0000
0100
0000
0010
0001
1000
0000
,
1000
0000
0010
0000
0100
0001
0010
0000
,
0100
0000
1000
0001
1000
0010
0100
0001
,
0010
0000
0100
0000
1000
0000
1000
0001
,
0010
0000
0010
0001
1000
0000
0010
0000
,
0100
0000
0001
1000
0001
0000
0010
0000
,
0100
0000
1000
0000
1000
0010
0100
0001
,
0010
0000
0010
0001
1000
0010
0100
0001
,
1001
0010
1000
0001
,
1000
1000
0001
0001
,
0100
0100
0010
1000
,
0001
0010
0100
1000
,
1000
0010
0100
0100
,
0001
0001
1000
1000
,
0100
0100
0010
0001
,
1000
0010
0100
0010
,
1001
0100
1000
0001
,
0100
0010
0100
1000
,
0100
0000
0010
0000
0001
1000
0000
0010
,
0000
0100
0000
0001
0000
0010
0000
0100
,
1000
0001
1000
0001
0100
0010
1000
0001
,
0000
1000
0001
0100
0000
0100
0001
0010
,
0000
1000
0000
0001
0000
1000
0000
0010
,
0000
1000
0001
0100
0001
0100
0010
1000
,
1001
0001
0010
0100
1000
0001
0100
0000
,
0010
0000
1000
0001
0010
0100
1000
0000
,
0001
0000
0100
0010
1000
0010
0100
0001
,
0010
0000
0001
0000
1000
0001
0100
0001
,
0010
0000
1000
0001
0010
0000
0100
0000
,
1000
0000
0001
0000
0100
0010
1000
0000
,
0010
0000
0100
0001
1000
0100
0001
1000
,
0001
0000
0100
0000
0001
1000
0100
0001
,
0100
0010
1000
0000
0001
1000
0100
0000
,
1000
0001
0100
0000
0010
0100
1000
0000
,
1000
0100
0010
0000
1000
0100
0001
0000
,
0001
0100
0010
0000
1000
0100
0010
0000
,
1000
0001
0100
0001
0010
0100
1000
0000
,
1000
0001
0100
0010
1000
0010
0100
0000
,
1000
1000
0100
0100
0010
0010
0001
0001
,
1000
0010
0100
0010
1000
0010
0001
0100
,
1001
0000
0000
0000
,
1010
0000
0010
0100
0001
0010
0100
0000
,
1000
0001
0100
0001
1000
0010
1000
0000
,
1000
0100
0001
0010
0100
0001
1000
0000
,
1000
0100
0001
1000
0010
0001
0010
0000
,
1000
0100
0001
0010
1000
0001
0100
0000
,
0010
1000
0001
0100
0001
0010
0001
0000
,
1000
0100
0010
0001
1000
0010
0100
0000
,
0001
1000
0001
0100
0010
1000
0010
0000
,
1001
0000
0100
0000
1000
0001
0100
0000
,
0010
1000
0001
0000
0010
0100
1000
0000
,
1000
0001
0100
0000
0100
0001
0010
0000
,
0010
0001
1000
0000
1000
0010
0100
0000
,
0100
0001
0010
0000
1000
0001
0100
0000
,
1000
0100
0001
0000
1000
0010
0001
0000
,
0001
0010
0100
0000
0001
1000
0010
0000
,
1000
0001
0010
0000
0010
0100
1000
0000
,
1001
0000
0010
0000
0100
0001
0010
0000
,
0100
0000
1000
0000
1000
0010
0100
0000
,
0001
0000
1000
0001
0010
0100
0010
0001
,
1000
0000
0010
0000
1000
0001
0010
0100
,
1000
0000
0001
0100
0010
0000
1000
0000
,
0100
0000
0010
0000
0001
0100
0010
0000
,
1000
0000
1000
0001
0100
0010
0100
0001
,
0010
0000
0001
0000
1000
0001
1000
0010
,
0100
0001
0010
0000
0010
0001
1000
0000
,
1000
0001
0100
0000
0100
0010
1000
0000
,
0001
0100
0010
0000
1000
0100
0010
0000
,
0001
1000
0010
0000
0100
0001
1000
0000
,
1000
0100
0010
0000
0010
0001
1000
0000
,
1000
0010
0100
0000
0100
0001
1000
0000
,
0100
0010
0001
0000
1000
0100
0010
0000
,
0001
1000
0010
0000
0100
0001
0010
0000
,
2001
0000
0000
0000
,
3020
0000
0000
0000
,
0230
0000
0000
0000
,
0302
0000
0000
0000
,
2003
0000
0000
0000
,
3200
0000
0000
0000
,
0320
0000
0000
0000
,
0032
0000
0000
0000
,
1003
0010
0100
0001
,
1000
0001
0100
0001
,
0010
0010
0100
0100
,
0001
0001
1000
0010
,
1000
0100
0010
0001
,
1000
0001
0100
0010
,
1000
1000
0001
0001
0100
0100
0010
0010
,
1000
0001
0100
0001
0010
0100
1000
0001
,
0100
0000
0010
0000
1000
0001
0010
0000
,
0010
0001
1000
0010
0100
0000
0100
0001
,
0010
0000
1000
0001
0100
0000
0010
0000
,
1000
0000
0001
0000
0100
0010
1000
0010
,
0100
0000
0001
1000
0001
0000
0010
0000
,
0001
0000
0100
0001
0010
0000
0010
0001
,
1000
0000
1000
0010
0100
0001
1000
0000
,
0001
0000
0100
0000
0010
1000
0001
0000
,
1001
0001
0100
0000
0100
0010
1000
0000
,
0100
0010
0001
0000
1000
0001
0010
0000
,
0010
0001
1000
0000
0100
0010
0001
0000
,
1000
0010
0100
0000
0001
1000
0100
0000
,
1000
0001
0100
0000
0010
1000
0001
0000
,
0001
1000
0100
0000
0100
0010
0001
0000
,
0001
1000
0010
0000
0100
0001
1000
0000
,
1000
0001
0010
0000
0010
0001
1000
0000
,
0020
0000
0000
0000
,
0000
0000
0000
0000
,
0230
0000
0000
0000
,
0301
0000
1000
0010
0100
0001
0010
0000
,
1000
0001
0100
0000
1000
0010
0100
0000
,
0001
0010
0100
0000
1000
0001
0100
0000
,
0010
1000
0001
0000
0001
1000
0010
0000
,
0100
0001
1000
0000
1000
0010
0100
0000
,
0001
0010
0100
0000
0001
1000
0001
0000
,
0100
0001
0010
0000
0010
0001
0100
0000
,
0100
0010
1000
0000
1000
0010
0100
0001
,
1000
0010
0100
0000
0001
1000
0001
0000
,
1000
0100
0010
0000
0001
1000
0010
0000
,
0100
0001
0010
0000
0010
0001
0100
0000
,
0100
0010
1000
0000
1000
0010
0100
0000
,
0100
0001
0010
0000
0100
1000
0001
0000
,
0100
0010
0001
0000
1000
0100
0010
0000
,
0001
0100
0010
0000
1000
0001
0100
0000
,
0010
1000
0100
0000
1000
0010
0100
0000
,
2002
0000
0000
0000
,
0000
0000
0000
0000
,
0000
0000
0000
0000
,
3003
0000
0000
0000
;
