#TITLE:Fury of the Storm;
#SUBTITLE:Sonic Firestorm;
#ARTIST:DragonForce;
#TITLETRANSLIT:;
#SUBTITLETRANSLIT:;
#ARTISTTRANSLIT:;
#CREDIT:;
#BANNER:FotS - BN.png;
#BACKGROUND:FotS - BG.png;
#LYRICSPATH:;
#CDTITLE:CDtitle.png;
#MUSIC:Fury of the Storm FINAL.mp3;
#OFFSET:-1.239;
#SAMPLESTART:104.380;
#SAMPLELENGTH:12.000;
#SELECTABLE:YES;
#BPMS:0.000=200.000,100.000=207.500,104.000=200.000,311.000=202.500,312.000=200.000,690.000=193.500,692.000=200.000;
#STOPS:;
#BGCHANGES:;
// cache tags:
#FIRSTBEAT:4.000;
#LASTBEAT:696.500;
#SONGFILENAME:Songs/Guitar Minipack/Fury of the Storm/Fury of the Storm FINAL.sm;
#HASMUSIC:1;
#HASBANNER:1;
#MUSICLENGTH:211.513;
// end cache tags

//---------------dance-single - Copied from----------------
#NOTES:
     dance-single:
     Copied from:
     Hard:
     13:
     1.000,1.000,0.723,0.355,1.000,1897.000,153.000,75.000,0.000,0.000:
0000
0000
0000
0000
,
0101
0000
1000
0100
0010
0100
1010
1010
,
1100
0000
0000
0000
0100
0000
0010
0000
0001
0000
0010
0000
0200
0000
0000
0300
,
1010
0000
0100
0010
0001
0010
0100
0010
,
0010
0001
0010
0001
0100
0010
0100
0010
1000
0100
1000
0100
2000
0000
0000
3000
,
0101
0000
0000
0000
1000
0000
0100
0000
0010
0000
0100
0000
2000
0000
0000
3000
,
0110
0000
0000
0000
0100
0000
0010
0000
0001
0000
0010
0000
0200
0000
0000
0300
,
1010
1010
1010
1010
,
1010
0000
0000
0000
0000
0000
1010
0000
0000
0000
0000
0000
1010
0000
0000
0001
0010
0100
1010
0000
0000
0000
0000
0000
,
0100
1000
0100
0010
0001
0010
0100
1000
0100
0010
0100
0010
0001
0010
0100
1000
,
0010
0100
1000
0100
0001
0010
0100
1000
0010
0100
0010
0100
1000
0100
0010
0001
,
0100
1000
0100
0010
0001
0010
0100
1000
0100
0010
0100
0010
0001
0010
0100
1000
,
0100
0010
0100
0010
0001
0010
0001
0010
0100
0010
0100
0010
0200
0000
0000
0300
,
1000
0100
0010
0001
0010
0100
0010
0001
0100
1000
0100
0010
0001
0010
0100
0000
,
1000
0100
0010
0001
0100
0010
0001
0010
0100
1000
0100
1000
0100
0010
0001
0000
,
1000
0100
0010
0001
0010
0100
0010
0001
0100
1000
0100
0010
0001
0010
0100
1000
,
0010
0001
0010
0001
0100
0010
0100
0010
1000
0100
1000
0100
2000
0000
0000
3000
,
0100
0010
0100
1000
0001
0010
0100
1000
0100
0010
0100
0010
0001
0010
0100
0000
,
1000
0100
0010
0001
0100
0010
0001
0010
1000
0100
1000
0100
0010
0001
0010
0000
,
1000
0100
0010
0001
0010
0100
0010
0001
0100
1000
0100
0010
0001
0010
0100
1000
,
0100
0010
0100
0010
0001
0010
0001
0010
0100
0010
0100
0010
0002
0000
0000
0003
,
0100
0010
0100
1000
0001
0010
0100
1000
0100
0010
0100
0010
0001
0010
0100
0000
,
0010
0001
0010
0100
1000
0100
0010
0001
0100
0010
0100
0010
0001
0010
0100
0000
,
1000
0100
0010
0100
0010
0001
1000
0100
0010
0001
0100
0010
0001
0010
0100
1000
,
0110
0000
0000
0000
,
0000
0000
0000
0000
,
0110
0000
0100
0100
0100
0100
0100
0100
,
0011
1000
0110
1000
0010
0100
0010
0100
,
1010
0000
1000
1000
1000
1000
1000
1000
,
1100
0010
1000
0010
1100
0010
1000
0010
1000
0000
0100
0000
0020
0000
0000
0030
,
0101
0110
1001
0110
0011
1100
1100
1100
,
0101
0110
1001
0110
0011
1100
1100
1100
,
1000
1000
0100
1000
0010
1000
0001
1000
,
0010
0000
0100
0000
0010
0000
0002
0000
0000
0000
0000
0000
0000
0000
0000
0003
,
0010
0100
1100
1000
0110
1000
1100
1000
,
0101
0000
1000
0000
0101
0000
0110
0000
0000
0000
0210
0000
0000
0000
0000
0300
,
0011
0011
1100
0011
0001
1100
0011
0001
,
0110
0110
1100
0110
0010
1100
0110
0010
,
0101
1000
1000
0110
1000
1000
0110
1000
,
0011
1000
0101
1000
0110
1000
1010
1000
,
1100
1000
1000
1100
1000
1000
0011
1000
,
0101
1000
0110
1000
0011
1000
0210
1300
,
0010
1000
0100
1000
0010
1000
0001
1000
,
0100
1000
0010
1000
0001
1000
0010
1000
,
0200
0300
0020
0030
0002
0003
0010
0000
0000
0000
0200
0000
0000
0000
0000
0300
,
1000
0000
0100
0000
0010
0000
0100
0000
0000
0000
0002
0000
0000
0000
0000
0003
,
0110
1000
0100
0010
0001
0000
0000
0000
1010
0001
0010
0100
1000
0000
0000
0000
,
1100
0010
0100
0010
0001
0010
0100
0010
0100
1000
0100
0010
1001
0000
0000
0000
,
0110
1000
0100
0010
0001
0000
0000
0000
1010
0001
0010
0100
1000
0000
0000
0000
,
1100
0010
0100
0010
0001
0010
0100
0010
0100
1000
0100
0010
1002
0000
0000
0003
,
0110
1000
0100
0010
0001
0000
0000
0000
1010
0001
0010
0100
1000
0000
0000
0000
,
1100
0010
0100
0010
0001
0010
0100
0010
0100
0000
0010
0000
1001
0000
0000
0000
,
0110
1000
0100
0010
0001
0000
0000
0000
1010
0001
0010
0100
1000
0000
0000
0000
,
1100
0100
0010
0010
0100
0100
1000
1000
0100
0100
0010
0010
0002
0000
0000
0003
,
0100
1000
0100
0010
0001
0010
0100
1000
0010
0100
1000
0100
0010
0100
0010
0001
,
0100
0010
0001
0010
0100
1000
0100
0010
0100
0010
0001
0010
0200
0000
0000
0300
,
0001
0010
0100
1000
0100
0010
0100
0010
0100
1000
0100
0010
0001
0010
0100
1000
,
0100
0010
0100
0010
0001
0010
0100
0010
0002
0000
0000
0003
0100
0000
0000
0000
,
0010
0100
1000
1000
0100
0100
0010
0010
,
1000
0000
0000
0000
0100
0000
0020
0000
0000
0000
0000
0000
0000
0000
0000
0030
,
1000
0100
0010
0001
0010
0100
0010
0100
1000
0100
0010
0001
0010
0100
0010
0001
,
1000
0100
0010
0001
0010
0100
0010
0100
1000
0100
0010
0001
1000
0100
0010
0001
,
0200
0000
0000
0300
0200
0000
0000
0300
0200
0000
0000
0300
0001
0000
0010
0000
,
0100
0000
1000
0000
0000
0000
0002
0000
0000
0003
0010
0000
0100
0000
2000
0000
,
0000
0000
0000
3000
0100
0000
0000
0000
1000
0000
0000
0000
0100
0000
0000
0000
,
0010
0000
0000
0000
0002
0000
0003
0010
0000
0000
0100
0000
1000
0000
0100
0000
,
0001
0000
0010
0000
0100
0000
0020
0000
0000
0030
0100
0000
1000
0000
0100
0000
,
0010
0001
0010
0001
0100
0000
1000
0000
0100
0000
0010
0000
0002
0000
0000
0003
,
0110
0110
0110
1010
1010
1010
1100
1100
,
0001
0010
0100
1000
0001
0010
0100
1000
0100
0010
0100
0010
0001
0010
0100
1000
,
0011
1000
0001
1000
0001
1000
0001
1000
0010
1000
0001
1000
0010
1000
0100
1000
,
0011
1000
0001
1000
0001
1000
0001
1000
0010
1000
0001
1000
0010
1000
0100
1000
,
0110
1000
0100
1000
0100
1000
0100
1000
0001
1000
0010
1000
0100
1000
0010
1000
,
0110
1000
0100
1000
0100
1000
0100
1000
0001
1000
0010
1000
0100
1000
0010
1000
,
0011
1000
0001
1000
0001
1000
0001
1000
0010
1000
0001
1000
0010
1000
0100
1000
,
0011
1000
0001
1000
0001
1000
0001
1000
0010
1000
0001
1000
0010
1000
0100
1000
,
0110
1000
0100
1000
0100
1000
0100
1000
0001
1000
0010
1000
0100
1000
0010
1000
,
0110
1000
0100
1000
0100
1000
0100
1000
0001
1000
0010
1000
0100
1000
0010
1000
,
0011
1000
0001
1000
0001
1000
0001
1000
0010
1000
0001
1000
0010
1000
0100
1000
,
0011
1000
0001
1000
0001
1000
0001
1000
0010
1000
0001
1000
0010
1000
0100
1000
,
0110
1000
0100
1000
0100
1000
0100
1000
0001
1000
0010
1000
0100
1000
0010
1000
,
0110
1000
0100
1000
0100
1000
0100
1000
0001
1000
0010
1000
0100
1000
0010
1000
,
0011
1000
0001
1000
0001
1000
0001
1000
0010
1000
0001
1000
0010
1000
0100
1000
,
0011
1000
0001
1000
0001
1000
0001
1000
0010
1000
0001
1000
0010
1000
0100
1000
,
0110
1000
0100
1000
0110
1000
0100
1000
0011
1000
0010
1000
0101
1000
0010
1000
,
0110
1000
0100
1000
0110
1000
0100
1000
0011
1000
0010
1000
0101
1000
0010
1000
,
0010
0010
1000
1000
0100
0100
1000
1000
0010
0010
1000
1000
0001
0001
1000
1000
,
0100
0000
0000
0000
0000
0000
0020
0000
0000
0000
0000
0000
0000
0000
0000
0030
0000
0000
0000
0000
0100
0000
0000
0000
0001
0000
0000
0010
0000
0000
0001
0000
0000
0010
0000
0000
0200
0000
0000
0000
0000
0000
0000
0000
0000
0300
0000
0000
,
0010
0000
0001
0010
0100
1000
0010
0000
0100
0000
0001
0010
0100
1000
0100
0000
,
0020
0030
0000
0000
0020
0030
0000
0000
0200
0000
0000
0000
0300
0000
0000
0000
0020
0030
0000
0000
0020
0030
0000
0000
0200
0000
0000
0000
0300
0000
0000
0000
,
1000
0100
0010
0001
0100
1000
0100
1000
0010
1000
0100
1000
0010
1000
0001
1000
,
0100
1000
0100
0010
0001
0010
0100
1000
0100
0010
0100
0010
0002
0000
0000
0003
,
0100
0000
1000
1000
0010
0000
1000
1000
0100
0100
0010
0010
0001
0001
0010
0000
,
0001
0001
0001
0001
0100
0000
0001
0001
0001
0001
0001
0001
0100
0000
0001
0000
,
0020
0000
0030
0000
0002
0000
0003
0000
0020
0000
0030
0000
0100
0010
0100
0010
,
0002
0003
0020
0030
0200
0300
2000
3000
,
0001
0010
0100
1000
0100
0010
0100
1000
0010
0001
0010
0100
2000
0000
0000
3000
,
0020
0000
0000
0000
0000
0000
0000
0000
0000
0000
0000
0000
0000
0000
0000
0000
0000
0000
0000
0000
0000
0000
0000
0000
0000
0000
0000
0000
0000
0000
0000
0000
0000
0000
0000
0000
0030
0000
0000
0000
0000
0000
0000
0000
0000
0100
0000
0000
0000
0000
0000
0000
0000
0000
0000
0000
0000
0000
0010
0000
0000
0000
0000
0000
0000
0000
0000
0000
0000
0000
0000
0000
0100
0000
0000
0000
0000
0000
0000
0000
0000
0000
0000
0000
0010
0000
0000
0000
0000
0000
0000
0000
0000
0000
0000
0000
0100
0000
0000
0000
0000
0000
0000
0000
0000
0000
0000
0000
0000
0000
0000
0010
0000
0000
0000
0000
0000
0000
0000
0000
0000
0000
0000
0000
0000
0000
0100
0000
0000
0000
0000
0000
0000
0000
0000
0000
0000
0000
0000
0000
0000
0010
0000
0000
0000
0000
0000
0000
0000
0000
0000
0000
0000
0000
0000
0000
0100
0000
0000
0000
0000
0000
0000
0000
0000
0000
0000
0000
0000
0000
0000
0010
0000
0000
0000
0000
0000
0000
0000
0000
0000
0000
0000
0000
0000
0000
0000
0000
0000
0000
0000
0000
,
0001
0010
0100
1000
0100
0010
0001
0010
1000
0100
0010
0001
0010
0100
0010
0001
,
1000
0100
0010
0001
0010
0100
0010
0100
1000
0100
0010
0001
0020
0000
0000
0030
,
0100
0000
0010
0000
0001
0010
0001
0001
0010
0010
0100
0000
0100
1000
0000
0000
,
0200
0000
0000
0000
0000
0000
0000
0300
,
0010
0001
0010
0100
1000
0100
0010
0001
1000
0100
1000
0100
0020
0000
0000
0030
,
0100
0010
0001
0010
1000
0100
0010
0001
0100
0010
0100
0010
0002
0000
0000
0003
,
0100
0100
1000
1000
0100
0100
0010
0010
0001
0001
0010
0010
0100
0100
1000
1000
,
0100
1000
0100
1000
0100
0010
0002
0003
0100
1000
0100
1000
0100
0010
0002
0003
,
0100
0000
0100
0000
1000
0000
0200
0000
0000
0300
1000
0000
0100
0000
0010
0000
,
0001
0000
0001
0000
0010
0000
0001
0000
0010
0000
0100
0000
0002
0000
0000
0003
,
0100
0100
1000
0100
0010
0001
0010
0100
,
0010
0000
0000
0000
0000
0000
0000
0000
0000
0010
0000
0000
0001
0000
0000
0000
0000
0000
0000
0000
1000
0000
0000
0000
0100
0000
0000
0010
0000
0000
0100
0000
0000
0010
0000
0000
0002
0000
0000
0000
0000
0000
0000
0000
0000
0003
0000
0000
,
0100
0000
1000
0000
0100
0000
0020
0000
0000
0030
0100
0000
0001
0000
0001
0000
,
0010
0000
0010
0000
0100
1000
0200
0000
0000
0300
0010
0000
0100
0000
0010
0000
,
0001
0001
0010
0010
0100
0010
0100
1000
,
0100
0010
0001
0001
0010
0100
0010
0100
,
0001
0010
0100
1000
0001
0010
0100
1000
0010
0010
0001
0001
0010
0010
0100
0000
,
0001
0010
0100
0010
0001
0010
0100
1000
0100
0100
0010
0010
0100
0100
1000
0000
,
0010
0100
0010
0001
0010
0100
1000
0100
0010
0100
0010
0001
0010
0100
1000
0000
,
0010
0100
1000
0000
0001
0010
0100
1000
0001
0000
0010
0000
0100
0000
1000
0000
0100
0000
0010
0000
0100
0000
0010
0000
0001
0000
0010
0000
0100
0000
1000
0000
,
0101
0010
0100
1000
0100
0010
0100
0010
1001
0010
0100
1000
0010
0001
0010
0001
,
1010
0100
0010
0001
0100
0010
0100
0010
1100
0010
0100
1000
0010
0100
0010
0100
,
1010
0100
0010
0001
0100
1000
0100
1000
0101
0010
0100
1000
0010
0001
0010
0001
,
0110
1000
0100
0010
0100
1000
0100
1000
0011
0100
0010
0001
0010
0100
0010
0100
,
0001
0010
0100
1000
0100
0001
0100
0001
0100
0010
0100
0010
0100
1000
0100
0010
,
1000
0100
1000
0100
1000
0100
0010
0001
0100
0000
0010
0000
0100
0000
1000
0000
,
0010
0001
0010
0100
0010
0000
1000
0000
0010
0000
1000
0000
0100
0000
1000
0000
,
0100
0000
0010
0000
0001
0000
0010
0000
0200
0000
0000
0000
0000
0000
0000
0300
,
1000
0100
0010
0000
0001
0010
0100
0000
1000
0100
0010
0001
0010
0000
1000
0100
,
1000
0000
0100
0000
0001
0010
0001
0010
0200
0000
0000
0300
0100
1000
0100
1000
,
0100
0010
0001
0010
0001
0010
0100
1000
0100
0010
0100
1000
0001
0010
0100
1000
,
0100
0010
0100
0000
0010
0100
1000
0000
0200
0300
0020
0030
0200
0000
0000
0300
,
0020
0000
0000
0030
0100
0000
0010
0000
0001
0000
0010
0000
0100
0000
1000
0000
,
0010
0000
0100
0000
0010
0000
0001
0000
0010
0000
0100
0000
2000
0000
0000
3000
,
0100
1000
1000
0100
0010
0100
0100
0010
,
0001
0000
0010
0000
0010
0000
0100
0000
0002
0000
0000
0000
0000
0000
0000
0003
,
0200
0000
0000
0300
0200
0000
0000
0300
0200
0000
0000
0300
1000
0000
0100
0000
,
0010
0000
0001
0000
0010
0000
0200
0000
0000
0000
0000
0300
1000
0000
0100
0000
,
0010
0100
1000
0100
0010
0001
0010
0001
0100
1000
0100
0010
0100
1000
0001
0010
,
0100
1000
0100
0010
0100
0010
0001
0010
0200
0000
0000
0000
0000
0000
0300
0000
,
1000
0100
0010
0001
0010
0100
0010
0001
1000
0100
0010
0001
0010
0100
1000
0100
,
0010
0001
0010
0001
0010
0100
1000
0100
0001
0010
0100
1000
0200
0000
0000
0300
,
0010
0010
0010
1000
0100
0100
0100
0010
,
0001
0010
0100
0100
0010
0100
2000
3000
,
0001
0010
0001
0010
0100
1000
0100
0010
0001
0010
0100
1000
0100
0010
0100
1000
,
0100
0010
0100
0010
0001
0010
0100
1000
0001
0010
0100
1000
0100
0010
0100
1000
,
0001
0010
0001
0010
0001
0010
0100
0010
0001
0100
1000
0100
1000
0100
1000
0001
0010
0100
0010
0100
1000
0100
0010
0001
,
1000
0000
0100
0000
1000
0000
0100
0000
0010
0000
0001
0000
0010
0000
0100
0000
0010
0000
0001
0000
0010
0000
0100
0000
1000
0000
0000
0100
0000
0000
1000
0000
0000
0100
0000
0000
1000
0000
0000
0100
0000
0000
1000
0000
0000
0100
0000
0000
,
1001
0000
0000
0000
,
0000
0000
0000
0000
,
0000
0000
0000
0000
,
0000
0000
0000
0000
,
0000
0000
0000
0000
,
0000
0000
0000
0000
,
1001
0010
0001
0010
0001
0010
1001
0010
0001
0010
0001
0010
1001
0010
0001
0010
,
1100
0010
0100
0010
1000
0001
1100
0010
0100
0010
1000
0001
1100
0010
0100
0010
,
0101
0010
0100
0001
1000
0010
0100
0010
1000
0001
1000
0010
0100
0001
0010
0001
,
1010
0001
1000
0010
0100
0001
1000
0001
0100
0010
0100
0001
1000
0010
0100
0001
,
0110
0001
0100
0010
1000
0001
0100
0001
1000
0010
1000
0001
0100
0010
1000
0010
,
1100
0001
0100
0010
1000
0001
0100
0001
1000
0010
1000
0001
0100
0010
1000
0010
,
0001
0100
0001
0100
0010
0100
0001
0100
0001
0100
0001
0100
0010
1000
0010
1000
,
0001
0100
0001
0100
0010
0100
0001
0100
0001
0100
0001
0100
0010
1000
0010
1000
,
0110
0001
0010
0001
0100
1000
0110
0001
0010
0001
0100
1000
0110
0001
0010
0001
,
1100
0010
0100
0010
0100
0010
0100
0010
1000
0010
1000
0010
1000
0010
1000
0010
,
0101
0000
0001
0000
0100
0010
0100
0000
1000
0000
1000
0000
0001
0100
0001
0000
,
1010
0000
0010
0000
0100
1000
0100
0000
0010
0000
0010
0000
1000
0001
1000
0000
,
0110
0000
0010
0000
0001
0100
0001
0000
1000
0000
1000
0000
0010
0100
0010
0000
,
1100
0000
0100
0000
0001
1000
0001
0000
0010
0000
0010
0000
0100
1000
0100
0000
,
0011
0000
0001
0000
0010
1000
0010
0000
0100
0000
0100
0000
1000
0001
1000
0000
,
0110
0000
0100
0000
0001
0010
0001
0000
1000
0000
1000
0000
0010
0100
0010
0000
,
1100
0000
0100
0000
0001
1000
0001
0000
0010
0000
0010
0000
0100
0001
0100
0000
,
1000
0100
0010
0100
1000
0100
0010
0100
0001
1000
0001
1000
0100
1000
0100
1000
,
0011
0000
0000
0000
,
0110
0000
0000
0000
,
1100
0010
1000
0010
1000
0010
1000
0010
1000
0010
1000
0010
1000
0010
1000
0010
,
1001
0000
1001
0000
1010
0000
2200
0000
0000
0000
0000
0000
,
0000
3300
0000
0000
0000
0000
0000
0000
;
