#TITLE:Heart of a Dragon;
#SUBTITLE:;
#ARTIST:Dragonforce;
#TITLETRANSLIT:;
#SUBTITLETRANSLIT:;
#ARTISTTRANSLIT:;
#CREDIT:;
#BANNER:dragon.png;
#BACKGROUND:dragon-bg.png;
#LYRICSPATH:;
#CDTITLE:jplol.png;
#MUSIC:dragon.mp3;
#OFFSET:-0.243;
#SAMPLESTART:12.000;
#SAMPLELENGTH:26.000;
#SELECTABLE:YES;
#BPMS:0.000=195.000;
#STOPS:62.500=0.310
;
#BGCHANGES:;
// cache tags:
#FIRSTBEAT:0.000;
#LASTBEAT:346.500;
#SONGFILENAME:Songs/Essential Sim Collection/(Mystic Snake) dragon/dragon.sm;
#HASMUSIC:0;
#HASBANNER:1;
#MUSICLENGTH:100.000;
// end cache tags

//---------------dance-single - ----------------
#NOTES:
     dance-single:
     :
     Challenge:
     13:
     1.000,1.000,1.000,0.680,1.000,820.000,118.000,68.000,0.000,1.000:
1010
1000
1000
1000
,
1000
1000
1000
1000
,
1010
0010
0010
0010
,
0010
0010
0010
0010
,
0101
0001
0001
0001
,
0001
0000
0000
0000
0001
0000
0000
0000
0001
0000
0001
0010
0001
0000
0000
0000
,
1100
0000
0000
0000
0100
0000
0000
0000
0100
0000
0000
0000
0100
0000
0100
0010
,
0100
0100
1100
0110
,
0011
0000
0000
0000
0001
0000
0000
0000
0001
0000
0000
0000
0001
0000
0010
0100
,
1001
0000
0000
0000
1000
0000
0000
0000
1000
0000
0000
0000
1000
0000
0100
0010
,
0011
0010
0010
0010
,
1010
0000
0000
0000
0010
0000
0000
0000
0010
0000
0000
0000
0010
0000
1000
0100
,
1010
0000
0000
0000
0010
0000
0000
0000
0010
0000
0000
0000
0010
0000
1000
0100
,
0101
0000
0000
0000
0100
0000
0000
0000
0100
0000
0000
0000
0100
0000
0010
1000
,
2200
0000
3300
1000
0100
1000
0100
1000
,
0100
1000
0100
1000
0100
0000
1000
0001
,
0010
0100
1000
0000
0001
0000
0100
0000
0010
1000
0100
0000
0010
0000
0001
0000
,
1000
0010
0100
0000
0001
0000
1000
0000
0010
1000
0001
0000
0010
0000
0100
0000
,
1000
0100
0001
0000
0100
0000
0010
0000
0001
0100
0010
0000
0100
0000
0001
0000
,
1000
0010
0001
0000
0100
0000
0010
0000
1000
0100
0010
0000
0100
0000
1000
0000
,
0010
0100
0001
0000
1000
0000
0010
0000
0100
0001
0010
0000
1000
0000
0001
0000
,
1000
0010
0100
0000
0001
0000
0010
0000
0001
1000
0010
0000
0100
0000
0010
0000
,
1000
0010
0001
0000
0001
0000
1000
0000
0001
0010
0001
0000
0010
0100
0001
0010
,
0100
1000
0010
0100
0001
0100
0010
1000
0100
0010
0001
1000
0001
0000
0100
0000
,
0001
0010
0001
0000
1000
0000
0010
0000
0100
0010
0100
0000
0001
0000
0010
0000
,
0100
1000
0100
0000
0010
0000
0001
0000
0100
0010
0100
0000
1000
0000
0010
0000
,
0100
0001
0100
0000
0010
0000
1000
0000
0001
0010
0001
0000
0100
0000
0001
0000
,
1000
0010
1000
0000
0100
0000
0010
0000
0001
0100
0001
0000
0010
0000
0100
0000
,
1000
0010
1000
0000
0001
0000
1000
0000
0010
0100
0010
0000
1000
0000
0100
0000
,
0010
0001
0010
0000
0100
0000
1000
0000
0010
0100
0010
0000
1000
0000
0001
0000
,
0001
0100
0001
0000
0001
0000
1000
0000
1000
0100
1000
0000
0010
0100
0001
0010
,
0100
1000
0100
0010
0100
1000
0001
0010
0100
1000
1100
0000
0010
0000
0101
0000
,
0101
0101
0101
0010
1010
0100
1010
0010
,
1100
1100
0010
0001
1001
1000
0101
0101
,
0010
1000
1100
1000
0101
0010
1001
1000
,
0110
0110
0001
0100
1100
0010
1001
0001
,
0011
0011
0100
0010
0101
0100
1001
0010
,
1100
1100
0010
0100
1001
0010
0022
0000
,
0033
0202
0000
0303
2002
3003
2200
3300
,
0001
0010
0100
1000
0100
0010
0001
0010
0100
0010
0001
0010
0101
0000
0010
0000
,
1001
1001
0010
1000
1100
0010
1001
0100
,
1001
0101
0010
1000
1010
0100
0101
0001
,
0101
1010
0100
1000
1100
0001
0101
0010
,
1010
1100
0010
0100
1001
1000
0110
1000
,
1100
0101
0001
0010
0011
0100
1001
0101
,
0010
1100
0010
1000
1100
1000
2020
0000
,
3030
0000
2002
0000
0000
0000
3003
0000
0202
0000
0303
0000
0110
0001
0010
0100
,
1000
0001
0010
0100
1000
0001
0010
0100
1001
0000
0000
0000
1001
1000
0100
0010
,
0001
0100
0010
1000
0100
0010
0001
0010
0100
1000
0001
0010
0100
0010
0001
1000
,
0100
0010
0001
0100
0010
1000
0100
0010
0001
0010
0100
1000
0100
0010
0100
0010
,
0100
0001
1000
0001
0010
0100
1000
0100
0010
0001
1000
0001
0010
0100
1000
0001
,
0010
0100
1000
0100
0010
0001
0010
0100
1000
0100
0010
0001
1000
0010
0100
0001
,
0100
0010
0100
0001
1000
0010
0100
0010
1000
0100
0010
0100
1000
0001
0100
0010
,
0100
0001
0010
0001
1000
0100
0010
0001
1000
0100
0010
0001
0100
0010
1000
0100
,
0010
0001
1000
0100
1000
0010
0100
0010
0100
0001
0010
0001
0010
0100
1000
0100
,
1000
0100
0010
0001
0010
0100
1000
0010
1000
0100
1000
0001
0010
0100
1000
0001
,
0010
0100
1000
0100
0010
0100
1000
0001
0010
0100
0010
0001
1000
0010
1000
0100
,
0010
0001
0010
0001
0010
0100
1000
0001
1000
0100
0010
0001
1000
0001
0010
0100
,
1000
0010
0100
0001
0010
0100
1000
0100
0010
0001
0010
0001
1000
0100
1000
0010
,
1000
0010
0100
0010
0100
0001
0010
0001
0100
0001
1000
0100
0010
0001
1000
0100
,
0010
0100
1000
0010
1000
0010
1000
0010
1000
0001
1000
0001
1000
0001
1000
0010
,
0100
0001
1000
0001
1000
0001
0100
0001
0100
0001
0100
0001
2020
0000
0000
0000
,
3030
0001
0010
0100
1000
0010
0100
0001
0010
0100
1000
0100
0010
0001
0100
0010
,
1000
0100
0010
0001
1000
0001
1000
0001
1000
0001
1000
0001
2002
0000
0000
0000
,
3003
0022
0000
0033
2200
3300
0202
0303
,
1001
0000
2200
0000
0000
0000
0000
0000
0000
0000
0000
0000
3301
0010
0100
1000
,
0100
0010
0100
1000
0010
1000
0100
0010
0001
0010
0001
0100
0001
1000
0100
0010
,
0001
0010
0100
1000
0100
0010
0100
1000
0001
0010
0100
0010
0100
0010
0001
0010
,
0100
1000
0010
1000
0100
1000
0010
1000
0100
0010
0001
0010
0001
0100
0001
0010
,
0100
0000
0000
1000
0000
0000
0010
0000
0000
1000
0000
0000
0100
0000
0000
0010
0000
0000
0001
0000
0000
1000
0000
0000
0001
0000
0000
0010
0000
0000
0100
0000
0000
1000
0000
0000
0010
0000
1000
0000
0100
0000
0010
0000
0001
0000
0010
0000
,
0100
1000
0000
0000
0000
0000
1000
0010
1000
0100
0010
0000
0000
1000
0010
1000
0010
1000
0001
0100
0001
0100
0001
0100
,
0001
0100
0001
0100
0001
0100
0001
0100
0001
0100
0001
0100
0001
0000
0000
0010
0000
0000
1001
0000
0000
0010
0000
0000
,
0100
1100
0001
0010
0011
0001
0101
0010
,
1000
0100
1100
1000
1001
0001
0011
0100
,
1000
0101
0010
1000
1001
0100
1100
0010
,
0100
1000
1100
0010
1010
0100
0011
0100
,
0010
1001
0100
0010
0011
0100
0101
0010
,
0100
1001
0010
0100
1100
0010
2002
0000
,
0000
0000
0000
0000
0000
0000
0000
0000
0000
0000
0000
3003
0001
0010
0100
1000
,
0010
0100
0001
0010
0100
1000
0100
0010
0000
0000
0000
0000
2200
0000
0000
0000
,
3300
2002
0000
3003
0202
0303
0022
0000
,
0000
0033
2200
3300
0202
0303
0022
0000
,
0033
0202
0000
0303
2002
3003
0022
0000
,
0000
0033
2020
3030
2002
3003
0022
0000
,
0033
0220
0000
0330
2200
3300
2002
0000
,
3003
0022
0000
0033
2002
3003
0220
0000
,
0000
0000
0000
0000
0000
0330
0000
0000
;

//---------------dance-single - ----------------
#NOTES:
     dance-single:
     :
     Hard:
     12:
     1.000,1.000,1.000,0.690,1.000,788.000,120.000,69.000,0.000,1.000:
1010
1000
1000
1000
,
1000
1000
1000
1000
,
1010
0010
0010
0010
,
0010
0010
0010
0010
,
0101
0001
0001
0001
,
0001
0000
0000
0000
0001
0000
0000
0000
0001
0000
0001
0010
0001
0000
0000
0000
,
1100
0000
0000
0000
0100
0000
0000
0000
0100
0000
0000
0000
0100
0000
0100
0010
,
0100
0100
1100
0110
,
0011
0000
0000
0000
0001
0000
0000
0000
0001
0000
0000
0000
0001
0000
0010
0100
,
1001
0000
0000
0000
1000
0000
0000
0000
1000
0000
0000
0000
1000
0000
0100
0010
,
0011
0010
0010
0010
,
1010
0000
0000
0000
0010
0000
0000
0000
0010
0000
0000
0000
0010
0000
1000
0100
,
1010
0000
0000
0000
0010
0000
0000
0000
0010
0000
0000
0000
0010
0000
1000
0100
,
0101
0000
0000
0000
0100
0000
0000
0000
0100
0000
0000
0000
0100
0000
0010
1000
,
2200
0000
3300
1000
0100
1000
0100
1000
,
0100
1000
0100
1000
0100
0000
1000
0001
,
0010
0100
1000
0000
0001
0000
0100
0000
0010
1000
0100
0000
0010
0000
0001
0000
,
1000
0010
0100
0000
0001
0000
1000
0000
0010
1000
0001
0000
0010
0000
0100
0000
,
1000
0100
0001
0000
0100
0000
0010
0000
0001
0100
0010
0000
0100
0000
0001
0000
,
1000
0010
0001
0000
0100
0000
0010
0000
1000
0100
0010
0000
0100
0000
1000
0000
,
0010
0100
0001
0000
1000
0000
0010
0000
0100
0001
0010
0000
1000
0000
0001
0000
,
1000
0010
0100
0000
0001
0000
0010
0000
0001
1000
0010
0000
0100
0000
0010
0000
,
1000
0010
0001
0000
0001
0000
1000
0000
0001
0010
0001
0000
0010
0100
0001
0010
,
0100
1000
0010
0100
0001
0100
0010
1000
0100
0010
0001
1000
0001
0000
0100
0000
,
0001
0010
0001
0000
1000
0000
0010
0000
0100
0010
0100
0000
0001
0000
0010
0000
,
0100
1000
0100
0000
0010
0000
0001
0000
0100
0010
0100
0000
1000
0000
0010
0000
,
0100
0001
0100
0000
0010
0000
1000
0000
0001
0010
0001
0000
0100
0000
0001
0000
,
1000
0010
1000
0000
0100
0000
0010
0000
0001
0100
0001
0000
0010
0000
0100
0000
,
1000
0010
1000
0000
0001
0000
1000
0000
0010
0100
0010
0000
1000
0000
0100
0000
,
0010
0001
0010
0000
0100
0000
1000
0000
0010
0100
0010
0000
1000
0000
0001
0000
,
0001
0100
0001
0000
0001
0000
1000
0000
1000
0100
1000
0000
0010
0100
0001
0010
,
0100
1000
0100
0010
0100
1000
0001
0010
0100
1000
1100
0000
0010
0000
0101
0000
,
0101
0101
0101
0010
1010
0100
1010
0010
,
1100
1100
0010
0001
1001
1000
0101
0101
,
0010
1000
1100
1000
0101
0010
1001
1000
,
0110
0110
0001
0100
1100
0010
1001
0001
,
0011
0011
0100
0010
0101
0100
1001
0010
,
1100
1100
0010
0100
1001
0010
0022
0000
,
0033
0202
0000
0303
2002
3003
2200
3300
,
0001
0010
0100
1000
0100
0010
0001
0010
0100
0010
0001
0010
0101
0000
0010
0000
,
1001
1001
0010
1000
1100
0010
1001
0100
,
1001
0101
0010
1000
1010
0100
0101
0001
,
0101
1010
0100
1000
1100
0001
0101
0010
,
1010
1100
0010
0100
1001
1000
0110
1000
,
1100
0101
0001
0010
0011
0100
1001
0101
,
0010
1100
0010
1000
1100
1000
2020
0000
,
3030
0000
2002
0000
0000
0000
3003
0000
0202
0000
0303
0000
0110
0001
0010
0100
,
1000
0001
0010
0100
1000
0001
0010
0100
1001
0000
0000
0000
1001
1000
0100
0010
,
0001
0100
0010
1000
0100
0010
0001
0010
0100
1000
0001
0010
0100
0010
0001
1000
,
0100
0010
0001
0100
0010
1000
0100
0010
0001
0010
0100
1000
0100
0010
0100
0010
,
0100
0001
1000
0001
0010
0100
1000
0100
0010
0001
1000
0001
0010
0100
1000
0001
,
0010
0100
1000
0100
0010
0001
0010
0100
1000
0100
0010
0001
1000
0010
0100
0001
,
0100
0010
0100
0001
1000
0010
0100
0010
1000
0100
0010
0100
1000
0001
0100
0010
,
0100
0001
0010
0001
1000
0100
0010
0001
1000
0100
0010
0001
0100
0010
1000
0100
,
0010
0001
1000
0100
1000
0010
0100
0010
0100
0001
0010
0001
0010
0100
1000
0100
,
1000
0100
0010
0001
0010
0100
1000
0010
1000
0100
1000
0001
0010
0100
1000
0001
,
0010
0100
1000
0100
0010
0100
1000
0001
0010
0100
0010
0001
1000
0010
1000
0100
,
0010
0001
0010
0001
0010
0100
1000
0001
1000
0100
0010
0001
1000
0001
0010
0100
,
1000
0010
0100
0001
0010
0100
1000
0100
0010
0001
0010
0001
1000
0100
1000
0010
,
1000
0010
0100
0010
0100
0001
0010
0001
0100
0001
1000
0100
0010
0001
1000
0100
,
0010
0100
1000
0010
1000
0010
1000
0010
1000
0001
1000
0001
1000
0001
1000
0010
,
0100
0001
1000
0001
1000
0001
0100
0001
0100
0001
0100
0001
2020
0000
0000
0000
,
3030
0001
0010
0100
1000
0010
0100
0001
0010
0100
1000
0100
0010
0001
0100
0010
,
1000
0100
0010
0001
1000
0001
1000
0001
1000
0001
1000
0001
2002
0000
0000
0000
,
3003
0022
0000
0033
2200
3300
0202
0303
,
1001
0000
2200
0000
0000
0000
0000
0000
0000
0000
0000
0000
3301
0010
0100
1000
,
0100
0010
0100
1000
0010
1000
0100
0010
0001
0010
0001
0100
0001
1000
0100
0010
,
0001
0010
0100
1000
0100
0010
0100
1000
0001
0010
0100
0010
0100
0010
0001
0010
,
0100
1000
0010
1000
0100
1000
0010
1000
0100
0010
0001
0010
0001
0100
0001
0010
,
0100
1000
0010
1000
0100
0010
0001
1000
0001
0010
0100
1000
0020
0000
0000
0000
,
0000
0000
0000
0000
,
0030
0000
1100
0000
0110
0010
1001
0010
,
0100
1100
0001
0010
0011
0001
0101
0010
,
1000
0100
1100
1000
1001
0001
0011
0100
,
1000
0101
0010
1000
1001
0100
1100
0010
,
0100
1000
1100
0010
1010
0100
0011
0100
,
0010
1001
0100
0010
0011
0100
0101
0010
,
0100
1001
0010
0100
1100
0010
2002
0000
,
0000
0000
0000
0000
0000
0000
0000
0000
0000
0000
0000
3003
0001
0010
0100
1000
,
0010
0100
0001
0010
0100
1000
0100
0010
0001
0010
0000
0000
2200
0000
0000
0000
,
3300
2002
0000
3003
0202
0303
0022
0000
,
0000
0033
2200
3300
0202
0303
0022
0000
,
0033
0202
0000
0303
2002
3003
0022
0000
,
0000
0033
2020
3030
2002
3003
0022
0000
,
0033
0220
0000
0330
2200
3300
2002
0000
,
3003
0022
0000
0033
2002
3003
0220
0000
,
0000
0000
0000
0000
0000
0330
0000
0000
;
