#TITLE:BEER!;
#SUBTITLE:;
#ARTIST:Psychostick;
#TITLETRANSLIT:;
#SUBTITLETRANSLIT:;
#ARTISTTRANSLIT:;
#CREDIT:;
#BANNER:BEER!-banner.png;
#BACKGROUND:BEER!-bg.png;
#LYRICSPATH:;
#CDTITLE:;
#MUSIC:BEER!.mp3;
#OFFSET:-5.080;
#SAMPLESTART:32.340;
#SAMPLELENGTH:12.000;
#SELECTABLE:YES;
#BPMS:0.000=120.000,8.000=120.500,12.000=124.000,16.000=124.200,20.000=121.999,24.000=124.200,28.000=122.040,32.000=120.380,39.000=123.800,43.000=126.939,47.000=127.739,55.000=126.679,59.000=124.699,63.000=127.999,67.000=125.960,70.000=120.700,74.000=121.200,78.000=121.500,82.000=123.620,86.000=122.980,90.000=121.800,94.000=122.200,98.000=123.540,102.000=125.359,106.000=121.559,110.000=121.340,117.000=126.619,121.000=126.999,129.000=127.199,133.000=126.999,137.000=127.279,141.000=126.279,148.000=124.699,152.000=127.499,156.000=126.579,160.000=128.899,164.000=128.399,168.000=130.819,172.000=131.779,176.000=127.679,180.000=129.299,184.000=131.779,188.000=129.220,192.000=128.280,196.000=129.460;
#STOPS:38.000=0.460
,69.000=0.460
,116.000=0.460
,147.000=0.460
;
#BGCHANGES:;
// cache tags:
#FIRSTBEAT:8.000;
#LASTBEAT:202.000;
#SONGFILENAME:Songs/new cc/BEER!/BEER!.sm;
#HASMUSIC:1;
#HASBANNER:1;
#MUSICLENGTH:104.184;
// end cache tags

//---------------dance-single - ----------------
#NOTES:
     dance-single:
     :
     Hard:
     7:
     0.481,0.460,0.432,0.154,0.029,290.000,45.000,16.000,0.000,0.000:
0000
0000
0000
0000
,
0000
0000
0000
0000
,
0100
0001
0100
0010
0100
1000
0100
0000
,
0001
0010
0100
0001
1000
0100
0010
0000
,
1000
0100
1000
1000
0001
0001
0010
0000
,
0100
1000
1000
0001
0010
0100
1000
0000
,
0010
0100
0110
0001
1000
0001
1001
0000
,
1000
0100
1100
1000
0001
0100
0101
0000
,
0010
0010
1000
1000
0001
0001
0100
0000
,
1000
0100
0001
1000
1100
0000
1000
0100
,
1000
0000
0001
0100
0001
0000
1000
0100
,
1000
0000
0000
1100
1100
0000
0001
0010
,
0001
0000
1000
0010
1000
0000
0001
0010
,
0001
0000
1000
0100
0001
0100
1002
0000
,
1003
0000
0000
1000
0200
0000
0000
0000
0310
0000
0000
0010
0002
0000
0000
0000
,
1003
0000
0000
1000
0020
0000
0000
0000
0030
0000
0000
0000
1001
0000
0000
0000
,
1001
0000
0110
0000
0110
0000
1000
0100
,
0010
0001
1001
0000
1000
0000
0100
0000
,
0001
0010
0001
0100
,
1000
0010
1000
0100
,
0001
0010
0001
0100
,
1000
0000
0010
0000
1000
0001
0100
0010
,
0010
0100
1000
0100
0001
0001
0010
0010
,
0100
1000
0100
0010
0001
1000
0100
1000
,
0010
1000
0001
0000
0001
1000
0100
0010
,
0010
0100
0100
0000
2100
0000
3001
0000
,
0102
0000
1003
0000
1001
1000
0100
0010
,
0100
0001
0101
0000
1100
0000
0100
1000
,
1000
0001
0001
0000
0010
0100
1000
0001
,
0101
0000
0001
0100
0001
0000
1000
0100
,
1000
0000
0001
0100
0001
0000
0000
0101
,
0101
0000
1000
0010
1000
0000
0001
0010
,
0001
0000
1000
0010
1000
0000
0001
0100
,
1000
0000
0100
0000
1002
0000
0000
0000
1003
0000
0000
1000
0200
0000
0000
0000
,
0310
0000
0000
0010
0002
0000
0000
0000
1003
0000
0000
1000
0020
0000
0000
0000
,
0030
1001
1001
0110
,
0110
0000
1000
0100
0010
0001
1001
0000
,
1000
1000
0100
0000
0001
0001
0100
0000
,
1000
1000
0100
0000
0001
0001
0100
0000
,
0001
0001
1000
1000
2002
0000
3003
0000
,
1000
1000
0001
0001
2002
0000
3003
0000
,
0100
0100
0010
0010
0220
0000
0330
0000
,
0010
0010
0100
0100
0110
0000
1001
0000
,
1000
0100
0000
0100
1100
0100
0000
0100
,
0001
0100
0000
0100
0101
0100
0001
0100
,
0010
0100
0000
0100
0110
0100
0000
0100
,
1000
0001
0000
0001
1001
0001
0100
0001
,
1000
0010
0000
0100
0110
0010
0000
0100
,
0001
0010
0000
0100
0110
0010
0001
0100
,
0001
1000
0000
0100
1100
0000
0101
0000
,
1001
1001
0110
0110
1001
0000
0000
0000
;

//---------------dance-single - ----------------
#NOTES:
     dance-single:
     :
     Beginner:
     1:
     0.096,0.120,0.115,0.000,0.000,58.000,12.000,0.000,0.000,0.000:
0000
0000
0000
0000
,
0000
0000
0000
0000
,
0010
0000
0000
0000
,
0100
0000
0000
0000
,
0010
0000
0000
0000
,
0100
0000
0000
0000
,
1000
0000
0000
0000
,
0001
0000
0000
0000
,
0001
0000
0000
0000
,
1000
0000
0000
1001
,
0000
0000
0000
1001
,
0000
0000
0000
0110
,
0000
0000
0000
0110
,
0000
0000
0000
0001
,
0000
0001
0000
1000
,
0000
1000
0000
0100
,
0000
0100
0000
0010
,
0000
0010
0010
0000
,
0000
0000
1000
0000
,
0000
0000
0100
0000
,
0000
0000
0001
0000
,
0000
0000
0100
0000
,
0000
0000
0010
0000
,
0000
0000
0001
0000
,
0000
0000
1000
0000
,
0000
0000
0010
0000
,
0000
0000
0100
0000
,
0000
0000
1000
0000
,
0000
0000
0001
0000
,
0000
1001
0000
0000
,
0000
1001
0000
0000
,
0000
0110
0000
0000
,
0000
0110
0000
0000
,
0000
0001
0000
0001
,
0000
1000
0000
1000
,
0000
0100
0000
0100
,
0000
0010
0000
0010
,
0000
0000
0000
0100
,
0000
0000
0000
0010
,
0000
0000
0001
0000
,
0000
0000
1000
0000
,
0000
0000
0001
0000
,
0000
0000
1000
0000
,
1001
0000
0000
0000
,
0110
0000
0000
0000
,
1000
0000
0000
0000
,
0100
0000
0000
0000
,
1001
0000
0000
0000
,
0110
0000
0000
0000
,
0001
0000
0000
0000
,
0010
0000
0000
0000
;

//---------------dance-single - ----------------
#NOTES:
     dance-single:
     :
     Easy:
     3:
     0.237,0.267,0.115,0.125,0.000,148.000,12.000,13.000,0.000,0.000:
0000
0000
0000
0000
,
0000
0000
0000
0000
,
1000
0100
1000
0000
,
0001
0010
0001
0000
,
0100
1000
0100
0000
,
0010
0001
0010
0000
,
0100
0101
0100
0100
,
0010
1010
0010
0010
,
0001
0001
0010
0010
,
0100
0100
1001
0200
,
0000
0320
0000
2030
,
0000
0000
3001
0020
,
0000
0230
0000
0302
,
0000
1000
1003
0001
,
0100
1000
0100
0001
,
0100
1000
0100
0001
,
0001
0100
0100
1000
,
0100
0001
1001
0000
,
0010
0100
1001
0000
,
0010
0100
0110
0000
,
1000
0001
0110
0000
,
0001
1000
0100
0010
,
0010
0000
0100
0010
,
0010
0000
0001
1000
,
1000
0000
0001
1000
,
1000
0000
0010
0100
,
0100
0000
0010
0100
,
0100
0000
1000
0001
,
0001
0000
1000
0001
,
0001
0020
0000
0230
,
0000
0302
0000
0000
,
1003
0200
0000
0320
,
0000
2030
0000
0001
,
3001
1000
0010
0001
,
0010
1000
0010
0001
,
0010
1000
1000
0010
,
0010
0001
0010
1000
,
0000
1100
0000
1100
,
0000
0101
0000
1100
,
0102
0000
0100
0000
,
0100
0000
0100
0000
,
0100
0000
0100
0000
,
0100
0000
0103
0010
,
1000
1000
1000
0000
,
0100
0100
0100
0000
,
0001
0001
0001
0000
,
0010
0010
0010
0000
,
0001
0001
0001
0000
,
0100
0100
0100
0000
,
1000
1000
1000
0000
,
0010
0010
0010
0000
;

//---------------dance-single - ----------------
#NOTES:
     dance-single:
     :
     Medium:
     5:
     0.367,0.412,0.288,0.134,0.000,224.000,30.000,14.000,0.000,0.000:
0000
0000
0000
0000
,
0000
0000
0000
0000
,
1000
0010
0100
0001
,
1000
0000
0100
0000
0010
0001
0010
0000
,
0100
0000
1000
0000
0100
0010
0100
0000
,
0001
1000
0100
0000
0010
0000
0010
0000
,
1000
1100
0001
0101
,
0100
0000
0010
0000
0100
0001
1000
0000
,
0001
0101
1000
1100
,
1000
1000
0100
0000
0010
0000
0010
0000
,
0100
0000
0010
0010
0100
0000
0001
0000
,
1000
0000
0000
0001
1000
0000
0100
0000
,
0010
0000
0100
0100
0010
0000
1000
0000
,
0001
0000
1000
1000
0001
0000
2001
0000
,
3001
0120
0130
1002
,
1003
0210
0310
1100
,
0011
0000
0101
0000
1010
0000
0100
1000
,
0100
1100
1000
0001
,
0100
0001
0001
1000
,
0100
1000
1000
0001
,
0010
0001
0001
1000
,
0010
1000
1001
0010
,
1001
0100
0110
1000
,
0110
0001
1000
0100
,
0001
0100
1000
0000
0001
0000
0100
0000
,
1000
0100
0001
0000
0010
0100
1000
0000
,
0010
0100
0001
0000
0010
0100
1000
0001
,
0010
0100
1000
0000
1000
1000
0001
0000
,
0100
0100
0010
0000
0100
0001
1000
0000
,
1001
0000
0010
0000
0100
0000
0010
0010
,
0100
0000
0001
0000
1000
0000
0000
0001
,
1000
0000
0100
0000
0010
0000
0100
0100
,
0010
0000
1000
0000
0001
0000
1000
1000
,
0001
2001
3001
0120
,
0130
1002
1003
0210
,
0310
1100
0011
0101
,
1010
0000
0100
1000
0100
0000
1100
0000
,
1000
0100
0001
0100
,
1000
0000
0100
0000
0001
0001
0100
0000
,
0001
0010
0100
1000
0002
0000
0000
0000
,
1003
0100
0010
0001
2000
0000
0000
0000
,
3001
0010
0100
1000
0002
0000
0000
0000
,
1003
0100
0010
0001
2000
0000
0000
0000
,
3100
0000
0000
0100
0010
0000
0001
0000
,
1000
0000
0000
0100
0010
0000
0001
0000
,
0001
0000
0000
0010
0100
0000
1000
0000
,
0001
0000
0000
0010
0100
0000
1000
0000
,
0001
0000
0000
0100
2000
0000
3010
0000
,
0001
0000
0000
0010
2000
0000
3100
0000
,
1001
0010
1001
0100
,
1001
0000
0100
0001
0010
0000
0000
0000
;
