#TITLE:Just Be Friends;
#SUBTITLE:(MK Remix);
#ARTIST:Dixie Flatline feat. Megurine Luka;
#TITLETRANSLIT:;
#SUBTITLETRANSLIT:;
#ARTISTTRANSLIT:;
#CREDIT:owenviau1;
#BANNER:../owenviau1 Simfiles 6 (Science X Owen).png;
#BACKGROUND:BG.PNG;
#LYRICSPATH:;
#CDTITLE:;
#MUSIC:Just Be Friends (MK Remix).mp3;
#OFFSET:-1.371;
#SAMPLESTART:336.307;
#SAMPLELENGTH:29.999;
#SELECTABLE:YES;
#DISPLAYBPM:69.000:138.000;
#BPMS:0.000=138.000;
#STOPS:;
#BGCHANGES:;
// cache tags:
#FIRSTBEAT:4.000;
#LASTBEAT:1036.000;
#SONGFILENAME:Songs/owenviau1 Simfiles 6/Just Be Friends - [owenviau1] v1.0.0/Just Be Friends.sm;
#HASMUSIC:1;
#HASBANNER:1;
#MUSICLENGTH:459.132;
// end cache tags

//---------------dance-single - 12- (owenviau1)----------------
#NOTES:
     dance-single:
     12- (owenviau1):
     Hard:
     12:
     1.000,0.931,0.002,0.094,1.000,3615.000,1.000,43.000,42.000,0.000:
0000
0000
0000
0000
,
0001
0010
0100
1000
0010
1000
0001
1000
0001
0010
0100
1000
0010
0100
0010
1000
,
0001
0010
0100
1000
0010
1000
0001
1000
0001
0010
0100
1000
0010
0100
0010
1000
,
0001
0010
0001
0100
0001
1000
0100
0010
0001
0100
0001
1000
0100
1000
0010
1000
,
0001
0010
0001
0100
0001
1000
0100
0010
0001
0100
0001
1000
0100
1000
0010
1000
,
0001
0010
0001
1000
0010
1000
0100
0010
0001
1000
0010
1000
0100
0010
0100
1000
,
0001
0010
0001
1000
0010
1000
0100
0010
0001
1000
0010
1000
0100
0010
0100
1000
,
0001
0100
0010
1000
0100
0010
0100
1000
0001
0010
0001
0100
0001
1000
0001
0010
,
0001
0100
0010
1000
0100
0010
0100
1000
0001
0010
0001
0100
0001
1000
0001
0010
,
0001
0100
0010
1000
0100
1000
0001
1000
0001
0100
0010
1000
0100
0010
0100
1000
,
0001
0100
0010
1000
0100
1000
0001
1000
0001
0100
0010
1000
0100
0010
0100
1000
,
0001
0100
0001
0010
0001
1000
0010
0100
0001
0010
0001
1000
0010
1000
0100
1000
,
0001
0100
0001
0010
0001
1000
0010
0100
0001
0010
0001
1000
0010
1000
0100
1000
,
0001
0100
0001
1000
0100
1000
0010
0100
0001
1000
0100
1000
0010
0100
0010
1000
,
0001
0100
0001
1000
0100
1000
0010
0100
0001
1000
0100
1000
0010
0100
0010
1000
,
0001
0010
0100
1000
0010
0100
0010
1000
0001
0100
0001
0010
0001
1000
0001
0100
,
0001
0010
0100
1000
0010
0100
0010
1000
0001
0100
0001
0010
0001
1000
0001
0100
,
0001
0010
0100
1000
0010
1000
0001
1000
0001
0010
0100
1000
0010
0100
0010
1000
,
0001
0010
0100
1000
0010
1000
0001
1000
0001
0010
0100
1000
0010
0100
0010
1000
,
0001
0010
0001
0100
0001
1000
0100
0010
0001
0100
0001
1000
0100
1000
0010
1000
,
0001
0010
0001
0100
0001
1000
0100
0010
0001
0100
0001
1000
0100
1000
0010
1000
,
0001
0010
0001
1000
0010
1000
0100
0010
0001
1000
0010
1000
0100
0010
0100
1000
,
0001
0010
0001
1000
0010
1000
0100
0010
0001
1000
0010
1000
0100
0010
0100
1000
,
0001
0100
0010
1000
0100
0010
0100
1000
0001
0010
0001
0100
0001
1000
0001
0010
,
0001
0100
0010
1000
0100
0010
0100
1000
0001
0010
0001
0100
0001
1000
0001
0010
,
0001
0100
0010
1000
0100
1000
0001
1000
0001
0100
0010
1000
0100
0010
0100
1000
,
0001
0100
0010
1000
0100
1000
0001
1000
0001
0100
0010
1000
0100
0010
0100
1000
,
0001
0100
0001
0010
0001
1000
0010
0100
0001
0010
0001
1000
0010
1000
0100
1000
,
0001
0100
0001
0010
0001
1000
0010
0100
0001
0010
0001
1000
0010
1000
0100
1000
,
0001
0100
0001
1000
0100
1000
0010
0100
0001
1000
0100
1000
0010
0100
0010
1000
,
0001
0100
0001
1000
0100
1000
0010
0100
0001
1000
0100
1000
0010
0100
0010
1000
,
0001
0010
0100
1000
0010
0100
0010
1000
0001
0100
0001
0010
0001
1000
0001
0100
,
0001
0010
0100
1000
0010
0100
0010
1000
0001
0100
0001
0010
0001
1000
0001
0100
,
0001
0010
0100
1000
0010
1000
0001
1000
0001
0010
0100
1000
0010
0100
0010
1000
,
0001
0010
0100
1000
0010
1000
0001
1000
0001
0010
0100
1000
0010
0100
0010
1000
,
0001
0010
0001
0100
0001
1000
0100
0010
0001
0100
0001
1000
0100
1000
0010
1000
,
0001
0010
0001
0100
0001
1000
0100
0010
0001
0100
0001
1000
0100
1000
0010
1000
,
0001
0010
0001
1000
0010
1000
0100
0010
0001
1000
0010
1000
0100
0010
0100
1000
,
0001
0010
0001
1000
0010
1000
0100
0010
0001
1000
0010
1000
0100
0010
0100
1000
,
0001
0100
0010
1000
0100
0010
0100
1000
0001
0010
0001
0100
0001
1000
0001
0010
,
0001
0100
0010
1000
0100
0010
0100
1000
0001
0010
0001
0100
0001
1000
0001
0010
,
0001
0100
0010
1000
0100
1000
0001
1000
0001
0100
0010
1000
0100
0010
0100
1000
,
0001
0100
0010
1000
0100
1000
0001
1000
0001
0100
0010
1000
0100
0010
0100
1000
,
0001
0100
0001
0010
0001
1000
0010
0100
0001
0010
0001
1000
0010
1000
0100
1000
,
0001
0100
0001
0010
0001
1000
0010
0100
0001
0010
0001
1000
0010
1000
0100
1000
,
0001
0100
0001
1000
0100
1000
0010
0100
0001
1000
0100
1000
0010
0100
0010
1000
,
0001
0100
0001
1000
0100
1000
0010
0100
0001
1000
0100
1000
0010
0100
0010
1000
,
0001
0010
0100
1000
0010
0100
0010
1000
0001
0100
0001
0010
0001
1000
0001
0100
,
0001
0010
0100
1000
0010
0100
0010
1000
0001
0100
0001
0010
0001
1000
0001
0100
,
0001
0000
1000
0010
0000
0000
1000
0001
0000
0000
1000
0100
0000
0000
0010
0001
,
0000
0000
0010
0100
0000
0000
0010
0001
0000
0000
1000
0010
0000
0000
0100
0001
,
0000
0000
0010
0001
0000
0000
1000
0001
0000
0000
1000
0010
0000
0000
1000
0100
,
0000
0000
0010
0100
0000
0000
1000
0001
0000
0000
0100
0001
0000
0000
0100
0010
,
0000
0000
1000
0001
0000
0000
1000
0010
0000
0000
1000
0001
0000
0000
0010
0001
,
0000
0000
0100
0010
0000
0000
1000
0100
0000
0000
0010
0001
0000
0000
0010
0100
,
0000
0000
0010
0001
0000
0000
1000
0010
0000
0000
0100
0001
0000
0000
1000
0010
,
0100
0000
0000
0100
0000
0000
0100
0000
0001
0000
0000
0001
0000
0000
0001
0000
,
1000
0010
0100
0001
0100
0010
1000
0001
0010
0001
0010
0100
1000
0001
1000
0001
,
0100
0010
1000
0001
1000
0010
0100
0001
1000
0100
0010
0001
0100
0001
0010
0001
,
1000
0100
1000
0001
0010
0100
1000
0001
0100
0010
0100
0001
1000
0010
1000
0001
,
0010
0100
1000
0100
0010
0001
0010
0001
1000
0010
0100
0001
0010
0001
0100
0001
,
1000
0001
0100
0001
0010
0100
1000
0010
0100
0010
1000
0100
1000
0001
0100
0001
,
0010
0001
0100
0010
1000
0100
1000
0010
0100
0010
1000
0100
0010
0001
1000
0001
,
1000
0100
1000
0010
1000
0001
0010
0100
1000
0010
1000
0100
1000
0001
0100
0010
,
1000
0100
1000
0010
1000
0001
1000
0010
1000
0100
0010
0001
0010
0100
1000
0001
,
1000
0010
0100
0001
0100
0010
1000
0001
0010
0001
0010
0100
1000
0001
1000
0001
,
0100
0010
1000
0001
1000
0010
0100
0001
1000
0100
0010
0001
0100
0001
0010
0001
,
1000
0100
1000
0001
0010
0100
1000
0001
0100
0010
0100
0001
1000
0010
1000
0001
,
0010
0100
1000
0100
0010
0001
0010
0001
1000
0010
0100
0001
0010
0001
0100
0001
,
1000
0001
0100
0001
0010
0100
1000
0010
0100
0010
1000
0100
1000
0001
0100
0001
,
0010
0001
0100
0010
1000
0100
1000
0010
0100
0010
1000
0100
0010
0001
1000
0001
,
1000
0100
1000
0010
1000
0001
0010
0100
1000
0010
1000
0100
1000
0001
0100
0010
,
1000
0100
1000
0010
1000
0001
1000
0010
1000
0100
0010
0001
0010
0100
1000
0001
,
1000
0100
1000
0010
0100
0001
0010
0001
0100
0010
1000
0100
1000
0010
0100
0001
,
0010
0001
0100
0010
1000
0100
1000
0010
0100
0001
0010
0001
0100
0010
1000
0100
,
1000
0010
1000
0100
0010
0001
0100
0001
0010
0100
1000
0010
1000
0100
0010
0001
,
0100
0001
0010
0100
1000
0010
1000
0100
0010
0001
0100
0001
0010
0100
1000
0010
,
1000
0100
1000
0010
0100
0001
0010
0001
0100
0010
1000
0100
1000
0010
0100
0001
,
0010
0001
0100
0010
1000
0100
1000
0010
0100
0001
0010
0001
0100
0010
1000
0100
,
1000
0010
1000
0100
0010
0001
0100
0001
0010
0100
1000
0010
1000
0100
0010
0001
,
0100
0001
0010
0100
1000
0010
1000
0100
0010
0001
0100
0001
0010
0100
1000
0010
,
2000
0M00
0000
000M
0000
00M0
0000
0M00
,
3020
000M
0000
0M00
0000
000M
0000
M000
,
0230
000M
0000
M000
0000
00M0
0000
M000
,
0302
00M0
0000
M000
0000
0M00
0000
M000
,
0023
0M00
0000
M000
0000
000M
0000
0M00
,
0032
M000
0000
0M00
0000
00M0
0000
M000
,
0203
00M0
0000
000M
0000
M000
0000
00M0
,
0302
M000
0000
0M00
0000
00M0
0000
0M00
,
1003
0100
0010
0001
0000
0000
0000
0000
0000
0000
0000
0000
0000
1000
0010
0100
,
0001
0010
0100
1000
0000
0000
0000
0000
0000
0000
0000
0000
0000
0000
0001
1000
,
0010
0100
0001
0010
0000
0000
0000
0000
0000
0000
0000
0000
0000
0100
1000
0001
,
0100
0001
0010
0100
0000
0000
0000
0000
0000
0000
0000
0000
0000
0000
1000
0100
,
0010
0000
0000
0010
0000
0000
0001
0000
0000
0001
0000
0000
1000
0000
0000
1000
,
0000
0000
0010
0000
0000
0010
0000
0000
0100
0000
0000
0100
0001
0000
0000
0001
,
1000
0000
0000
1000
0000
0000
0100
0000
0000
0100
0000
0000
0010
0000
0000
0010
,
0000
0000
0100
0000
0000
0100
0000
0000
1000
0000
0001
0000
0010
0000
0100
0000
,
2000
0000
3002
0000
0103
0010
1000
0200
,
0000
0320
0000
0031
1000
0002
0000
0013
,
0100
2000
0000
3020
0000
0130
0001
2000
,
0000
0000
3100
0000
0020
0000
0000
0000
0030
0000
0001
0000
1000
0000
0100
0020
,
0000
0000
0031
0000
1000
0000
0010
0200
0000
0000
0320
0000
0000
0000
1030
0000
,
0100
0000
0010
0000
0001
0000
2000
0000
0000
0000
3010
0000
0100
0000
0001
2000
,
0000
3100
0010
0002
0000
1003
0100
0010
,
0100
1000
0001
0200
0000
0310
1000
0100
,
0010
0001
2000
0000
3010
0100
0001
0200
,
0000
0320
0000
1030
0100
0020
0000
0031
,
1000
0000
0020
0000
0000
0000
1030
0002
0000
0000
1003
0000
0100
0000
0020
0000
,
0000
0000
0130
0000
2000
0000
0000
0000
3000
0000
0001
0000
0010
0000
0001
2000
,
0000
0000
3010
0000
0100
0000
0001
0020
0000
0000
0230
0000
0000
0000
1300
0000
,
0001
0000
0100
0000
0010
0000
2000
0000
0000
0000
3100
0000
0010
0000
0001
2000
,
0000
0000
3010
0000
0100
0000
0010
2000
0000
0000
3200
0000
0000
0000
0310
0000
,
0001
1000
0010
0200
0000
0302
0000
2003
,
0MMM
3000
0000
00M0
0000
0000
M000
0000
,
0000
0M00
0000
0000
000M
0000
00M0
0000
,
0001
0010
0100
1000
0010
1000
0001
0100
0010
1000
0100
1000
0001
0010
0100
1000
,
0010
1000
0001
0100
0010
1000
0100
1000
0001
0010
0100
1000
0001
0100
0010
1000
,
0001
0100
0010
1000
0100
1000
0001
0010
0100
0010
0001
0100
0001
0100
0010
1000
,
0100
1000
0001
0010
0100
0010
0001
0100
0001
0100
0010
1000
0001
0010
0100
0010
,
0001
1000
0100
1000
0010
0100
0001
0010
0001
0100
0010
0100
0001
1000
0100
1000
,
0010
0100
0001
0010
0001
0100
0010
0100
0001
1000
0100
1000
0001
0010
0001
0100
,
0001
0010
0100
1000
0010
0100
0001
0010
0001
0100
0010
1000
0001
0010
0100
1000
,
0010
0100
0001
0010
0001
0100
0010
1000
0001
0010
0100
1000
0001
0010
0001
0100
,
0001
0100
0010
1000
0100
1000
0001
0010
0100
1000
0010
1000
0001
0100
0010
1000
,
0100
1000
0001
0010
0100
1000
0010
1000
0001
0100
0010
1000
0001
0010
0100
1000
,
0001
0010
0100
1000
0010
1000
0001
0100
0010
0100
0001
0010
0001
0010
0100
1000
,
0010
1000
0001
0100
0010
0100
0001
0010
0001
0010
0100
1000
0001
0100
0010
0100
,
0001
1000
0010
1000
0100
0010
0001
0100
0001
0010
0100
0010
0001
1000
0010
1000
,
0100
0010
0001
0100
0001
0010
0100
0010
0001
1000
0010
1000
0001
0100
0001
0010
,
0001
0100
0010
1000
0100
0010
0001
0100
0001
0010
0100
1000
0001
0100
0010
1000
,
0100
0010
0001
0100
0001
0010
0100
1000
0001
0100
0010
1000
0001
0100
0001
0010
,
0001
0010
0100
1000
0010
1000
0001
1000
0001
0010
0100
1000
0010
0100
0010
1000
,
0001
0010
0100
1000
0010
1000
0001
1000
0001
0010
0100
1000
0010
0100
0010
1000
,
0001
0010
0001
0100
0001
1000
0100
0010
0001
0100
0001
1000
0100
1000
0010
1000
,
0001
0010
0001
0100
0001
1000
0100
0010
0001
0100
0001
1000
0100
1000
0010
1000
,
0001
0100
0010
1000
0010
0100
0001
1000
0100
1000
0100
0010
0001
1000
0001
1000
,
0010
0100
0001
1000
0001
0100
0010
1000
0001
0010
0100
1000
0010
1000
0100
1000
,
0001
0010
0001
1000
0100
0010
0001
1000
0010
0100
0010
1000
0001
0100
0001
1000
,
0100
0010
0001
0010
0100
1000
0100
1000
0001
0100
0010
1000
0100
1000
0010
1000
,
0001
1000
0010
1000
0100
0010
0001
0100
0010
0100
0001
0010
0001
1000
0010
1000
,
0100
1000
0010
0100
0001
0010
0001
0100
0010
0100
0001
0010
0100
1000
0001
1000
,
0001
0010
0001
0100
0001
1000
0100
0010
0001
0100
0001
0010
0001
1000
0010
0100
,
0001
0010
0001
0100
0001
1000
0001
0100
0001
0010
0100
1000
0100
0010
0001
1000
,
0001
0100
0010
1000
0010
0100
0001
1000
0100
1000
0100
0010
0001
1000
0001
1000
,
0010
0100
0001
1000
0001
0100
0010
1000
0001
0010
0100
1000
0010
1000
0100
1000
,
0001
0010
0001
1000
0100
0010
0001
1000
0010
0100
0010
1000
0001
0100
0001
1000
,
0100
0010
0001
0010
0100
1000
0100
1000
0001
0100
0010
1000
0100
1000
0010
1000
,
0001
1000
0010
1000
0100
0010
0001
0100
0010
0100
0001
0010
0001
1000
0010
1000
,
0100
1000
0010
0100
0001
0010
0001
0100
0010
0100
0001
0010
0100
1000
0001
1000
,
0001
0010
0001
0100
0001
1000
0100
0010
0001
0100
0001
0010
0001
1000
0010
0100
,
0001
0010
0001
0100
0001
1000
0001
0100
0001
0010
0100
1000
0100
0010
0001
1000
,
0001
0010
0001
0100
0010
1000
0100
1000
0010
0100
0001
0010
0001
0100
0010
1000
,
0100
1000
0010
0100
0001
0010
0001
0100
0010
1000
0100
1000
0010
0100
0001
0010
,
0001
0100
0001
0010
0100
1000
0010
1000
0100
0010
0001
0100
0001
0010
0100
1000
,
0010
1000
0100
0010
0001
0100
0001
0010
0100
1000
0010
1000
0100
0010
0001
0100
,
0001
0010
0001
0100
0010
1000
0100
1000
0010
0100
0001
0010
0001
0100
0010
1000
,
0100
1000
0010
0100
0001
0010
0001
0100
0010
1000
0100
1000
0010
0100
0001
0010
,
0001
0100
0001
0010
0100
1000
0010
1000
0100
0010
0001
0100
0001
0010
0100
1000
,
0010
1000
0100
0010
0001
0100
0001
0010
0100
1000
0010
1000
0MM1
0000
0000
0000
,
1000
0100
0010
0001
1000
0010
0100
0001
1000
0100
1000
0010
1000
0100
1000
0001
,
1000
0100
1000
0001
0010
0001
0100
0001
1000
0100
1000
0001
0010
0001
0100
0001
,
1000
0100
1000
0001
0010
0001
0100
0001
1000
0100
0010
0001
0010
0100
1000
0001
,
1000
0100
0010
0001
0100
0001
0010
0001
1000
0001
1000
0100
1000
0010
0100
0001
,
0010
0100
1000
0100
1000
0001
0010
0001
0100
0010
1000
0010
0100
0001
1000
0100
,
1000
0010
1000
0001
1000
0100
1000
0010
1000
0001
0010
0100
1000
0001
0010
0001
,
0100
0010
1000
0010
0100
0001
0100
0001
0010
0100
1000
0001
0010
0001
1000
0010
,
1000
0100
1000
0001
1000
0010
1000
0100
1000
0001
0100
0010
1000
0001
1000
0001
,
1000
0010
0100
0001
1000
0100
0010
0001
1000
0010
1000
0100
1000
0010
1000
0001
,
1000
0010
1000
0001
0100
0001
0010
0001
1000
0010
1000
0001
0100
0001
0010
0001
,
1000
0010
1000
0001
0100
0001
0010
0001
1000
0010
0100
0001
0100
0010
1000
0001
,
1000
0010
0100
0001
0010
0001
0100
0001
1000
0001
1000
0010
1000
0100
0010
0001
,
0100
0010
1000
0010
1000
0001
0100
0001
0010
0100
1000
0100
0010
0001
1000
0010
,
1000
0100
1000
0001
1000
0010
1000
0100
1000
0001
0100
0010
1000
0001
0100
0001
,
0010
0100
1000
0100
0010
0001
0010
0001
0100
0010
1000
0001
0100
0001
1000
0100
,
1000
0010
1000
0001
1000
0100
1000
0010
1000
0001
0010
0100
1000
0001
1000
0001
,
1000
0010
0100
0001
0010
0001
1000
0001
1000
0010
0100
0001
0010
0100
0010
0001
,
1000
0010
0100
0001
0010
0001
1000
0001
1000
0010
0100
0001
0010
0100
0010
0001
,
1000
0010
1000
0100
1000
0001
0100
0010
1000
0100
1000
0001
0100
0001
0010
0001
,
1000
0010
1000
0100
1000
0001
0100
0010
1000
0100
1000
0001
0100
0001
0010
0001
,
1000
0010
1000
0001
0010
0001
0100
0010
1000
0001
0010
0001
0100
0010
0100
0001
,
1000
0010
1000
0001
0010
0001
0100
0010
1000
0001
0010
0001
0100
0010
0100
0001
,
1000
0100
0010
0001
0100
0010
0100
0001
1000
0010
1000
0100
1000
0001
1000
0010
,
1000
0100
0010
0001
0100
0010
0100
0001
1000
0010
1000
0100
1000
0001
1000
0010
,
1000
0100
0010
0001
0100
0001
1000
0001
1000
0100
0010
0001
0100
0010
0100
0001
,
1000
0100
0010
0001
0100
0001
1000
0001
1000
0100
0010
0001
0100
0010
0100
0001
,
1000
0100
1000
0010
1000
0001
0010
0100
1000
0010
1000
0001
0010
0001
0100
0001
,
1000
0100
1000
0010
1000
0001
0010
0100
1000
0010
1000
0001
0010
0001
0100
0001
,
1000
0100
1000
0001
0100
0001
0010
0100
1000
0001
0100
0001
0010
0100
0010
0001
,
1000
0100
1000
0001
0100
0001
0010
0100
1000
0001
0100
0001
0010
0100
0010
0001
,
1000
0010
0100
0001
0010
0100
0010
0001
1000
0100
1000
0010
1000
0001
1000
0100
,
1000
0010
0100
0001
0010
0100
0010
0001
1000
0100
1000
0010
1000
0001
1000
0100
,
4000
0004
0000
0000
0000
0000
0000
0000
0000
0000
0000
0000
0000
0000
0000
0000
0000
0000
0000
0000
0000
0000
0000
0000
,
3003
0000
0000
0000
0000
1000
0100
0010
,
0001
0010
0100
1000
0001
0100
0010
1000
0001
0010
0001
0100
0001
0010
0001
1000
,
0001
0010
0001
1000
0100
1000
0010
1000
0001
0010
0001
1000
0100
1000
0010
1000
,
0001
0010
0001
1000
0100
1000
0010
1000
0001
0010
0100
1000
0100
0010
0001
1000
,
0001
0010
0100
1000
0010
1000
0100
1000
0001
1000
0001
0010
0001
0100
0010
1000
,
0100
0010
0001
0010
0001
1000
0100
1000
0010
0100
0001
0100
0010
1000
0001
0010
,
0001
0100
0001
1000
0001
0010
0001
0100
0001
1000
0100
0010
0001
1000
0100
1000
,
0010
0100
0001
0100
0010
1000
0010
1000
0100
0010
0001
1000
0100
1000
0001
0100
,
0001
0010
0001
1000
0001
0100
0001
0010
0001
1000
0010
0100
0001
1000
0001
1000
,
0001
0100
0010
1000
0001
0010
0100
1000
0001
0100
0001
0010
0001
0100
0001
1000
,
0001
0100
0001
1000
0010
1000
0100
1000
0001
0100
0001
1000
0010
1000
0100
1000
,
0001
0100
0001
1000
0010
1000
0100
1000
0001
0100
0010
1000
0010
0100
0001
1000
,
0001
0100
0010
1000
0100
1000
0010
1000
0001
1000
0001
0100
0001
0010
0100
1000
,
0010
0100
0001
0100
0001
1000
0010
1000
0100
0010
0001
0010
0100
1000
0001
0100
,
0001
0010
0001
1000
0001
0100
0001
0010
0001
1000
0010
0100
0001
1000
0010
1000
,
0100
0010
0001
0010
0100
1000
0100
1000
0010
0100
0001
1000
0010
1000
0001
0010
,
0001
0100
0001
1000
0001
0010
0001
0100
0001
1000
0100
0010
0001
1000
0001
1000
,
0001
0010
0100
1000
0010
1000
0001
0100
0010
1000
0100
1000
0001
0010
0100
1000
,
0010
1000
0001
0100
0010
1000
0100
1000
0001
0010
0100
1000
0001
0100
0010
1000
,
0001
0100
0010
1000
0100
1000
0001
0010
0100
0010
0001
0100
0001
0100
0010
1000
,
0100
1000
0001
0010
0100
0010
0001
0100
0001
0100
0010
1000
0001
0010
0100
0010
,
0001
1000
0100
1000
0010
0100
0001
0010
0001
0100
0010
0100
0001
1000
0100
1000
,
0010
0100
0001
0010
0001
0100
0010
0100
0001
1000
0100
1000
0001
0010
0001
0100
,
0001
0010
0100
1000
0010
0100
0001
0010
0001
0100
0010
1000
0001
0010
0100
1000
,
0010
0100
0001
0010
0001
0100
0010
1000
0001
0010
0100
1000
0001
0010
0001
0100
,
0001
0100
0010
1000
0100
1000
0001
0010
0100
1000
0010
1000
0001
0100
0010
1000
,
0100
1000
0001
0010
0100
1000
0010
1000
0001
0100
0010
1000
0001
0010
0100
1000
,
0001
0010
0100
1000
0010
1000
0001
0100
0010
0100
0001
0010
0001
0010
0100
1000
,
0010
1000
0001
0100
0010
0100
0001
0010
0001
0010
0100
1000
0001
0100
0010
0100
,
0001
1000
0010
1000
0100
0010
0001
0100
0001
0010
0100
0010
0001
1000
0010
1000
,
0100
0010
0001
0100
0001
0010
0100
0010
0001
1000
0010
1000
0001
0100
0001
0010
,
0001
0100
0010
1000
0100
0010
0001
0100
0001
0010
0100
1000
0001
0100
0010
1000
,
0100
0010
0001
0100
0001
0010
0100
1000
0001
0100
0010
1000
0001
0100
0001
0010
,
0001
0010
0100
1000
0010
1000
0001
1000
0001
0010
0100
1000
0010
0100
0010
1000
,
0001
0010
0100
1000
0010
1000
0001
1000
0001
0010
0100
1000
0010
0100
0010
1000
,
0001
0010
0001
0100
0001
1000
0100
0010
0001
0100
0001
1000
0100
1000
0010
1000
,
0001
0010
0001
0100
0001
1000
0100
0010
0001
0100
0001
1000
0100
1000
0010
1000
,
0001
0010
0001
1000
0010
1000
0100
0010
0001
1000
0010
1000
0100
0010
0100
1000
,
0001
0010
0001
1000
0010
1000
0100
0010
0001
1000
0010
1000
0100
0010
0100
1000
,
0001
0100
0010
1000
0100
0010
0100
1000
0001
0010
0001
0100
0001
1000
0001
0010
,
0001
0100
0010
1000
0100
0010
0100
1000
0001
0010
0001
0100
0001
1000
0001
0010
,
0001
0100
0010
1000
0100
1000
0001
1000
0001
0100
0010
1000
0100
0010
0100
1000
,
0001
0100
0010
1000
0100
1000
0001
1000
0001
0100
0010
1000
0100
0010
0100
1000
,
0001
0100
0001
0010
0001
1000
0010
0100
0001
0010
0001
1000
0010
1000
0100
1000
,
0001
0100
0001
0010
0001
1000
0010
0100
0001
0010
0001
1000
0010
1000
0100
1000
,
0001
0100
0001
1000
0100
1000
0010
0100
0001
1000
0100
1000
0010
0100
0010
1000
,
0001
0100
0001
1000
0100
1000
0010
0100
0001
1000
0100
1000
0010
0100
0010
1000
,
0001
0010
0100
1000
0010
0100
0010
1000
0001
0100
0001
0010
0001
1000
0001
0100
,
0001
0010
0100
1000
0010
0100
0010
1000
0001
0100
0001
0010
0001
1000
0001
0100
,
0001
0010
0100
1000
0010
1000
0001
1000
0001
0010
0100
1000
0010
0100
0010
1000
,
0001
0010
0100
1000
0010
1000
0001
1000
0001
0010
0100
1000
0010
0100
0010
1000
,
0001
0010
0001
0100
0001
1000
0100
0010
0001
0100
0001
1000
0100
1000
0010
1000
,
0001
0010
0001
0100
0001
1000
0100
0010
0001
0100
0001
1000
0100
1000
0010
1000
,
0001
0010
0001
1000
0010
1000
0100
0010
0001
1000
0010
1000
0100
0010
0100
1000
,
0001
0010
0001
1000
0010
1000
0100
0010
0001
1000
0010
1000
0100
0010
0100
1000
,
0001
0100
0010
1000
0100
0010
0100
1000
0001
0010
0001
0100
0001
1000
0001
0010
,
0001
0100
0010
1000
0100
0010
0100
1000
0001
0010
0001
0100
0001
1000
0001
0010
,
0001
0100
0010
1000
0100
1000
0001
1000
0001
0100
0010
1000
0100
0010
0100
1000
,
0001
0100
0010
1000
0100
1000
0001
1000
0001
0100
0010
1000
0100
0010
0100
1000
,
0001
0100
0001
0010
0001
1000
0010
0100
0001
0010
0001
1000
0010
1000
0100
1000
,
0001
0100
0001
0010
0001
1000
0010
0100
0001
0010
0001
1000
0010
1000
0100
1000
,
0001
0100
0001
1000
0100
1000
0010
0100
0001
1000
0100
1000
0010
0100
0010
1000
,
0001
0100
0001
1000
0100
1000
0010
0100
0001
1000
0100
1000
0010
0100
0010
1000
,
0001
0010
0100
1000
0010
0100
0010
1000
0001
0100
0001
0010
0001
1000
0001
0100
,
0001
0010
0100
1000
0010
0100
0010
1000
0001
0100
0001
0010
0001
1000
0001
0100
,
0002
0000
0000
0000
,
0000
0000
0000
0000
,
0003
0000
0000
0000
,
0000
0000
0000
0000
,
0000
0000
0000
0000
,
0000
0000
0000
0000
,
0000
0000
0000
0000
;

//---------------dance-single - 18- (owenviau1)----------------
#NOTES:
     dance-single:
     18- (owenviau1):
     Challenge:
     18:
     1.000,1.000,0.000,0.068,1.000,5466.000,0.000,31.000,38.000,0.000:
0000
0000
0000
0000
,
1000
0100
0010
0001
1000
0010
0100
0010
1000
0001
0100
0001
1000
0100
0010
0001
0100
0010
1000
0010
0100
0001
0010
0001
,
1000
0100
0010
0001
1000
0100
1000
0001
0100
0010
1000
0010
0100
0001
1000
0100
1000
0001
0100
0010
1000
0001
0010
0001
,
1000
0100
0010
0001
0100
0010
1000
0010
0100
0001
1000
0100
1000
0010
0100
0010
1000
0001
0100
0001
1000
0010
0100
0010
,
1000
0001
0010
0001
1000
0100
0010
0001
0100
0010
1000
0001
0010
0001
1000
0010
1000
0001
0100
0010
1000
0001
0010
0001
,
1000
0100
0010
0001
0100
0010
1000
0001
0100
0001
1000
0010
0100
0010
1000
0001
0010
0001
1000
0100
1000
0001
0100
0010
,
1000
0001
0010
0001
1000
0100
0010
0001
1000
0100
1000
0001
0100
0010
0100
0001
1000
0010
0100
0010
1000
0001
0010
0001
,
1000
0100
0010
0001
0100
0010
1000
0010
0100
0001
1000
0100
1000
0001
0100
0010
1000
0001
0010
0001
1000
0100
0010
0001
,
0100
0010
1000
0010
0100
0001
1000
0100
1000
0001
0100
0010
1000
0010
0100
0001
0010
0001
1000
0100
1000
0001
0010
0100
,
1000
0100
0010
0001
1000
0010
1000
0001
0100
0010
0100
0001
1000
0100
1000
0001
0010
0100
1000
0100
0010
0001
1000
0100
,
1000
0001
0100
0010
1000
0001
0010
0001
0100
0010
0100
0001
1000
0100
0010
0001
0100
0010
1000
0100
0010
0001
1000
0010
,
0100
0010
1000
0001
0100
0001
1000
0100
0010
0001
0100
0010
1000
0010
0100
0001
0010
0001
1000
0100
0010
0001
1000
0100
,
1000
0001
0100
0010
1000
0010
0100
0001
1000
0100
1000
0001
0100
0010
1000
0001
0010
0001
1000
0100
0010
0001
0100
0010
,
1000
0010
0100
0001
1000
0100
1000
0010
0100
0010
1000
0001
0100
0001
1000
0010
0100
0010
1000
0001
0010
0001
1000
0100
,
0010
0001
0100
0010
1000
0001
0010
0001
1000
0010
1000
0001
0100
0010
1000
0001
0010
0001
1000
0100
0010
0001
0100
0010
,
1000
0001
0100
0001
1000
0010
0100
0010
1000
0001
0010
0001
1000
0100
1000
0001
0100
0010
1000
0001
0010
0001
1000
0100
,
0010
0001
1000
0100
1000
0001
0100
0010
0100
0001
1000
0010
0100
0010
1000
0001
0010
0001
1000
0100
0010
0001
0100
0010
,
1000
0010
0100
0001
1000
0100
1000
0001
0100
0010
1000
0001
0010
0001
1000
0100
0010
0001
0100
0010
1000
0010
0100
0001
,
1000
0100
1000
0001
0100
0010
1000
0010
0100
0001
0010
0001
1000
0100
1000
0001
0010
0100
1000
0100
0010
0001
1000
0010
,
1000
0001
0100
0010
0100
0001
1000
0100
1000
0001
0010
0100
1000
0100
0010
0001
1000
0100
1000
0001
0100
0010
1000
0001
,
0010
0001
0100
0010
0100
0001
1000
0100
0010
0001
0100
0010
1000
0100
0010
0001
1000
0010
0100
0010
1000
0001
0100
0001
,
1000
0100
0010
0001
0100
0010
1000
0010
0100
0001
0010
0001
1000
0100
0010
0001
1000
0100
1000
0001
0100
0010
1000
0010
,
0100
0001
1000
0100
1000
0001
0100
0010
1000
0001
0010
0001
1000
0100
0010
0001
0100
0010
1000
0010
0100
0001
1000
0100
,
1000
0010
0100
0010
1000
0001
0100
0001
1000
0010
0100
0010
1000
0001
0010
0001
1000
0100
0010
0001
0100
0010
1000
0001
,
0010
0001
1000
0010
1000
0001
0100
0010
1000
0001
0010
0001
1000
0100
0010
0001
0100
0010
1000
0001
0100
0001
1000
0010
,
0100
0010
1000
0001
0010
0001
1000
0100
1000
0001
0100
0010
1000
0001
0010
0001
1000
0100
0010
0001
1000
0100
1000
0001
,
0100
0010
0100
0001
1000
0010
0100
0010
1000
0001
0010
0001
1000
0100
0010
0001
0100
0010
1000
0010
0100
0001
1000
0100
,
1000
0001
0100
0010
1000
0001
0010
0001
1000
0100
0010
0001
0100
0010
1000
0010
0100
0001
1000
0100
1000
0001
0100
0010
,
1000
0010
0100
0001
0010
0001
1000
0100
1000
0001
0010
0100
1000
0100
0010
0001
1000
0010
1000
0001
0100
0010
0100
0001
,
1000
0100
1000
0001
0010
0100
1000
0100
0010
0001
1000
0100
1000
0001
0100
0010
1000
0001
0010
0001
0100
0010
0100
0001
,
1000
0100
0010
0001
0100
0010
1000
0100
0010
0001
0100
0010
1000
0001
0010
0001
0100
0010
0100
0001
1000
0100
1000
0001
,
0100
0010
1000
0001
0010
0001
1000
0100
0010
0001
0100
0010
1000
0001
0100
0001
1000
0100
0010
0001
0100
0010
1000
0010
,
0100
0000
0001
0000
0010
0000
0001
0000
1000
0000
0100
0000
0010
0000
0001
0000
0100
0000
0010
0000
0100
0000
0001
0000
1000
0000
0100
0000
1000
0000
0010
0000
0100
0000
0001
0000
1000
0000
0000
0010
0000
0000
0100
0000
0000
0001
0000
0000
,
1000
0100
0010
0001
1000
0010
0100
0010
1000
0001
0100
0001
1000
0100
0010
0001
0100
0010
1000
0010
0100
0001
0010
0001
,
1000
0100
0010
0001
1000
0100
1000
0001
0100
0010
1000
0010
0100
0001
1000
0100
1000
0001
0100
0010
1000
0001
0010
0001
,
1000
0100
0010
0001
0100
0010
1000
0010
0100
0001
1000
0100
1000
0010
0100
0010
1000
0001
0100
0001
1000
0010
0100
0010
,
1000
0001
0010
0001
1000
0100
0010
0001
0100
0010
1000
0001
0010
0001
1000
0010
1000
0001
0100
0010
1000
0001
0010
0001
,
1000
0100
0010
0001
0100
0010
1000
0001
0100
0001
1000
0010
0100
0010
1000
0001
0010
0001
1000
0100
1000
0001
0100
0010
,
1000
0001
0010
0001
1000
0100
0010
0001
1000
0100
1000
0001
0100
0010
0100
0001
1000
0010
0100
0010
1000
0001
0010
0001
,
1000
0100
0010
0001
0100
0010
1000
0010
0100
0001
1000
0100
1000
0001
0100
0010
1000
0001
0010
0001
1000
0100
0010
0001
,
0100
0000
0010
0000
1000
0000
0010
0000
0100
0000
0001
0000
1000
0000
0100
0000
1000
0000
0001
0000
0100
0000
0010
0000
1000
0000
0010
0000
0100
0000
0001
0000
0010
0000
0001
0000
1000
0000
0000
0010
0000
0000
0100
0000
0000
0001
0000
0000
,
1000
0100
0010
0001
1000
0010
1000
0001
0100
0010
0100
0001
1000
0100
1000
0001
0010
0100
1000
0100
0010
0001
1000
0100
,
1000
0001
0100
0010
1000
0001
0010
0001
0100
0010
0100
0001
1000
0100
0010
0001
0100
0010
1000
0100
0010
0001
1000
0010
,
0100
0010
1000
0001
0100
0001
1000
0100
0010
0001
0100
0010
1000
0010
0100
0001
0010
0001
1000
0100
0010
0001
1000
0100
,
1000
0001
0100
0010
1000
0010
0100
0001
1000
0100
1000
0001
0100
0010
1000
0001
0010
0001
1000
0100
0010
0001
0100
0010
,
1000
0010
0100
0001
1000
0100
1000
0010
0100
0010
1000
0001
0100
0001
1000
0010
0100
0010
1000
0001
0010
0001
1000
0100
,
0010
0001
0100
0010
1000
0001
0010
0001
0100
0010
1000
0001
0100
0010
1000
0001
0010
0001
1000
0100
0010
0001
0100
0010
,
1000
0001
0100
0001
1000
0010
0100
0010
1000
0001
0010
0001
1000
0100
1000
0001
0100
0010
1000
0001
0010
0001
1000
0100
,
0010
0001
1000
0100
1000
0001
0100
0010
0100
0001
1000
0010
0100
0010
1000
0001
0010
0001
1000
0100
0010
0001
0100
0010
,
1000
0001
0100
0001
1000
0010
0100
0010
1000
0001
0010
0001
0100
0010
1000
0100
,
0010
0001
1000
0100
1000
0001
0100
0010
1000
0010
0100
0001
0010
0001
1000
0100
,
0010
0001
1000
0100
1000
0001
0100
0010
1000
0001
0010
0001
0100
0010
0100
0001
,
1000
0001
0100
0010
1000
0100
1000
0001
0100
0010
1000
0001
0010
0001
0100
0010
,
0100
0001
1000
0001
0100
0010
1000
0100
1000
0001
0010
0001
1000
0100
0010
0001
,
0100
0010
1000
0010
0100
0001
1000
0001
0100
0010
1000
0001
0010
0001
1000
0100
,
0010
0001
0100
0010
1000
0010
0100
0001
1000
0100
1000
0001
0100
0010
0100
0001
,
1000
0000
0000
0001
0000
0000
0100
0000
0010
0000
0000
1000
0000
0000
0001
0000
,
0100
0010
1000
0001
0010
0001
1000
0100
1000
0001
0100
0010
1000
0001
0010
0001
1000
0100
0010
0001
1000
0100
1000
0001
,
0100
0010
0100
0001
1000
0010
0100
0010
1000
0001
0010
0001
1000
0100
0010
0001
0100
0010
1000
0010
0100
0001
1000
0100
,
1000
0001
0100
0010
1000
0001
0010
0001
1000
0100
0010
0001
0100
0010
1000
0010
0100
0001
1000
0100
1000
0001
0100
0010
,
1000
0010
0100
0001
0010
0001
1000
0100
1000
0001
0010
0100
1000
0100
0010
0001
1000
0010
1000
0001
0100
0010
0100
0001
,
1000
0100
1000
0001
0010
0100
1000
0100
0010
0001
1000
0100
1000
0001
0100
0010
1000
0001
0010
0001
0100
0010
0100
0001
,
1000
0100
0010
0001
0100
0010
1000
0100
0010
0001
0100
0010
1000
0001
0010
0001
0100
0010
0100
0001
1000
0100
1000
0001
,
0100
0010
1000
0001
0010
0001
1000
0100
0010
0001
0100
0010
1000
0001
0100
0001
1000
0100
0010
0001
0100
0010
1000
0010
,
0100
0001
0010
0001
1000
0100
0010
0001
0100
0010
0100
0001
1000
0100
1000
0010
0100
0001
1000
0100
0010
0001
1000
0010
,
0100
0010
1000
0001
0100
0001
1000
0100
0010
0001
0100
0010
1000
0010
0100
0001
0010
0001
1000
0100
0010
0001
1000
0100
,
1000
0001
0100
0010
1000
0010
0100
0001
1000
0100
1000
0001
0100
0010
1000
0001
0010
0001
1000
0100
0010
0001
0100
0010
,
1000
0010
0100
0001
1000
0100
1000
0010
0100
0010
1000
0001
0100
0001
1000
0010
0100
0010
1000
0001
0010
0001
1000
0100
,
0010
0001
0100
0010
1000
0001
0010
0001
1000
0010
1000
0001
0100
0010
1000
0001
0010
0001
1000
0100
0010
0001
0100
0010
,
1000
0001
0100
0001
1000
0010
0100
0010
1000
0001
0010
0001
1000
0100
1000
0001
0100
0010
1000
0001
0010
0001
1000
0100
,
0010
0001
1000
0100
1000
0001
0100
0010
0100
0001
1000
0010
0100
0010
1000
0001
0010
0001
1000
0100
0010
0001
0100
0010
,
1000
0010
0100
0001
1000
0100
1000
0001
0100
0010
1000
0001
0010
0001
1000
0100
0010
0001
0100
0010
1000
0010
0100
0001
,
1000
0000
0100
0000
1000
0000
0001
0000
0100
0000
0010
0000
1000
0000
0010
0000
0100
0000
0001
0000
0010
0000
0001
0000
1000
0000
0100
0000
1000
0000
0001
0000
0010
0000
0100
0000
1000
0000
0000
0001
0000
0000
0010
0000
0000
0001
0000
0000
,
1000
0001
0100
0010
0100
0001
1000
0100
1000
0001
0010
0100
1000
0100
0010
0001
1000
0100
1000
0001
0100
0010
1000
0001
,
0010
0001
0100
0010
0100
0001
1000
0100
0010
0001
0100
0010
1000
0100
0010
0001
1000
0010
0100
0010
1000
0001
0100
0001
,
1000
0100
0010
0001
0100
0010
1000
0010
0100
0001
0010
0001
1000
0100
0010
0001
1000
0100
1000
0001
0100
0010
1000
0010
,
0100
0001
1000
0100
1000
0001
0100
0010
1000
0001
0010
0001
1000
0100
0010
0001
0100
0010
1000
0010
0100
0001
1000
0100
,
1000
0010
0100
0010
1000
0001
0100
0001
1000
0010
0100
0010
1000
0001
0010
0001
1000
0100
0010
0001
0100
0010
1000
0001
,
0010
0001
1000
0010
1000
0001
0100
0010
1000
0001
0010
0001
1000
0100
0010
0001
0100
0010
1000
0001
0100
0001
1000
0010
,
0100
0010
1000
0001
0010
0001
1000
0100
1000
0001
0100
0010
1000
0001
0010
0001
1000
0100
0010
0001
1000
0100
1000
0001
,
0100
0010
0100
0001
1000
0010
0100
0010
1000
0001
0010
0001
1000
0100
0010
0001
0100
0010
1000
0010
0100
0001
1000
0001
,
2000
0M00
0000
000M
0000
00M0
0000
0M00
,
3020
000M
0000
0M00
0000
000M
0000
M000
,
0230
000M
0000
M000
0000
00M0
0000
M000
,
0302
00M0
0000
M000
0000
0M00
0000
M000
,
0023
0M00
0000
M000
0000
000M
0000
0M00
,
0032
M000
0000
0M00
0000
00M0
0000
M000
,
0203
00M0
0000
000M
0000
M000
0000
00M0
,
0302
M000
0000
0M00
0000
00M0
0000
0M00
,
1003
0100
0010
0001
0000
0000
0000
0000
0000
0000
0000
0000
0000
1000
0010
0100
,
0001
0010
0100
1000
0000
0000
0000
0000
0000
0000
0000
0000
0000
0000
0001
1000
,
0010
0100
0001
0010
0000
0000
0000
0000
0000
0000
0000
0000
0000
0100
1000
0001
,
0100
0001
0010
0100
0000
0000
0000
0000
0000
0000
0000
0000
0000
0000
1000
0100
,
0010
0000
0000
0010
0000
0000
0001
0000
0000
0001
0000
0000
1000
0000
0000
1000
,
0000
0000
0010
0000
0000
0010
0000
0000
0100
0000
0000
0100
0001
0000
0000
0001
,
1000
0000
0000
1000
0000
0000
0100
0000
0000
0100
0000
0000
0010
0000
0000
0010
,
0000
0000
0100
0000
0000
0100
0000
0000
1000
0000
0001
0000
0010
0000
0100
0000
,
2000
0000
3002
0000
0103
0010
1000
0200
,
0000
0320
0000
0031
1000
0002
0000
0013
,
0100
2000
0000
3020
0000
0130
0001
2000
,
0000
0000
3100
0000
0020
0000
0000
0000
0030
0000
0001
0000
1000
0000
0100
0020
,
0000
0000
0031
0000
1000
0000
0010
0200
0000
0000
0320
0000
0000
0000
1030
0000
,
0100
0000
0010
0000
0001
0000
2000
0000
0000
0000
3010
0000
0100
0000
0001
2000
,
0000
3100
0010
0002
0000
1003
0100
0010
,
0100
1000
0001
0200
0000
0310
1000
0100
,
0010
0001
1000
0010
1000
0001
0100
0010
1000
0001
0010
0001
1000
0100
0010
0001
,
0100
0010
0100
0001
1000
0100
1000
0010
0100
0001
1000
0100
0010
0001
1000
0100
,
1000
0001
0100
0010
1000
0001
0010
0001
0100
0010
0100
0001
1000
0100
1000
0001
,
0100
0010
1000
0001
0010
0001
1000
0100
0010
0001
1000
0100
1000
0001
0100
0010
,
1000
0010
0100
0001
0010
0001
1000
0100
1000
0001
0100
0010
1000
0001
0010
0001
,
0100
0010
0100
0001
1000
0001
0100
0010
1000
0100
0010
0001
1000
0100
1000
0001
,
0100
0010
1000
0001
0010
0001
0100
0010
0100
0001
1000
0001
0100
0010
1000
0001
,
0100
0010
1000
0001
0010
0001
1000
0100
0010
0001
1000
0100
1000
0001
0100
0010
1000
0010
0100
0001
1000
0100
0010
0001
,
2M00
3000
0000
00M0
0000
0000
M000
0000
,
0000
0M00
0000
0000
000M
0000
00M0
0000
,
1000
0100
0010
0001
1000
0010
0100
0010
1000
0001
0100
0001
1000
0100
0010
0001
0100
0010
1000
0010
0100
0001
0010
0001
,
1000
0100
0010
0001
1000
0100
1000
0001
0100
0010
1000
0010
0100
0001
1000
0100
1000
0001
0100
0010
1000
0001
0010
0001
,
1000
0100
0010
0001
0100
0010
1000
0010
0100
0001
1000
0100
1000
0010
0100
0010
1000
0001
0100
0001
1000
0010
0100
0010
,
1000
0001
0010
0001
1000
0100
0010
0001
0100
0010
1000
0001
0010
0001
1000
0010
1000
0001
0100
0010
1000
0001
0010
0001
,
1000
0100
0010
0001
0100
0010
1000
0001
0100
0001
1000
0010
0100
0010
1000
0001
0010
0001
1000
0100
1000
0001
0100
0010
,
1000
0001
0010
0001
1000
0100
0010
0001
1000
0100
1000
0001
0100
0010
0100
0001
1000
0010
0100
0010
1000
0001
0010
0001
,
1000
0100
0010
0001
0100
0010
1000
0010
0100
0001
1000
0100
1000
0001
0100
0010
1000
0001
0010
0001
1000
0100
0010
0001
,
0100
0010
1000
0010
0100
0001
1000
0100
1000
0001
0100
0010
1000
0010
0100
0001
0010
0001
1000
0100
1000
0001
0010
0100
,
1000
0100
0010
0001
1000
0010
1000
0001
0100
0010
0100
0001
1000
0100
1000
0001
0010
0100
1000
0100
0010
0001
1000
0100
,
1000
0001
0100
0010
1000
0001
0010
0001
0100
0010
0100
0001
1000
0100
0010
0001
0100
0010
1000
0100
0010
0001
1000
0010
,
0100
0010
1000
0001
0100
0001
1000
0100
0010
0001
0100
0010
1000
0010
0100
0001
0010
0001
1000
0100
0010
0001
1000
0100
,
1000
0001
0100
0010
1000
0010
0100
0001
1000
0100
1000
0001
0100
0010
1000
0001
0010
0001
1000
0100
0010
0001
0100
0010
,
1000
0010
0100
0001
1000
0100
1000
0010
0100
0010
1000
0001
0100
0001
1000
0010
0100
0010
1000
0001
0010
0001
1000
0100
,
0010
0001
0100
0010
1000
0001
0010
0001
1000
0010
1000
0001
0100
0010
1000
0001
0010
0001
1000
0100
0010
0001
0100
0010
,
1000
0001
0100
0001
1000
0010
0100
0010
1000
0001
0010
0001
1000
0100
1000
0001
0100
0010
1000
0001
0010
0001
1000
0100
,
0010
0001
1000
0100
1000
0001
0100
0010
0100
0001
1000
0010
0100
0010
1000
0001
0010
0001
1000
0100
0010
0001
0100
0010
,
1000
0010
0100
0001
1000
0100
1000
0001
0100
0010
1000
0001
0010
0001
1000
0100
0010
0001
0100
0010
1000
0010
0100
0001
,
1000
0100
1000
0001
0100
0010
1000
0010
0100
0001
0010
0001
1000
0100
1000
0001
0010
0100
1000
0100
0010
0001
1000
0010
,
1000
0001
0100
0010
0100
0001
1000
0100
1000
0001
0010
0100
1000
0100
0010
0001
1000
0100
1000
0001
0100
0010
1000
0001
,
0010
0000
0001
0000
0100
0000
0010
0000
0100
0000
0001
0000
1000
0000
0100
0000
0010
0000
0001
0000
0100
0000
0010
0000
1000
0000
0100
0000
0010
0000
0001
0000
1000
0000
0010
0000
0100
0000
0000
0001
0000
0000
1000
0000
0000
0100
0000
0000
,
1000
0100
0010
0001
0100
0010
1000
0010
0100
0001
0010
0001
1000
0100
0010
0001
1000
0100
1000
0001
0100
0010
1000
0010
,
0100
0001
1000
0100
1000
0001
0100
0010
1000
0001
0010
0001
1000
0100
0010
0001
0100
0010
1000
0010
0100
0001
1000
0100
,
1000
0010
0100
0010
1000
0001
0100
0001
1000
0010
0100
0010
1000
0001
0010
0001
1000
0100
0010
0001
0100
0010
1000
0001
,
0010
0001
1000
0010
1000
0001
0100
0010
1000
0001
0010
0001
1000
0100
0010
0001
0100
0010
1000
0001
0100
0001
1000
0010
,
0100
0010
1000
0001
0010
0001
1000
0100
1000
0001
0100
0010
1000
0001
0010
0001
1000
0100
0010
0001
1000
0100
1000
0001
,
0100
0010
0100
0001
1000
0010
0100
0010
1000
0001
0010
0001
1000
0100
0010
0001
0100
0010
1000
0010
0100
0001
1000
0100
,
1000
0001
0100
0010
1000
0001
0010
0001
1000
0100
0010
0001
0100
0010
1000
0010
0100
0001
1000
0100
1000
0001
0100
0010
,
1000
0010
0100
0001
0010
0001
1000
0100
1000
0001
0010
0100
1000
0100
0010
0001
1000
0010
1000
0001
0100
0010
0100
0001
,
1000
0100
1000
0001
0010
0100
1000
0100
0010
0001
1000
0100
1000
0001
0100
0010
1000
0001
0010
0001
0100
0010
0100
0001
,
1000
0100
0010
0001
0100
0010
1000
0100
0010
0001
0100
0010
1000
0001
0010
0001
0100
0010
0100
0001
1000
0100
1000
0001
,
0100
0010
1000
0001
0010
0001
1000
0100
0010
0001
0100
0010
1000
0001
0100
0001
1000
0100
0010
0001
0100
0010
1000
0010
,
0100
0001
0010
0001
1000
0100
0010
0001
0100
0010
0100
0001
1000
0100
1000
0010
0100
0001
1000
0100
0010
0001
1000
0010
,
0100
0010
1000
0001
0100
0001
1000
0100
0010
0001
0100
0010
1000
0010
0100
0001
0010
0001
1000
0100
0010
0001
1000
0100
,
1000
0001
0100
0010
1000
0010
0100
0001
1000
0100
1000
0001
0100
0010
1000
0001
0010
0001
1000
0100
0010
0001
0100
0010
,
1000
0010
0100
0001
1000
0100
1000
0010
0100
0010
1000
0001
0100
0001
1000
0010
0100
0010
1000
0001
0010
0001
1000
0100
,
0010
0000
0001
0000
0100
0000
0010
0000
1000
0000
0001
0000
0010
0000
0001
0000
1000
0000
0010
0000
1000
0000
0001
0000
0100
0000
0010
0000
1000
0000
0001
0000
0010
0000
0001
0000
1000
0000
0000
0010
0000
0000
0100
0000
0000
0001
0000
0000
,
1000
0001
0100
0001
1000
0010
0100
0010
1000
0001
0010
0001
1000
0100
1000
0001
0100
0010
1000
0001
0010
0001
1000
0100
,
0010
0001
1000
0100
1000
0001
0100
0010
0100
0001
1000
0010
0100
0010
1000
0001
0010
0001
1000
0100
0010
0001
0100
0010
,
1000
0010
0100
0001
1000
0100
1000
0001
0100
0010
1000
0001
0010
0001
1000
0100
0010
0001
0100
0010
1000
0010
0100
0001
,
1000
0100
1000
0001
0100
0010
1000
0010
0100
0001
0010
0001
1000
0100
1000
0001
0010
0100
1000
0100
0010
0001
1000
0010
,
1000
0001
0100
0010
0100
0001
1000
0100
1000
0001
0010
0100
1000
0100
0010
0001
1000
0100
1000
0001
0100
0010
1000
0001
,
0010
0001
0100
0010
0100
0001
1000
0100
0010
0001
0100
0010
1000
0100
0010
0001
1000
0010
0100
0010
1000
0001
0100
0001
,
1000
0100
0010
0001
0100
0010
1000
0010
0100
0001
0010
0001
1000
0100
0010
0001
1000
0100
1000
0001
0100
0010
1000
0010
,
0100
0001
1000
0100
1000
0001
0100
0010
1000
0001
0010
0001
1000
0100
0010
0001
0100
0010
2000
0000
0000
3002
0000
0000
,
1003
0010
0100
0010
1000
0001
0100
0001
1000
0010
0100
0010
1000
0001
0010
0001
1000
0100
0010
0001
0100
0010
1000
0001
,
0010
0001
1000
0010
1000
0001
0100
0010
1000
0001
0010
0001
1000
0100
0010
0001
0100
0010
1000
0001
0100
0001
1000
0010
,
0100
0010
1000
0001
0010
0001
1000
0100
1000
0001
0100
0010
1000
0001
0010
0001
1000
0100
0010
0001
1000
0100
1000
0001
,
0100
0010
0100
0001
1000
0010
0100
0010
1000
0001
0010
0001
1000
0100
0010
0001
0100
0010
1000
0010
0100
0001
1000
0100
,
1000
0001
0100
0010
1000
0001
0010
0001
1000
0100
0010
0001
0100
0010
1000
0010
0100
0001
1000
0100
1000
0001
0100
0010
,
1000
0010
0100
0001
0010
0001
1000
0100
1000
0001
0010
0100
1000
0100
0010
0001
1000
0010
1000
0001
0100
0010
0100
0001
,
1000
0100
1000
0001
0010
0100
1000
0100
0010
0001
1000
0100
1000
0001
0100
0010
1000
0001
0010
0001
0100
0010
0100
0001
,
1000
0100
0010
0001
0100
0010
1000
0100
0010
0001
1000
0010
0100
0010
1000
0001
0100
0001
1000
0100
0010
0001
0100
0010
,
1000
0010
0100
0001
0010
0001
1000
0100
0010
0001
1000
0100
1000
0001
0100
0010
1000
0010
0100
0001
1000
0100
1000
0001
,
0100
0010
1000
0001
0010
0001
1000
0100
0010
0001
0100
0010
1000
0010
0100
0001
1000
0100
1000
0010
0100
0010
1000
0001
,
0100
0001
1000
0010
0100
0010
1000
0001
0010
0001
1000
0100
0010
0001
0100
0010
1000
0001
0010
0001
1000
0010
1000
0001
,
0100
0010
1000
0001
0010
0001
1000
0100
0010
0001
0100
0010
1000
0001
0100
0001
1000
0010
0100
0010
1000
0001
0010
0001
,
1000
0100
1000
0001
0100
0010
1000
0001
0010
0001
1000
0100
0010
0001
1000
0100
1000
0001
0100
0010
0100
0001
1000
0010
,
0100
0010
1000
0001
0010
0001
1000
0100
0010
0001
0100
0010
1000
0010
0100
0001
1000
0100
1000
0001
0100
0010
1000
0001
,
0010
0001
1000
0100
0010
0001
0100
0010
1000
0010
0100
0001
1000
0100
1000
0001
0100
0010
1000
0010
0100
0001
0010
0001
,
1000
0100
1000
0001
0010
0100
1000
0100
0010
0001
1000
0010
1000
0001
0100
0010
0100
0001
1000
0100
1000
0001
0010
0100
,
1000
0100
0010
0001
1000
0100
1000
0001
0100
0010
1000
0001
0010
0001
0100
0010
0100
0001
1000
0100
0010
0001
0100
0010
,
1000
0100
0010
0001
0100
0010
1000
0001
0010
0001
0100
0010
0100
0001
1000
0100
1000
0001
0100
0010
1000
0001
0010
0001
,
1000
0100
0010
0001
0100
0010
1000
0001
0100
0001
1000
0100
0010
0001
0100
0010
1000
0010
0100
0001
0010
0001
1000
0100
,
0010
0001
0100
0010
0100
0001
1000
0100
1000
0010
0100
0001
1000
0010
0100
0010
1000
0001
0100
0001
1000
0010
0100
0010
,
1000
0001
0010
0001
1000
0100
0010
0001
0100
0010
1000
0001
0010
0001
1000
0010
1000
0001
0100
0010
1000
0001
0010
0001
,
1000
0100
0010
0001
0100
0010
1000
0001
0100
0001
1000
0010
0100
0010
1000
0001
0010
0001
1000
0100
1000
0001
0100
0010
,
1000
0001
0010
0001
1000
0100
0010
0001
1000
0100
1000
0001
0100
0010
0100
0001
1000
0010
0100
0010
1000
0001
0010
0001
,
1000
0100
0010
0001
0100
0010
1000
0010
0100
0001
1000
0100
1000
0001
0100
0010
1000
0001
0010
0001
1000
0100
0010
0001
,
0100
0010
1000
0010
0100
0001
1000
0100
1000
0001
0100
0010
1000
0010
0100
0001
0010
0001
1000
0100
1000
0001
0010
0100
,
1000
0100
0010
0001
1000
0010
1000
0001
0100
0010
0100
0001
1000
0100
1000
0001
0010
0100
1000
0100
0010
0001
1000
0100
,
1000
0001
0100
0010
1000
0001
0010
0001
0100
0010
0100
0001
1000
0100
0010
0001
0100
0010
1000
0100
0010
0001
1000
0010
,
0100
0010
1000
0001
0100
0001
1000
0100
0010
0001
0100
0010
1000
0010
0100
0001
0010
0001
1000
0100
0010
0001
1000
0100
,
1000
0001
0100
0010
1000
0010
0100
0001
1000
0100
1000
0001
0100
0010
1000
0001
0010
0001
1000
0100
0010
0001
0100
0010
,
1000
0010
0100
0001
1000
0100
1000
0010
0100
0010
1000
0001
0100
0001
1000
0010
0100
0010
1000
0001
0010
0001
1000
0100
,
0010
0001
0100
0010
1000
0001
0010
0001
1000
0010
1000
0001
0100
0010
1000
0001
0010
0001
1000
0100
0010
0001
0100
0010
,
1000
0001
0100
0001
1000
0010
0100
0010
1000
0001
0010
0001
1000
0100
1000
0001
0100
0010
1000
0001
0010
0001
1000
0100
,
0010
0001
1000
0100
1000
0001
0100
0010
0100
0001
1000
0010
0100
0010
1000
0001
0010
0001
1000
0100
0010
0001
0100
0010
,
1000
0000
0000
0000
0000
0002
0203
0320
,
1030
0100
1000
0001
0100
0010
1000
0010
0100
0001
0010
0001
1000
0100
1000
0001
0010
0100
1000
0100
0010
0001
1000
0010
,
1000
0001
0100
0010
0100
0001
1000
0100
1000
0001
0010
0100
1000
0100
0010
0001
1000
0100
1000
0001
0100
0010
1000
0001
,
0010
0001
0100
0010
0100
0001
1000
0100
0010
0001
0100
0010
1000
0100
0010
0001
0100
0010
1000
0001
0010
0001
0100
0010
,
0100
0001
1000
0100
1000
0001
0100
0010
1000
0001
0010
0001
1000
0100
0010
0001
0100
0010
1000
0001
0100
0001
1000
0100
,
0010
0001
0100
0010
1000
0010
0100
0001
0010
0001
1000
0100
0010
0001
0100
0010
0100
0001
1000
0100
1000
0010
0100
0001
,
1000
0010
0100
0010
1000
0001
0100
0001
1000
0010
0100
0010
1000
0001
0010
0001
1000
0100
0010
0001
0100
0010
1000
0001
,
0010
0001
1000
0010
1000
0001
0100
0010
1000
0001
0010
0001
1000
0100
0010
0001
0100
0010
1000
0001
0100
0001
1000
0010
,
0100
0010
1000
0001
0010
0001
1000
0100
1000
0001
0100
0010
1000
0001
0010
0001
1000
0100
0010
0001
1000
0100
1000
0001
,
0100
0010
0100
0001
1000
0010
0100
0010
1000
0001
0010
0001
1000
0100
0010
0001
0100
0010
1000
0010
0100
0001
1000
0100
,
1000
0001
0100
0010
1000
0001
0010
0001
1000
0100
0010
0001
0100
0010
1000
0010
0100
0001
1000
0100
1000
0001
0100
0010
,
1000
0010
0100
0001
0010
0001
1000
0100
1000
0001
0010
0100
1000
0100
0010
0001
1000
0010
1000
0001
0100
0010
0100
0001
,
1000
0100
1000
0001
0010
0100
1000
0100
0010
0001
1000
0100
1000
0001
0100
0010
1000
0001
0010
0001
0100
0010
0100
0001
,
1000
0100
0010
0001
0100
0010
1000
0100
0010
0001
1000
0010
0100
0010
1000
0001
0100
0001
1000
0100
0010
0001
0100
0010
,
1000
0010
0100
0001
0010
0001
1000
0100
0010
0001
1000
0100
1000
0001
0100
0010
1000
0010
0100
0001
1000
0100
1000
0001
,
0100
0010
1000
0001
0010
0001
1000
0100
0010
0001
0100
0010
1000
0010
0100
0001
1000
0100
1000
0010
0100
0010
1000
0001
,
0100
0001
1000
0010
0100
0010
1000
0001
0010
0001
1000
0100
0010
0001
0100
0010
1000
0001
0010
0001
1000
0010
1000
0001
,
0100
0010
1000
0001
0010
0001
1000
0100
0010
0001
0100
0010
1000
0001
0100
0001
1000
0010
0100
0010
1000
0001
0010
0001
,
1000
0100
1000
0001
0100
0010
1000
0001
0010
0001
1000
0100
0010
0001
1000
0100
1000
0001
0100
0010
0100
0001
1000
0010
,
0100
0010
1000
0001
0010
0001
1000
0100
0010
0001
0100
0010
1000
0010
0100
0001
1000
0100
1000
0001
0100
0010
1000
0001
,
0010
0001
1000
0100
0010
0001
0100
0010
1000
0010
0100
0001
1000
0100
1000
0001
0100
0010
1000
0010
0100
0001
0010
0001
,
1000
0100
1000
0001
0010
0100
1000
0100
0010
0001
1000
0010
1000
0001
0100
0010
0100
0001
1000
0100
1000
0001
0010
0100
,
1000
0100
0010
0001
1000
0100
1000
0001
0100
0010
1000
0001
0010
0001
0100
0010
0100
0001
1000
0100
0010
0001
0100
0010
,
1000
0100
0010
0001
0100
0010
1000
0001
0010
0001
0100
0010
0100
0001
1000
0100
1000
0001
0100
0010
1000
0001
0010
0001
,
1000
0100
0010
0001
0100
0010
1000
0001
0100
0001
1000
0100
0010
0001
0100
0010
1000
0010
0100
0001
0010
0001
1000
0100
,
0010
0001
0100
0010
0100
0001
1000
0100
1000
0010
0100
0001
1000
0010
0100
0010
1000
0001
0100
0001
1000
0010
0100
0010
,
1000
0001
0010
0001
1000
0100
0010
0001
0100
0010
1000
0001
0010
0001
1000
0010
1000
0001
0100
0010
1000
0001
0010
0001
,
1000
0100
0010
0001
0100
0010
1000
0001
0100
0001
1000
0010
0100
0010
1000
0001
0010
0001
1000
0100
1000
0001
0100
0010
,
1000
0001
0010
0001
1000
0100
0010
0001
1000
0100
1000
0001
0100
0010
0100
0001
1000
0010
0100
0010
1000
0001
0010
0001
,
1000
0100
0010
0001
0100
0010
1000
0010
0100
0001
1000
0100
1000
0001
0100
0010
1000
0001
0010
0001
1000
0100
0010
0001
,
0100
0010
1000
0010
0100
0001
1000
0100
1000
0001
0100
0010
1000
0010
0100
0001
0010
0001
1000
0100
1000
0001
0010
0100
,
1000
0100
0010
0001
1000
0010
1000
0001
0100
0010
0100
0001
1000
0100
1000
0001
0010
0100
1000
0100
0010
0001
1000
0100
,
1000
0001
0100
0010
1000
0001
0010
0001
0100
0010
0100
0001
1000
0100
0010
0001
0100
0010
1000
0100
0010
0001
1000
0010
,
0100
0010
1000
0001
0100
0001
1000
0100
0010
0001
0100
0010
1000
0010
0100
0001
0010
0001
1000
0100
0010
0001
1000
0100
,
1000
0001
0100
0010
1000
0010
0100
0001
1000
0100
1000
0001
0100
0010
1000
0001
0010
0001
1000
0100
0010
0001
0100
0010
,
1000
0010
0100
0001
1000
0100
1000
0010
0100
0010
1000
0001
0100
0001
1000
0010
0100
0010
1000
0001
0010
0001
1000
0100
,
0010
0001
0100
0010
1000
0001
0010
0001
1000
0010
1000
0001
0100
0010
1000
0001
0010
0001
1000
0100
0010
0001
0100
0010
,
1000
0001
0100
0001
1000
0010
0100
0010
1000
0001
0010
0001
1000
0100
1000
0001
0100
0010
1000
0001
0010
0001
1000
0100
,
0010
0001
1000
0100
1000
0001
0100
0010
0100
0001
1000
0010
0100
0010
1000
0001
0010
0001
1000
0100
0010
0001
0100
0010
,
1000
0010
0100
0001
1000
0100
1000
0001
0100
0010
1000
0001
0010
0001
1000
0100
0010
0001
0100
0010
1000
0010
0100
0001
,
1000
0100
1000
0001
0100
0010
1000
0010
0100
0001
0010
0001
1000
0100
1000
0001
0010
0100
1000
0100
0010
0001
1000
0010
,
1000
0001
0100
0010
0100
0001
1000
0100
1000
0001
0010
0100
1000
0100
0010
0001
1000
0100
1000
0001
0100
0010
1000
0001
,
0010
0001
0100
0010
0100
0001
1000
0100
0010
0001
0100
0010
1000
0100
0010
0001
0100
0010
1000
0001
0010
0001
0100
0010
,
0100
0001
1000
0100
1000
0001
0100
0010
1000
0001
0010
0001
1000
0100
0010
0001
0100
0010
1000
0001
0100
0001
1000
0100
,
0010
0001
0100
0010
1000
0010
0100
0001
0010
0001
1000
0100
0010
0001
0100
0010
0100
0001
1000
0100
1000
0010
0100
0001
,
1000
0010
0100
0010
1000
0001
0100
0001
1000
0010
0100
0010
1000
0001
0010
0001
1000
0100
0010
0001
0100
0010
1000
0001
,
0010
0001
1000
0010
1000
0001
0100
0010
1000
0001
0010
0001
1000
0100
0010
0001
0100
0010
1000
0001
0100
0001
1000
0010
,
0100
0010
1000
0001
0010
0001
1000
0100
1000
0001
0100
0010
1000
0001
0010
0001
1000
0100
0010
0001
1000
0100
1000
0001
,
0100
0010
0100
0001
1000
0010
0100
0010
1000
0001
0010
0001
1000
0100
0010
0001
0100
0010
1000
0010
0100
0001
1000
0100
,
1000
0001
0100
0010
1000
0001
0010
0001
1000
0100
0010
0001
0100
0010
1000
0010
0100
0001
1000
0100
1000
0001
0100
0010
,
1000
0010
0100
0001
0010
0001
1000
0100
1000
0001
0010
0100
1000
0100
0010
0001
1000
0010
1000
0001
0100
0010
0100
0001
,
1000
0100
1000
0001
0010
0100
1000
0100
0010
0001
1000
0100
1000
0001
0100
0010
1000
0001
0010
0001
0100
0010
0100
0001
,
1000
0100
0010
0001
0100
0010
1000
0100
0010
0001
1000
0010
0100
0010
1000
0001
0100
0001
1000
0100
0010
0001
0100
0010
,
1000
0010
0100
0001
0010
0001
1000
0100
0010
0001
1000
0100
1000
0001
0100
0010
1000
0010
0100
0001
1000
0100
1000
0001
,
0100
0010
1000
0001
0010
0001
1000
0100
0010
0001
0100
0010
1000
0010
0100
0001
1000
0100
1000
0010
0100
0010
1000
0001
,
0100
0001
1000
0010
0100
0010
1000
0001
0010
0001
1000
0100
0010
0001
0100
0010
1000
0001
0010
0001
1000
0010
1000
0001
,
0100
0010
1000
0001
0010
0001
1000
0100
0010
0001
0100
0010
1000
0001
0100
0001
1000
0010
0100
0010
1000
0001
0010
0001
,
1000
0100
1000
0001
0100
0010
1000
0001
0010
0001
1000
0100
0010
0001
1000
0100
1000
0001
0100
0010
0100
0001
1000
0010
,
0100
0010
1000
0001
0010
0001
1000
0100
0010
0001
0100
0010
1000
0010
0100
0001
1000
0100
1000
0001
0100
0010
1000
0001
,
0010
0001
1000
0100
0010
0001
0100
0010
1000
0010
0100
0001
1000
0100
1000
0001
0100
0010
1000
0010
0100
0001
0010
0001
,
1000
0100
1000
0001
0010
0100
1000
0100
0010
0001
1000
0010
1000
0001
0100
0010
0100
0001
1000
0100
1000
0001
0010
0100
,
1000
0100
0010
0001
1000
0100
1000
0001
0100
0010
1000
0001
0010
0001
0100
0010
0100
0001
1000
0100
0010
0001
0100
0010
,
1000
0100
0010
0001
0100
0010
1000
0001
0010
0001
0100
0010
0100
0001
1000
0100
1000
0001
0100
0010
1000
0001
0010
0001
,
1000
0100
0010
0001
0100
0010
1000
0001
0100
0001
1000
0100
0010
0001
0100
0010
1000
0010
0100
0001
0010
0001
1000
0100
,
0010
0001
0100
0010
0100
0001
1000
0100
1000
0010
0100
0001
1000
0100
0010
0001
0100
0010
1000
0001
0100
0001
0010
0100
,
2000
0000
0000
0000
,
0000
0000
0000
0000
,
3000
0000
0000
0000
,
0000
0000
0000
0000
,
0000
0000
0000
0000
,
0000
0000
0000
0000
,
0000
0000
0000
0000
;
