#TITLE:Flight of the Bumblebee;
#SUBTITLE:;
#ARTIST:Steps by Chakrila;
#TITLETRANSLIT:;
#SUBTITLETRANSLIT:;
#ARTISTTRANSLIT:;
#CREDIT:;
#BANNER:;
#BACKGROUND:bumble-bg.png;
#LYRICSPATH:;
#CDTITLE:;
#MUSIC:buble.MP3;
#OFFSET:0.460;
#SAMPLESTART:15.766;
#SAMPLELENGTH:12.000;
#SELECTABLE:YES;
#BPMS:0.000=380.000;
#STOPS:;
#BGCHANGES:;
// cache tags:
#FIRSTBEAT:4.000;
#LASTBEAT:436.000;
#SONGFILENAME:Songs/Beyond Legends/Flight of the Bumblebee/bumble.sm;
#HASMUSIC:1;
#HASBANNER:0;
#MUSICLENGTH:69.883;
// end cache tags

//---------------dance-single - ----------------
#NOTES:
     dance-single:
     :
     Hard:
     10:
     1.000,1.000,0.172,0.000,0.000,819.000,12.000,0.000,0.000,0.000:  // measure 1
0000
0000
0000
0000
,  // measure 2
1001
1000
1000
1000
1000
1000
1000
1000
,  // measure 3
1001
0001
0001
0001
0001
0001
0001
0001
,  // measure 4
1001
0100
0010
0100
0010
0001
0010
0001
,  // measure 5
0010
0100
0010
0100
1000
0100
1000
0100
,  // measure 6
1000
0100
1000
0100
0010
0100
0010
0100
,  // measure 7
0010
0001
0010
0001
0010
0001
0010
0001
,  // measure 8
0010
0100
0010
0100
0010
0100
0010
0100
,  // measure 9
0010
1000
0100
0010
0001
0010
0100
0010
,  // measure 10
0001
0010
0001
0010
0001
0010
0100
1000
,  // measure 11
0100
0010
0100
1000
0010
0100
1000
0000
,  // measure 12
0100
0010
0001
0100
0010
0001
1000
0100
,  // measure 13
0010
1000
0100
0010
0100
1000
0100
1000
,  // measure 14
0100
0010
0001
0010
0100
0010
1000
0100
,  // measure 15
0100
0010
0100
0001
0010
0001
0010
0100
,  // measure 16
1000
0100
0010
0100
0010
0001
0010
0001
,  // measure 17
0010
0100
1000
0100
1000
0100
1000
0010
,  // measure 18
0100
1000
0001
0010
0100
0010
0100
1000
,  // measure 19
0100
1000
0010
0100
0001
0010
0001
0100
,  // measure 20
0010
1000
0100
0010
0100
1000
0001
0010
,  // measure 21
0001
0100
0010
0100
1000
0010
0001
0010
,  // measure 22
0100
0010
0001
0010
0010
0100
1000
0100
,  // measure 23
0010
0100
0010
0001
0010
0101
1000
0000
,  // measure 24
1000
1000
0100
0100
,  // measure 25
0100
0100
0100
0010
,  // measure 26
0010
0100
0100
0100
,  // measure 27
0100
1000
0000
0001
,  // measure 28
0000
1000
0000
0001
,  // measure 29
1000
0000
0001
0000
1000
0000
0001
0010
,  // measure 30
0100
1000
0100
0010
0001
0010
0100
1000
,  // measure 31
0100
0010
0001
0010
0100
1000
0100
0010
,  // measure 32
0001
1000
0100
1000
0100
0010
0100
0010
,  // measure 33
0100
0010
0100
0010
0100
0001
0010
0001
,  // measure 34
0010
0001
0010
0001
0010
0001
0010
0100
,  // measure 35
0010
0100
0010
0100
0010
0100
0010
0100
,  // measure 36
0010
1000
0000
0001
,  // measure 37
0000
1000
0001
0100
,  // measure 38
0010
0100
0010
0100
0010
0001
0010
0001
,  // measure 39
0010
0100
1000
0100
0010
0100
0001
0010
,  // measure 40
0100
1000
0100
1000
0100
0010
0001
0010
,  // measure 41
0001
0010
0100
0010
0100
1000
0100
0010
,  // measure 42
0001
0010
0001
0001
0100
1000
0010
0100
,  // measure 43
1000
0010
0100
0010
0001
0010
1000
0100
,  // measure 44
1000
0001
1000
0100
1000
0100
1000
0100
,  // measure 45
0010
1000
0010
1000
0010
1000
0001
1000
,  // measure 46
0001
1000
0001
0100
0001
0100
0001
0100
,  // measure 47
0001
0100
1000
0100
0010
0100
0010
0100
,  // measure 48
0010
1000
0100
1000
0010
0001
0100
0010
,  // measure 49
0100
0001
1000
0100
1000
0010
0100
0001
,  // measure 50
0010
0100
1000
0010
0010
0010
0100
0001
,  // measure 51
0100
1000
0100
0100
0100
0001
0010
0001
,  // measure 52
0100
1000
0010
0100
0001
0100
1000
0000
,  // measure 53
0001
0100
0010
0100
,  // measure 54
1000
0100
0010
0100
0010
0001
0010
0001
,  // measure 55
0100
0010
1000
0100
1000
0010
0100
0001
,  // measure 56
0010
0100
0001
0010
0100
0010
1000
0100
,  // measure 57
1000
0100
0010
0100
0010
0100
0010
0001
,  // measure 58
0010
0001
0010
0100
0010
1000
0001
0010
,  // measure 59
0100
0010
0001
0010
0100
0010
0001
0010
,  // measure 60
1000
0100
0010
0100
0001
0010
0100
1000
,  // measure 61
0100
0010
0100
0001
0010
0001
0010
0100
,  // measure 62
1000
0010
0100
0001
0010
0001
0100
1000
,  // measure 63
0100
0010
0100
0001
0010
0100
1000
0100
,  // measure 64
0010
0001
0010
0001
0010
0100
0010
0100
,  // measure 65
0010
1000
0001
0010
0100
0010
0100
0001
,  // measure 66
0010
0100
1000
0010
0010
0100
0010
0100
,  // measure 67
0010
0001
0010
0100
1000
0100
0010
0100
,  // measure 68
0010
0001
0010
0001
0010
0100
0010
0100
,  // measure 69
1000
0100
1000
0010
0100
1000
1000
0100
,  // measure 70
0010
1000
0100
0010
1000
0100
0010
0001
,  // measure 71
0010
0100
0001
0010
0100
0001
0010
0100
,  // measure 72
1000
0100
0010
0100
0010
1000
0100
1000
,  // measure 73
0100
0010
0100
1000
0100
0010
0010
0001
,  // measure 74
0010
0100
0010
0001
0010
0100
0010
1000
,  // measure 75
0100
0010
0001
0010
0001
0010
0100
0010
,  // measure 76
0100
1000
0010
0100
0001
0010
0100
0001
,  // measure 77
0010
0100
0001
0100
0010
0001
0010
0100
,  // measure 78
0001
0010
0100
0010
0100
1000
0010
0100
,  // measure 79
0001
1000
0010
0100
0001
1000
0100
0010
,  // measure 80
1000
0100
0001
0010
0100
0010
0100
1000
,  // measure 81
0001
0100
1000
0100
0010
0100
0010
0001
,  // measure 82
0010
0100
0010
0001
0010
0100
1000
0100
,  // measure 83
1000
0010
0100
0001
0010
0100
0000
1000
,  // measure 84
0100
0000
1000
0010
0000
0100
0001
0100
,  // measure 85
0010
0001
0100
0010
1000
0010
0100
1000
,  // measure 86
0100
0001
0010
0100
0010
0001
1000
0100
,  // measure 87
1000
0001
0110
1000
0100
1000
0010
0100
,  // measure 88
0001
1010
0100
1000
0011
0100
0001
0010
,  // measure 89
1000
0100
1010
0100
0001
0010
1001
0100
,  // measure 90
0010
1001
0010
0001
1010
0100
0010
1000
,  // measure 91
0100
1000
0100
0010
0100
0001
0010
0001
,  // measure 92
0100
0001
1000
0100
1000
0100
0010
0100
,  // measure 93
1000
0010
0100
0001
0010
0100
1000
0010
,  // measure 94
0100
0001
0010
0100
0010
0100
1000
0010
,  // measure 95
0001
1000
0100
0010
0001
0010
0100
0100
,  // measure 96
0010
0001
0010
0001
0100
0010
1000
0100
,  // measure 97
0010
0100
0001
0010
1000
0100
0010
0100
,  // measure 98
0001
0010
0100
0010
0100
0001
0010
0100
,  // measure 99
1000
0010
0100
0001
0010
0100
1000
0001
,  // measure 100
0010
0100
0010
1000
0100
0010
0001
0100
,  // measure 101
0010
0001
1000
0100
0010
0100
0001
0010
,  // measure 102
0100
0010
0001
1000
0100
0010
0001
0010
,  // measure 103
0001
0100
0010
1000
0100
1000
0010
0100
,  // measure 104
0001
0010
0100
1000
0100
0010
0100
0010
,  // measure 105
0001
1000
0100
0010
0100
0001
0010
0100
,  // measure 106
1000
0100
0001
0100
0010
0100
1000
0100
,  // measure 107
0010
0001
0010
0100
1000
0001
0010
0100
,  // measure 108
0010
0001
0010
0100
1000
0100
0010
0001
,  // measure 109
0010
0100
1000
0100
0010
0001
0010
0100
,  // measure 110
1001
0000
0000
0000
;
