#TITLE:katekyoshi hitman reborn 4th ending;
#SUBTITLE:friend;
#ARTIST:idoling!;
#TITLETRANSLIT:;
#SUBTITLETRANSLIT:;
#ARTISTTRANSLIT:;
#CREDIT:;
#BANNER:banner.png;
#BACKGROUND:bg.png;
#LYRICSPATH:;
#CDTITLE:;
#MUSIC:Friend.mp3;
#OFFSET:0.040;
#SAMPLESTART:70.880;
#SAMPLELENGTH:15.000;
#SELECTABLE:YES;
#BPMS:0.000=120.060;
#STOPS:;
#BGCHANGES:0.000=Katekyo Hitman Reborn 4th ED.avi=1.000=1=0=0,
178.500=bg.png=1.000=1=0=0,
99999=-nosongbg-=1.000=0=0=0 // don't automatically add -songbackground-
;
// cache tags:
#FIRSTBEAT:2.000;
#LASTBEAT:178.500;
#SONGFILENAME:Songs/toune 1 (2010)/Friend/Friend.sm;
#HASMUSIC:1;
#HASBANNER:1;
#MUSICLENGTH:89.866;
// end cache tags

//---------------dance-single - ----------------
#NOTES:
     dance-single:
     :
     Hard:
     6:
     0.563,0.571,0.278,0.378,0.189,295.000,25.000,34.000,0.000,0.000:
0000
0000
0000
0000
0000
0000
2020
3030
0000
0220
0330
0000
,
0022
0000
0033
0000
0000
0000
2002
0000
3003
0000
0000
0000
0100
0000
0000
0010
0000
0000
0000
0000
0000
0110
0000
0000
,
0000
0100
0001
0100
0000
1000
0100
0010
,
0200
0000
0000
0000
0000
0300
0000
0000
0000
0001
0000
0000
0010
0000
0000
0000
0000
0000
1000
0000
0000
0001
0000
0000
,
0100
0000
0000
0000
0000
0000
0010
0000
0000
1000
0000
0000
0100
0000
0000
0000
0000
0000
0220
0000
0330
0000
0000
0000
,
2020
0000
0000
0000
3030
0000
0000
0000
0000
0000
0000
0000
1000
0000
0000
0000
0000
0000
0000
0000
0000
0001
0000
0000
0100
0000
0000
0000
0000
0000
0010
0000
0000
0000
0000
0000
0000
0000
0000
0000
0000
0000
0101
0000
0000
0000
0000
0000
,
0000
0001
1000
0100
0000
0010
1000
0010
,
2000
0000
0000
0000
0000
0000
0000
0000
0000
0000
3000
0000
0000
0000
0000
0000
0000
0000
0001
0000
0000
0000
0000
0000
0100
0000
0000
0000
0000
0000
0000
0000
0000
0001
0000
0000
0010
0000
0000
0000
0000
0000
1000
0000
0000
0000
0000
0000
,
0001
0000
0100
0000
0001
1000
0000
0000
0010
0000
0000
1000
0100
0000
0001
0000
,
0000
0000
1000
0000
0010
0000
1000
0001
0000
1000
0010
0000
0100
0000
0001
0000
,
0010
0000
0000
0000
0000
0000
0000
0000
0000
0000
0000
0000
0220
0000
0000
0000
0330
0000
0000
0000
0000
0000
0000
0000
2200
0000
0000
0000
3300
0000
0000
0000
0000
0000
0000
0000
1000
0000
0000
0000
0000
0000
0001
0000
0000
0100
0000
0000
,
0001
0000
0000
1000
0010
0000
0100
0000
0001
0000
1000
0000
0010
0000
0000
0000
,
0100
0000
0000
0001
0010
0000
1000
0000
0001
0000
0100
0000
0010
0000
1000
0000
,
0100
0000
0000
0001
1000
0000
0010
0000
0000
0000
0100
0000
0001
0000
0100
0000
,
0010
1000
0001
0100
0000
0110
0000
0010
,
1000
0000
0000
0001
0100
0000
0010
0000
1000
0000
0010
0000
0100
0000
1000
0000
,
0100
0000
0000
0001
0010
0000
1000
0000
0001
0000
0100
0000
0010
0000
1000
0000
,
0001
0000
0000
0100
0010
0000
1000
0000
0001
0000
0010
0000
1000
0000
0010
0000
,
0100
0000
0000
0001
0010
0000
1000
0000
0001
0000
0100
0000
0001
1000
0000
0000
,
1010
0000
0000
0100
0001
0000
0010
0000
1000
0000
0001
0000
0100
0000
0010
0000
,
0100
0000
0000
0001
0010
0000
1000
0000
0001
0000
0100
0000
0001
0000
0010
0000
,
1000
0000
0000
0001
0100
0000
0010
0000
0000
0000
1000
0000
0100
0000
0010
0000
,
0000
0000
0000
0001
0000
0000
0010
0000
0000
0100
0000
0000
0000
0000
0000
0220
0000
0000
0000
0000
0330
0000
0000
0000
,
1100
0000
0000
1000
0001
0000
0100
0000
0000
0000
0010
0000
0100
0000
0000
0000
,
0101
0000
0000
0001
1000
0000
0010
0000
0000
0000
1000
0000
0100
0000
0001
0000
,
1000
0010
0001
0010
0000
1000
0100
0010
,
1000
0000
0000
0001
0100
0000
0010
0000
1000
0000
0010
0000
0100
0000
0010
0000
,
0100
0000
0000
0000
0000
0000
0001
0000
0000
0020
0000
0000
0000
0000
0030
0000
0000
0000
1000
0000
0000
0100
0000
0000
,
0010
0000
0000
1000
0001
0000
0100
0000
0000
0000
0001
0000
0010
0000
0001
0000
,
0010
0000
0000
1000
0010
0000
0100
0000
0000
0000
0001
0000
0010
0000
0000
0000
,
1010
0000
0000
1000
0100
0000
0001
0000
0000
0000
1000
0000
0010
0000
0100
0000
,
0001
0000
0100
0000
0010
0000
1000
0100
0001
0000
1000
0000
0010
0000
1000
0000
,
0100
0000
0001
0000
0100
0000
1000
0010
1000
0000
0100
0000
0001
0000
2000
0000
,
0000
0000
3000
0000
0000
0000
0010
0000
0000
1000
0000
0000
0010
0000
0000
0100
0000
0000
1000
0000
0000
0100
0000
0000
,
0001
0000
0000
1000
0010
0000
0100
0000
0001
0000
0100
0000
0010
0000
1000
0000
,
0001
0000
0000
2002
3003
0000
2200
3300
0000
0220
0330
0000
,
0011
0000
0000
0001
1000
0000
0000
0010
1000
0000
0100
0000
0001
0000
1000
0000
,
0000
0010
0100
0010
0000
1000
0100
0010
,
1000
0000
0001
0000
0100
0000
0000
0001
0010
0000
1000
0000
0001
0000
0100
0000
,
0000
0000
0010
0000
1000
0000
0000
0000
1010
0000
0000
0000
0100
0000
0010
1000
,
0010
0000
0000
0100
0001
0000
0000
1000
0010
0000
0100
0000
0001
0000
0100
0000
,
0000
0010
0100
1000
0000
0001
0100
0010
,
0100
0000
0101
0001
1000
0010
1000
0100
,
0001
0000
0000
0000
0000
0000
0100
0000
0000
0000
0000
0000
0001
0000
0000
0010
0000
0000
0000
0000
0000
0000
0000
0000
2020
0000
0000
0000
3030
0000
0000
0000
0000
0000
0000
0000
2002
0000
0000
0000
3003
0000
0000
0000
0000
0000
0000
0000
,
0022
0000
0000
0000
0000
0033
0000
0000
;
