#TITLE:Mario World SNES;
#SUBTITLE:;
#ARTIST:justin Maravetz;
#TITLETRANSLIT:;
#SUBTITLETRANSLIT:;
#ARTISTTRANSLIT:;
#CREDIT:;
#BANNER:mario world.png;
#BACKGROUND:mario world-bg.png;
#LYRICSPATH:;
#CDTITLE:FFRCD.png;
#MUSIC:Mario World.mp3;
#OFFSET:-0.040;
#SAMPLESTART:30.120;
#SAMPLELENGTH:12.480;
#SELECTABLE:YES;
#BPMS:0.000=135.000;
#STOPS:;
#BGCHANGES:;
// cache tags:
#FIRSTBEAT:0.000;
#LASTBEAT:180.000;
#SONGFILENAME:Songs/newbie/mario world/mario world.sm;
#HASMUSIC:1;
#HASBANNER:1;
#MUSICLENGTH:80.515;
// end cache tags

//---------------dance-single - ----------------
#NOTES:
     dance-single:
     :
     Challenge:
     10:
     0.774,0.671,1.000,0.298,0.820,321.000,91.000,24.000,0.000,0.000:
1001
0000
0000
0000
1100
0000
0000
0010
1000
0000
1000
0010
0000
0000
0000
0000
,
1001
0000
1000
0100
1000
0000
0001
0100
0001
0000
1000
0010
1000
0000
0001
0100
,
0001
0000
1000
0100
1000
0000
0001
0100
0001
0000
0100
0010
0100
0000
1000
0010
,
0101
0000
0000
0000
0101
0000
0000
1000
0100
0010
0000
0101
0000
0000
0000
0010
,
1000
0000
0010
0000
0100
0000
0001
0000
1000
0000
0000
0101
0000
0000
0000
1000
,
0010
0000
0000
0000
0101
0000
0000
1000
0010
0100
0000
0101
0000
0000
0000
1000
,
0010
0000
1010
0000
1000
1000
1000
2002
0000
0000
0000
0000
0000
0000
3003
0000
,
1010
0000
0000
0000
1010
0000
0000
0100
0010
0001
0000
1010
0000
0000
0000
0001
,
0100
0000
0001
0000
0010
0000
1000
0000
0100
0000
0000
1010
0000
0000
0000
0100
,
0001
0000
0000
0000
1010
0000
0000
0100
0001
0010
0000
1010
0000
0000
0000
0100
,
0001
0000
0101
0000
0100
0100
0100
2200
0000
0000
0000
0000
0000
0000
3300
0000
,
1001
0000
0000
1001
0000
0000
1001
0000
0110
0000
0000
0110
0000
0000
0000
0000
,
1000
0000
0100
0000
1000
0000
0000
0000
0000
0101
0000
0000
0000
0000
0000
0220
0000
0000
0000
0000
0000
0000
0000
0000
0000
0000
0000
0000
0330
0000
0000
0000
,
1100
0000
0000
1100
0000
0000
1100
0000
0101
0000
0000
0101
0000
0000
0000
0000
,
1000
0001
1000
0000
2002
0000
0000
0000
0000
0000
0000
0000
0000
0000
0000
3003
,
1010
0000
0000
0000
0101
0000
0000
0100
0001
0100
0000
1100
0000
0000
0000
1000
,
0010
0100
0001
0000
1001
0000
0000
1001
0000
0000
0000
0000
0000
0000
0000
1000
,
0010
0000
1000
0000
0001
0000
0100
0000
0010
0000
0000
1000
0010
0100
0001
0000
,
1001
0000
0100
0010
0100
0000
0001
1000
0001
0000
1000
0100
1000
0000
0010
0100
,
0010
1000
0000
1001
0000
0000
0101
0000
1000
0100
0010
0001
0000
0000
0000
0000
,
0100
0010
0000
1000
0000
0000
1001
0000
2002
0000
0000
0000
0000
0000
0000
3003
,
1000
0100
0000
0101
0000
0000
0110
0000
0001
0010
0100
1000
0000
0000
0000
0000
,
0001
0100
0000
0010
0000
0000
0110
0000
0220
0000
0000
0000
0000
0000
0000
0330
,
1100
0000
0100
0010
0100
0000
1000
0010
1000
0000
0100
0001
0100
0000
1000
0010
,
1000
0000
0100
0010
0100
0000
1000
0010
1000
0000
0010
0001
0010
0000
0100
0001
,
1010
0000
0000
0000
1010
0000
0000
0100
0010
0001
0000
1010
0000
0000
0000
0001
,
0100
0000
0001
0000
0010
0000
1000
0000
0100
0000
0000
1010
0000
0000
0000
0100
,
0001
0000
0000
0000
1010
0000
0000
0100
0001
0010
0000
1010
0000
0000
0000
0100
,
0001
0000
0101
0000
0100
0100
0100
2200
0000
0000
0000
0000
0000
0000
3300
0000
,
0101
0000
0000
0000
0101
0000
0000
0010
0001
1000
0000
0101
0000
0000
0000
1000
,
0010
0000
1000
0000
0001
0000
0100
0000
0010
0000
0000
0101
0000
0000
0000
0010
,
1000
0000
0000
0000
0101
0000
0000
0010
1000
0001
0000
0101
0000
0000
0000
0010
,
1000
0000
1010
0000
0010
0010
0010
0220
0000
0000
0000
0000
0000
0000
0330
0000
,
1100
0000
0000
1100
0000
0000
1100
0000
0011
0000
0000
0011
0000
0000
0000
0000
,
0100
0000
0010
0000
0100
0000
0000
0000
0000
1010
0000
0000
0000
0000
0000
0022
0000
0000
0000
0000
0000
0000
0000
0000
0000
0000
0000
0000
0033
0000
0000
0000
,
0110
0000
0000
0110
0000
0000
0110
0000
1010
0000
0000
1010
0000
0000
0000
0000
,
0100
1000
0100
0000
2200
0000
0000
0000
0000
0000
0000
0000
0000
0000
0000
3300
,
0101
0000
0000
0000
1010
0000
0000
0010
1000
0010
0000
0110
0000
0000
0000
0100
,
0001
0010
1000
0000
1100
0000
0000
1100
0000
0000
0000
0000
0000
0000
0000
0100
,
0001
0000
0100
0000
1000
0000
0010
0000
0001
0000
0000
0100
0001
0010
1000
0000
,
1100
0000
0010
0001
0010
0000
1000
0100
1000
0000
0100
0010
0100
0000
0001
0010
,
0001
0100
0000
1100
0000
0000
1010
0000
0100
0010
0001
1000
0000
0000
0000
0000
,
0010
0001
0000
0100
0000
0000
1100
0000
2200
0000
0000
0000
0000
0000
0000
3300
,
0100
0010
0000
1010
0000
0000
0011
0000
1000
0001
0010
0100
0000
0000
0000
0000
,
1000
0010
0000
0001
0000
0000
0011
0000
0022
0000
0000
0000
0000
0000
0000
0033
,
1001
0000
0000
0000
;

//---------------dance-single - ----------------
#NOTES:
     dance-single:
     :
     Hard:
     9:
     0.731,0.643,0.758,0.770,0.720,289.000,61.000,62.000,0.000,0.000:
1001
0000
0000
0000
1001
0000
0000
0010
0100
0000
0100
0010
0000
0000
0000
0000
,
1001
0110
1001
0110
,
1001
0000
0110
0000
1001
2002
0000
3003
,
2000
0000
0000
0000
3200
0000
0000
0301
0010
0100
0000
2000
0000
0000
0000
3001
,
0100
0000
0010
0000
0100
0000
0001
0000
2000
0000
0000
3010
0000
0000
0000
1000
,
0002
0000
0000
0000
0203
0000
0000
0301
1000
0002
0000
1003
0000
0000
0000
1000
,
0001
0000
0001
0000
0001
0010
0100
2000
0000
0000
0000
0000
0000
0000
0000
3000
,
0002
0000
0000
0000
0023
0000
0000
1030
0100
0010
0000
0002
0000
0000
0000
1003
,
0010
0000
0100
0000
0010
0000
1000
0000
0002
0000
0000
0103
0000
0000
0000
0001
,
2000
0000
0000
0000
3020
0000
0000
1030
0001
2000
0000
3001
0000
0000
0000
0001
,
1000
0000
1000
0000
1000
0100
0010
0002
0000
0000
0000
0000
0000
0000
0000
0003
,
0110
0000
0000
0110
0000
0000
0110
0000
0110
0000
0000
0110
0000
0000
0000
0000
,
1000
0000
0010
0000
1000
0000
0000
0000
0000
1001
0000
0000
0000
0000
0000
0220
0000
0000
0000
0000
0000
0000
0000
0000
0000
0000
0000
0000
0000
0000
0000
0330
,
1001
0000
0000
1001
0000
0000
1001
0000
1001
0000
0000
1001
0000
0000
0000
0000
,
1000
0010
1000
0000
0220
0000
0000
0000
0000
0000
0000
0000
0000
0000
0000
0330
,
1001
0000
0000
0000
1100
0000
0000
1000
0010
2000
0000
3100
0000
0000
0000
1000
,
0010
1000
0010
0000
1001
0000
0000
1001
0000
0000
0000
0000
0000
0000
0000
0100
,
0001
0000
0001
0000
1000
0000
1000
0000
1001
0000
0000
0001
0010
0100
1000
0000
,
1001
0000
1000
0100
0010
0000
0001
0010
0100
0000
1000
0100
0010
0000
0001
0010
,
0100
0020
0000
0001
0000
0000
0031
0000
1000
0100
0010
0001
0000
0000
0000
0000
,
1000
0002
0000
1000
0000
0000
1003
0000
2002
0000
0000
0000
0000
0000
0000
3003
,
1000
0002
0000
0100
0000
0000
0103
0000
0010
1000
0001
0100
0000
0000
0000
0000
,
0010
0200
0000
0010
0000
0000
0310
0000
0220
0000
0000
0000
0000
0000
0000
0330
,
0101
1010
0101
1010
,
0101
0000
1010
0000
0101
0202
0000
0303
,
0002
0000
0000
0000
0023
0000
0000
0130
1000
0010
0000
0002
0000
0000
0000
0103
,
0010
0000
1000
0000
0010
0000
0100
0000
0002
0000
0000
1003
0000
0000
0000
0001
,
0200
0000
0000
0000
0320
0000
0000
0130
0001
0200
0000
0301
0000
0000
0000
0001
,
0100
0000
0100
0000
0100
1000
0010
0002
0000
0000
0000
0000
0000
0000
0000
0003
,
0200
0000
0000
0000
2300
0000
0000
3001
0010
1000
0000
0200
0000
0000
0000
0301
,
1000
0000
0010
0000
1000
0000
0001
0000
0200
0000
0000
0310
0000
0000
0000
0100
,
0002
0000
0000
0000
2003
0000
0000
3001
0100
0002
0000
0103
0000
0000
0000
0100
,
0001
0000
0001
0000
0001
0010
1000
0200
0000
0000
0000
0000
0000
0000
0000
0300
,
1010
0000
0000
1010
0000
0000
1010
0000
1010
0000
0000
1010
0000
0000
0000
0000
,
0001
0000
1000
0000
0001
0000
0000
0000
0000
0101
0000
0000
0000
0000
0000
2020
0000
0000
0000
0000
0000
0000
0000
0000
0000
0000
0000
0000
0000
0000
0000
3030
,
0101
0000
0000
0101
0000
0000
0101
0000
0101
0000
0000
0101
0000
0000
0000
0000
,
0001
1000
0001
0000
2020
0000
0000
0000
0000
0000
0000
0000
0000
0000
0000
3030
,
0101
0000
0000
0000
0011
0000
0000
0001
1000
0002
0000
0013
0000
0000
0000
0001
,
1000
0001
1000
0000
0101
0000
0000
0101
0000
0000
0000
0000
0000
0000
0000
0010
,
0100
0000
0100
0000
0001
0000
0001
0000
0101
0000
0000
0100
1000
0010
0001
0000
,
0101
0000
0001
0010
1000
0000
0100
1000
0010
0000
0001
0010
1000
0000
0100
1000
,
0010
2000
0000
0100
0000
0000
3100
0000
0001
0010
1000
0100
0000
0000
0000
0000
,
0001
0200
0000
0001
0000
0000
0301
0000
0202
0000
0000
0000
0000
0000
0000
0303
,
0001
0200
0000
0010
0000
0000
0310
0000
1000
0001
0100
0010
0000
0000
0000
0000
,
1000
0020
0000
1000
0000
0000
1030
0000
2020
0000
0000
0000
0000
0000
0000
3030
,
1001
0000
0000
0000
;

//---------------dance-single - ----------------
#NOTES:
     dance-single:
     :
     Easy:
     3:
     0.259,0.252,0.037,0.149,0.000,131.000,3.000,12.000,0.000,0.000:
0000
0000
0000
0000
,
1000
0100
1000
0010
,
0001
0010
0001
0100
,
0001
0100
1000
0001
,
0010
0100
2000
0000
,
3001
1000
0001
0010
,
0100
1000
0002
0000
,
0013
0100
1000
0001
,
0010
0100
2000
0000
,
3001
1000
0001
0010
,
0100
1000
0002
0000
,
0103
0000
1000
0000
,
0001
0000
0010
0000
,
0100
0000
1000
0000
,
0010
0000
0100
0000
,
0001
0010
0100
1000
,
0010
0100
0001
1000
,
2002
0000
0000
3003
,
0100
0010
0100
0010
,
0100
0000
1000
0000
,
0010
0000
0100
0000
,
0001
0000
1000
0000
,
0010
0000
0001
0000
,
0100
0010
0100
0001
,
1000
0001
1000
0010
,
1000
0010
0100
1000
,
0001
0010
0200
0000
,
1300
0100
1000
0001
,
0010
0100
2000
0000
,
3001
0010
0100
1000
,
0001
0010
0200
0000
,
1300
0100
1000
0001
,
0010
0100
2000
0000
,
3010
0000
0100
0000
,
1000
0000
0001
0000
,
0010
0000
0100
0000
,
0001
0000
0010
0000
,
1000
0001
0010
0100
,
0001
0010
1000
0100
,
2200
0000
0000
3300
,
0010
0001
0010
0001
,
0010
0000
0100
0000
,
0001
0000
0010
0000
,
1000
0000
0100
0000
,
0001
0000
0010
0000
,
0101
0000
0000
0000
;

//---------------dance-single - ----------------
#NOTES:
     dance-single:
     :
     Medium:
     6:
     0.417,0.447,0.149,0.149,0.211,211.000,12.000,12.000,0.000,0.000:
0000
0000
0000
0000
,
1001
0100
0010
0100
,
1000
0000
0100
0000
0010
0001
0000
0000
,
0100
1000
0001
1000
,
0010
0000
0001
0000
0100
0100
1000
0001
,
0010
0100
1000
0100
,
0001
0000
1000
0000
0010
0010
0100
0000
,
0010
0100
1000
0100
,
0001
0000
1000
0000
0010
0010
0100
1000
,
0001
0010
0100
0010
,
1000
0000
0100
0000
0001
0001
0010
0000
,
0100
0000
0000
0001
0000
0000
0010
0000
1000
0000
0000
0100
0000
0000
0000
0000
,
0100
0000
0000
0000
1000
0000
0000
0000
0000
0001
0000
0000
0000
0000
0000
0020
0000
0000
0000
0000
0000
0000
0000
0000
0000
0000
0000
0000
0000
0000
0000
0030
,
1000
0000
0000
0001
0000
0000
0010
0000
0100
0000
0000
1000
0000
0000
0000
0000
,
1000
0000
0010
0000
0200
0000
0000
0000
0000
0000
0000
0000
0000
0000
0000
0300
,
1001
0010
0100
0010
,
1000
0000
0000
0000
0001
0000
0000
0000
0100
0000
0000
0000
0010
0000
0000
1000
,
0001
0000
0100
0000
0010
0000
0100
0000
0010
0000
0000
1000
0100
1000
0100
0000
,
0011
0011
0011
0011
,
0100
0010
0000
1000
0000
0000
0001
0000
0020
0000
0000
0000
0000
0000
0000
0000
,
1030
0100
0000
1000
0000
0000
0001
0000
0020
0000
0000
0000
0000
0000
0000
0000
,
1030
0001
0000
0100
0000
0000
1000
0000
0002
0000
0000
0000
0000
0000
0000
0000
,
0103
0010
0000
0100
0000
0000
1000
0000
0002
0000
0000
0000
0000
0000
0003
0000
,
1001
0010
0100
0010
,
0001
0000
0010
0000
0100
1000
0000
0000
,
0010
0001
1000
0001
,
0100
0000
1000
0000
0010
0010
0001
1000
,
0100
0010
0001
0010
,
1000
0000
0001
0000
0100
0100
0010
0000
,
0100
0010
0001
0010
,
1000
0000
0001
0000
0100
0100
0010
0001
,
1000
0100
0010
0100
,
0001
0000
0010
0000
1000
1000
0100
0000
,
0010
0000
0000
1000
0000
0000
0100
0000
0001
0000
0000
0010
0000
0000
0000
0000
,
0010
0000
0000
0000
0001
0000
0000
0000
0000
1000
0000
0000
0000
0000
0000
0200
0000
0000
0000
0000
0000
0000
0000
0000
0000
0000
0000
0000
0000
0000
0000
0300
,
0001
0000
0000
1000
0000
0000
0100
0000
0010
0000
0000
0001
0000
0000
0000
0000
,
0001
0000
0100
0000
0020
0000
0000
0000
0000
0000
0000
0000
0000
0000
0000
0030
,
1001
0100
0010
0100
,
0001
0000
0000
0000
1000
0000
0000
0000
0010
0000
0000
0000
0100
0000
0000
0001
,
1000
0000
0010
0000
0100
0000
0010
0000
0100
0000
0000
0001
0010
0001
0010
0000
,
1100
1100
1100
1100
,
0010
0100
0000
0001
0000
0000
1000
0000
0200
0000
0000
0000
0000
0000
0000
0000
,
0301
0010
0000
0001
0000
0000
1000
0000
0200
0000
0000
0000
0000
0000
0000
0000
,
0301
1000
0000
0010
0000
0000
0001
0000
2000
0000
0000
0000
0000
0000
0000
0000
,
3010
0100
0000
0010
0000
0000
0001
0000
2000
0000
0000
0000
0000
0000
0000
0000
,
3001
0000
0000
0000
;
