#TITLE:Anison Sprint;
#SUBTITLE:(Anime Song Medley);
#ARTIST:Datsuji-P;
#TITLETRANSLIT:;
#SUBTITLETRANSLIT:;
#ARTISTTRANSLIT:;
#CREDIT:;
#BANNER:BN.png;
#BACKGROUND:BG.png;
#LYRICSPATH:;
#CDTITLE:../CDTitleKIRBY.png;
#MUSIC:Anison Sprint (Anime Song Medley).ogg;
#OFFSET:-1.418;
#SAMPLESTART:27.668;
#SAMPLELENGTH:12.000;
#SELECTABLE:YES;
#BPMS:0.000=192.000;
#STOPS:;
#BGCHANGES:;
// cache tags:
#FIRSTBEAT:0.000;
#LASTBEAT:1816.000;
#SONGFILENAME:Songs/Index Fusion/Anison Sprint - [Kirby5464]/Anison Sprint.sm;
#HASMUSIC:1;
#HASBANNER:1;
#MUSICLENGTH:570.174;
// end cache tags

//---------------dance-single - ----------------
#NOTES:
     dance-single:
     :
     Challenge:
     19:
     1.000,1.000,0.081,0.246,1.000,6456.000,46.000,140.000,1.000,0.000:
1000
0100
1000
0001
0100
0001
0010
0001
1000
0010
0100
0001
0010
0001
1000
0010
,
2000
3100
0010
0001
0100
0010
1000
0010
0100
0001
0010
0001
1000
0100
0010
0001
,
1000
0100
1000
0001
0100
0010
1000
0010
0100
0001
1000
0100
1000
0001
0100
0010
,
1000
0001
0010
0001
1000
0100
0010
0001
0100
0010
1000
0010
0100
0001
1000
0100
,
1000
0010
0100
0010
1000
0001
0100
0001
1000
0010
0100
0010
1000
0001
0010
0001
,
1000
0100
0010
0001
1000
0010
0100
0010
1000
0001
0100
0001
1000
0100
0010
0001
,
0100
0010
1000
0010
0100
0001
0010
0001
1000
0010
1000
0100
0010
0001
1000
0000
,
1001
0000
1010
0000
0110
0101
0000
1001
,
1000
0001
1000
0010
0100
0001
1000
0001
,
1000
0001
0010
0100
1000
0001
0100
0001
0010
0001
1000
0100
1000
0001
0010
0100
,
1000
0001
1000
0010
0100
0001
1000
0001
0010
0100
1000
0001
1000
0010
0100
0001
,
1000
0001
0010
0100
1000
0010
1000
0001
0100
0001
1000
0001
1000
0100
1000
0010
,
0100
0001
1000
0001
0010
0100
1000
0001
0100
0001
0010
0100
1000
0001
0100
0010
,
1000
0001
1000
0001
0010
0001
1000
0010
1000
0100
1000
0001
0100
0010
1000
0001
,
0100
0001
0010
0001
1000
0100
1000
0010
0100
0001
1000
0001
1000
0010
1000
0100
,
0010
0000
0000
0001
0000
0000
1000
0000
0000
0001
0000
0000
0100
0000
0000
0010
0000
0000
1000
0000
0000
0001
0000
0000
0100
0000
0000
0001
0000
0000
0010
0000
0100
0000
1000
0000
0001
0000
0100
0000
0001
0000
0010
0000
0001
0000
0000
0000
,
1000
0100
1000
0001
0100
0001
1000
0010
,
0100
1000
0001
1000
0001
0010
0100
1000
0001
1000
0001
0100
0010
1000
0001
1000
,
0100
0010
0001
1000
0010
1000
0001
1000
0001
0010
0100
1000
0001
1000
0001
0100
,
0010
0000
0100
0000
0001
0000
1000
0000
0001
0000
1000
0000
0001
0000
0010
0000
0001
0000
0010
0000
0100
0000
1000
0000
0100
0000
1000
0000
0200
0300
0000
0000
,
0000
0011
0000
0110
0000
1010
1100
1001
,
0010
0100
0001
1000
0100
1000
0001
0010
0100
0010
0001
1000
0001
1000
0010
0100
,
0010
1000
0001
0100
0001
1000
0010
0100
0001
1000
0001
0010
0100
1000
0100
1000
,
0001
1000
0001
0100
0010
1000
0010
1000
0010
1000
0100
0010
0001
0010
0100
1000
,
0001
1000
0100
0010
0100
1000
0001
0010
0001
1000
0010
1000
0100
0010
0001
1000
,
0010
0100
0001
0100
0001
1000
0100
0010
0001
1000
0100
1000
0001
1000
0001
0100
,
0010
0100
0001
1000
0100
1000
0001
0100
0010
1000
0001
1000
0100
0010
0001
1000
,
0001
0100
0010
0100
0001
1000
0010
1000
0001
1000
0100
0010
0001
0010
0100
1000
,
0002
2003
3020
0230
,
0301
1000
0100
1000
0010
0100
0001
0010
0001
1000
0100
0010
0001
1000
0100
1000
,
0001
0100
0001
1000
0010
0100
0001
0010
0001
1000
0100
0010
0100
1000
0010
0100
,
0001
0010
0001
1000
0001
0100
0010
1000
0100
0010
0001
1000
0010
0100
0001
0010
,
0100
1000
0001
0100
0010
1000
0100
1000
0010
0100
0001
0010
0100
1000
0001
0100
,
0010
1000
0100
1000
0001
0100
0010
1000
0001
0100
0001
0010
0001
1000
0100
0010
,
0001
1000
0010
0100
0001
0010
0001
1000
0100
1000
0010
0100
0001
1000
0001
0010
,
0100
1000
0001
0100
0001
1000
0100
1000
0010
0100
0001
0010
0100
1000
0001
0100
,
0010
0000
0000
1000
0000
0000
0000
0010
0000
0000
0000
0100
0000
0000
0000
0001
0000
1000
0000
0000
0000
0100
0000
0000
0000
0010
0000
0000
0000
0001
0000
0000
0000
1000
0000
0000
0000
0010
0000
0000
0000
1000
0000
0000
0000
0100
0000
0000
0000
0010
0000
0000
0000
0001
0000
0000
0000
1000
0000
0000
0000
0001
0000
0000
,
1000
0100
0010
0001
1000
0100
1000
0001
0100
0010
1000
0010
0100
0001
1000
0100
,
1000
0001
0100
0010
1000
0001
0010
0001
1000
0100
0010
0001
0100
0010
1000
0010
,
0100
0001
1000
0100
1000
0010
0100
0010
1000
0001
0100
0001
1000
0010
0100
0010
,
1000
0001
0010
0001
1000
0100
0010
0001
1000
0010
0100
0010
1000
0001
0100
0001
,
1000
0100
0010
0001
0100
0010
1000
0010
0100
0001
0010
0001
1000
0010
1000
0100
,
0010
0001
1000
0010
1000
0100
0010
0100
1000
0001
0010
0001
1000
0100
1000
0010
,
0100
0001
0010
0001
1000
0100
0010
0001
1000
0100
1000
0001
0100
0001
1000
0010
,
0200
0300
0002
0003
0020
0030
0002
0003
2000
3000
0200
0300
0020
0030
0200
0300
2000
3000
0020
0030
0200
0300
0002
0003
0020
0030
0002
0003
2000
3000
0002
0003
,
0200
0300
0000
0010
0000
0000
1000
0000
0000
0100
0000
0000
0010
0000
0000
0001
0000
0000
1000
0000
0000
0010
0000
0000
0100
0000
0000
0001
0000
0000
0010
0000
0000
0100
0000
0000
1000
0000
0000
0001
0000
0000
0100
0000
0000
0010
0000
0000
,
1000
0100
1000
0010
0100
0001
0010
0100
1000
0001
0100
0010
1000
0100
1000
0001
,
0100
0010
1000
0001
0100
0001
0010
0001
1000
0100
0010
0001
1000
0010
0100
0001
,
0010
0001
1000
0100
1000
0010
0100
0001
1000
0001
0010
0100
1000
0001
0100
0001
,
1000
0100
1000
0010
0100
0001
0010
0100
1000
0001
0100
0001
0010
0100
1000
0001
,
1000
0001
0100
0010
0100
0001
1000
0010
1000
0001
0010
0100
1000
0100
1000
0001
,
0010
0001
1000
0010
1000
0001
1000
0100
0010
0001
1000
0010
0100
0001
0100
0001
,
1000
0100
0010
0001
1000
0100
1000
0001
0010
0100
0010
0001
1000
0001
1000
0010
,
0100
0010
1000
0001
0100
0001
1000
0010
0100
0001
1000
0001
0010
0100
1000
0100
,
1000
0001
1000
0001
0100
0010
0100
0001
1000
0010
1000
0001
0010
0100
1000
0100
,
1000
0001
0010
0001
1000
0010
1000
0001
1000
0100
0010
0001
1000
0010
0100
0001
,
0100
0000
0000
0001
0000
0000
0000
0100
0000
0000
0000
0010
0000
0000
0000
1000
0000
0001
0000
0000
0000
0010
0000
0000
0000
0100
0000
0000
0000
1000
0000
0000
0000
0001
0000
0000
0000
0100
0000
0000
0000
0001
0000
0000
0000
0010
0000
0000
0000
0100
0000
0000
0000
1000
0000
0001
0000
0000
0000
0000
0000
1000
0000
0000
,
0002
0003
0000
0000
0000
0000
0000
0000
0000
0000
0000
0000
0000
0000
0000
0000
0000
0000
0000
0000
0000
0000
0000
0000
0000
0000
0000
0000
0000
0000
0000
0000
0000
0000
0000
0000
0000
0000
0000
0000
0000
0000
0000
0000
0000
0000
0000
0000
,
1010
0000
0000
0000
,
0101
0000
0000
0000
,
0110
0000
0000
0000
,
1001
0000
0001
0000
,
1000
0001
0100
0001
,
1000
0000
0000
0000
0010
0000
0000
0000
1000
0000
0000
0000
0001
0000
1000
0100
,
0010
0001
1000
0001
0100
0010
0100
0001
1000
0010
1000
0001
1000
0100
0010
0001
,
0010
0100
1000
0001
1000
0001
0100
0010
0100
0001
1000
0010
1000
0001
0100
0010
,
1000
0001
0010
0001
1000
0100
0010
0001
1000
0100
1000
0001
0100
0010
1000
0010
,
0100
0001
1000
0100
1000
0001
0100
0010
1000
0001
0010
0001
1000
0100
0010
0001
,
0100
0010
1000
0010
0100
0001
1000
0100
1000
0010
0100
0010
1000
0001
0100
0001
,
1000
0010
0100
0010
1000
0001
0010
0001
1000
0100
0010
0001
1000
0010
0100
0010
,
1000
0001
0100
0001
1000
0100
0010
0001
0100
0010
1000
0010
0100
0001
0010
0001
,
1000
0000
0000
0001
0000
0000
0000
1000
0000
0000
0000
0010
0000
0000
0000
0100
0000
0000
0000
0001
0000
0000
0000
1000
0000
0000
0000
0001
0000
0000
0000
0010
0000
0000
0000
0100
0000
0000
0000
1000
0000
0000
0000
0010
0000
0000
0000
0100
0000
0000
0000
0001
0000
0000
0000
1000
0000
0000
0000
0001
0000
0000
0000
0100
,
0000
0000
0000
0010
0000
0000
0000
1000
0000
0000
0000
0010
0000
0000
0000
0100
0000
0000
0000
0001
0000
0000
0000
1000
0000
0000
0000
0100
0000
0000
0000
0010
0000
0000
0000
0001
0000
0000
0000
1000
0000
0000
0000
0010
0000
0000
0000
1000
0000
0000
0000
0100
0000
0000
0000
0010
0000
0000
0000
0001
0000
0000
0000
0000
,
2000
3000
0000
0010
0000
0000
1000
0000
0000
0100
0000
0000
0010
0000
0000
0100
0000
0000
1000
0000
0000
0001
0000
0000
0010
0000
0000
0001
0000
0000
1000
0000
0000
0010
0000
0000
1000
0000
0000
0100
0000
0000
0010
0000
0000
0001
0000
0000
,
1000
0010
1000
0100
0010
0100
1000
0001
0010
0001
1000
0100
0010
0001
1000
0100
,
1000
0001
0100
0001
1000
0010
0100
0001
0010
0001
1000
0100
0010
0100
1000
0010
,
1000
0000
0000
0001
0000
0000
0000
1000
0000
0000
0000
0010
0000
0000
0000
0100
0000
0000
0000
0001
0000
0000
0000
1000
0000
0000
0000
0001
0000
0000
0000
0010
0000
0000
0000
0100
0000
0000
0000
1000
0000
0000
0000
0010
0000
0000
0000
0100
0000
0000
0000
0001
0000
0000
0000
1000
0000
0000
0000
0001
0000
0000
0000
0000
,
1000
0100
1000
0001
0100
0010
1000
0010
0100
0001
1000
0100
1000
0001
0100
0010
,
1000
0001
0010
0001
1000
0100
0010
0001
0100
0010
1000
0010
0100
0001
1000
0100
,
1000
0010
0100
0010
1000
0001
0100
0001
1000
0010
0100
0010
1000
0001
0010
0001
,
1000
0100
0010
0001
1000
0010
0100
0010
1000
0001
0100
0001
1000
0100
0010
0001
,
0100
0010
1000
0010
0100
0001
0010
0001
1000
0100
0010
0001
1000
0010
0100
0001
,
0010
0100
1000
0001
0100
0010
1000
0100
1000
0010
0100
0001
0010
0100
1000
0001
,
0100
0010
1000
0100
1000
0001
0100
0010
1000
0001
0100
0001
0010
0001
1000
0100
,
0010
0001
1000
0010
0100
0001
0010
0001
1000
0100
1000
0010
0100
0001
1000
0001
,
0010
0100
1000
0001
0100
0001
1000
0100
1000
0010
0100
0001
0010
0100
1000
0001
,
0100
0001
0010
0100
1000
0001
1000
0001
0100
0010
0100
0001
1000
0010
1000
0001
,
0010
0100
1000
0100
1000
0001
0010
0001
1000
0010
1000
0001
1000
0100
0010
0001
,
1000
0010
0100
0001
0100
0001
1000
0100
0010
0001
1000
0100
1000
0001
0010
0100
,
0010
0001
1000
0001
1000
0010
0100
0010
1000
0001
0100
0001
1000
0010
0100
0001
,
2000
3200
0320
0032
2003
3020
0000
2030
,
0000
3002
0203
0302
2003
3200
0320
0032
,
1003
0100
1000
0001
0100
0001
0010
0001
1000
0010
0100
0001
0010
0001
1000
0010
,
1000
0100
0010
0001
0100
0010
1000
0010
0100
0001
0010
0001
1000
0100
0010
0001
,
1000
0100
1000
0001
0100
0010
1000
0010
0100
0001
1000
0100
1000
0001
0100
0010
,
1000
0001
0010
0001
1000
0100
0010
0001
0100
0010
1000
0010
0100
0001
1000
0100
,
1000
0010
0100
0010
1000
0001
0100
0001
1000
0010
0100
0010
1000
0001
0010
0001
,
1000
0100
0010
0001
1000
0010
0100
0010
1000
0001
0100
0001
1000
0100
0010
0001
,
0100
0010
1000
0010
0100
0001
0010
0001
1000
0010
1000
0100
0010
0001
1000
0001
,
0010
0100
1000
0001
0100
0001
0010
0001
1000
0100
1000
0001
0010
0100
1000
0001
,
1000
0010
0100
0001
1000
0001
0010
0100
1000
0001
1000
0010
0100
0001
1000
0001
,
0010
0100
1000
0010
1000
0001
0100
0001
1000
0001
1000
0100
1000
0010
0100
0001
,
1000
0001
0010
0100
1000
0001
0100
0001
0010
0100
1000
0001
0100
0010
1000
0001
,
1000
0001
0010
0001
1000
0010
1000
0100
1000
0001
0100
0010
1000
0001
0100
0001
,
0010
0001
1000
0100
1000
0010
0100
0001
1000
0001
1000
0010
1000
0100
0010
0001
,
1000
0001
0100
0010
1000
0001
1000
0001
0010
0100
1000
0001
1000
0001
0100
0010
,
1000
0001
1000
0100
0010
0001
1000
0010
1000
0001
1000
0001
0010
0100
1000
0001
,
1000
0001
0100
0010
0100
0001
1000
0001
0100
0010
0100
0001
1000
0100
1000
0001
,
0010
0100
0010
0001
1000
0001
1000
0010
0100
0010
1000
0001
0100
0001
1000
0010
,
0100
0001
1000
0001
0010
0100
1000
0100
1000
0001
1000
0001
0100
0010
1000
0010
,
1000
0010
1000
0100
0010
0001
0010
0100
1000
0001
1000
0100
0010
0100
1000
0001
,
0010
0001
1000
0010
1000
0100
0010
0001
1000
0010
0100
0001
0100
0001
1000
0100
,
0010
0001
0010
0100
1000
0010
1000
0001
2000
0000
0000
0000
0000
0000
0000
0000
,
3001
0100
0001
0000
2000
0000
3020
0000
0230
0000
0302
0000
2003
0000
3002
0000
,
1003
0100
1000
0010
1000
0001
0010
0001
0200
0000
0000
0000
0000
0000
0000
0000
,
1300
0000
0100
0000
1000
0000
0000
0000
0001
0000
0000
0000
1000
0000
0002
0003
0000
0000
0000
0000
0100
0000
0010
0000
1000
0000
0001
0000
1000
0000
0010
0000
,
0100
0001
1000
0001
0010
0100
1000
0001
0100
0001
1000
0100
1000
0010
0100
0001
,
0010
0100
1000
0001
0100
0010
1000
0100
1000
0010
0100
0001
1000
0001
0100
0001
,
1000
0100
1000
0001
0100
0001
0010
0001
1000
0010
0100
0001
0010
0001
1000
0010
,
1000
0100
0010
0001
0100
0010
1000
0010
0100
0001
0010
0001
1000
0100
0010
0001
,
1000
0100
1000
0001
0100
0010
1000
0010
0100
0001
1000
0100
1000
0001
0100
0010
,
1000
0001
0010
0001
1000
0100
0010
0001
0100
0010
1000
0010
0100
0001
1000
0100
,
1000
0010
0100
0010
1000
0001
0100
0001
1000
0010
0100
0010
1000
0001
0010
0001
,
1000
0100
0010
0001
1000
0010
0100
0010
1000
0001
0100
0001
1000
0100
0010
0001
,
2000
3002
2003
3200
0320
0032
0203
0302
,
1003
0001
1000
0000
0001
0100
0001
0000
1000
0000
0000
0000
0000
0000
0000
0000
,
1000
0010
1000
0000
0000
0000
0000
0000
0010
0100
0010
0000
0000
0000
0000
0000
,
0001
0010
0001
0000
0000
0000
0000
0000
0001
0100
0001
0000
0000
0000
0000
0000
,
1000
0100
1000
0000
0000
0000
0000
0000
0100
0010
0100
0000
0000
0000
0000
0000
,
0001
1000
0001
1000
0001
1000
0001
1000
,
0001
0010
0100
1000
0010
1000
0001
1000
,
0001
0010
0100
1000
0010
0100
0010
1000
,
0001
0010
0100
1000
0010
1000
0001
1000
,
0001
0010
0100
1000
0010
0100
0010
1000
,
0001
0010
0001
0100
0001
1000
0100
0010
,
0001
0100
0001
1000
0100
1000
0010
1000
,
0001
0010
0001
0100
0001
1000
0100
0010
,
0001
0100
0001
1000
0100
1000
0010
1000
,
0001
0010
0001
1000
0010
1000
0100
1000
0001
0100
0010
1000
0100
1000
0001
0100
,
0001
0010
0100
1000
0010
0100
0001
0100
0010
1000
0100
1000
0001
0010
0100
1000
,
0001
0010
0001
1000
0010
0100
0001
0100
0010
1000
0001
0010
0001
1000
0010
0100
,
0001
1000
0100
1000
0001
0010
0100
1000
0010
0100
0001
0100
0010
1000
0001
0010
,
0001
0100
0010
0100
0001
1000
0010
1000
0001
0100
0010
0100
0001
1000
0100
1000
,
0001
0010
0100
1000
0001
0100
0010
0100
0001
1000
0010
1000
0001
0010
0100
1000
,
0010
0100
0001
0100
0010
1000
0100
1000
0001
0100
0001
0010
0100
1000
0001
1000
,
0002
0003
0000
0000
0000
0000
0110
0000
0000
0000
0000
0000
2020
0000
0000
0000
0000
0000
3030
0000
0000
0000
0000
0000
,
0001
0100
0010
1000
0001
1000
0100
0010
0001
1000
0001
0100
0010
1000
0001
1000
,
0100
0010
0001
0100
0001
1000
0010
1000
0001
1000
0001
0010
0001
0100
0010
1000
,
0001
1000
0100
0010
0001
1000
0010
1000
0100
0010
0001
1000
0010
0100
0001
1000
,
0001
1000
0100
1000
0001
0100
0001
0010
0001
1000
0010
0100
0001
1000
0010
1000
,
0100
1000
0001
0010
0001
0100
0010
1000
0001
1000
0001
0100
0001
0010
0100
1000
,
0001
1000
0010
0100
0001
1000
0001
1000
0100
0010
0001
1000
0001
1000
0010
0100
,
0001
1000
0001
0010
0100
1000
0001
0100
0001
1000
0001
1000
0100
0010
0001
1000
,
0001
0000
0000
0000
,
1001
0000
0000
0000
,
1010
0000
0000
0000
,
0110
0000
0101
0000
,
0001
1000
0010
0100
0010
1000
0001
1000
0010
0100
0010
1000
0001
0010
0001
1000
,
0100
0010
0100
1000
0001
1000
0001
0100
0010
0100
0001
1000
0010
1000
0001
0100
,
0010
1000
0001
1000
0100
0010
0001
0010
0001
1000
0001
1000
0010
0100
0001
0100
,
0001
0100
0001
0010
0100
1000
0100
0010
0001
1000
0001
0010
0100
0010
0001
1000
,
0100
1000
0001
0100
0001
0010
0100
1000
0001
0100
0010
1000
0010
1000
0001
0010
,
0100
1000
0100
0010
0001
0100
0001
0010
0001
1000
0010
0100
0001
0010
0001
1000
,
0010
1000
0100
0010
0001
0100
0010
1000
0010
0100
0001
0010
0001
1000
0100
0010
,
0001
1000
0100
1000
0001
0100
0010
1000
0010
0100
0001
1000
0100
1000
0001
0100
,
0010
1000
0001
0010
0001
1000
0100
0010
0001
0100
0010
1000
0010
0100
0001
1000
,
0100
1000
0010
0100
0010
1000
0001
0100
0001
1000
0010
0100
0010
1000
0001
0010
,
0001
1000
0100
0010
0001
1000
0010
0100
0010
1000
0001
0100
0001
1000
0100
0010
,
0001
0100
0010
1000
0010
0100
0001
0010
0001
1000
0010
1000
0100
0010
0001
1000
,
0001
0010
0100
1000
0001
1000
0001
0100
0010
1000
0001
1000
0100
0010
0001
1000
,
0010
1000
0001
1000
0001
0010
0100
1000
0001
1000
0001
0100
0010
0100
0001
1000
,
0001
1000
0001
0010
0001
0010
0100
1000
0001
1000
0010
0100
0010
1000
0001
1000
,
0010
0100
0010
1000
0001
0010
0001
1000
0100
0010
0100
1000
0001
1000
0001
0100
,
0010
0100
0001
1000
0010
1000
0001
0100
0010
1000
0001
1000
0100
0010
0001
0010
,
0001
1000
0001
1000
0010
0100
0001
0100
0001
0100
0001
0010
0100
1000
0100
0010
,
0001
1000
0001
0010
0100
0010
0001
1000
0100
1000
0001
0100
0001
0010
0100
1000
,
0001
0100
0010
1000
0010
1000
0001
0010
0100
1000
0100
0010
0001
0100
0001
0010
,
0001
1000
0010
0100
0001
0010
0001
1000
0010
1000
0100
0010
0001
0100
0010
1000
,
0010
0100
0001
0010
0001
1000
0100
0010
0001
1000
0100
1000
0001
0100
0010
1000
,
0010
0100
0001
1000
0100
1000
0001
0100
0010
1000
0001
0010
0001
1000
0100
0010
,
0001
0100
0010
1000
0010
0100
0001
1000
0100
1000
0010
0100
0010
1000
0001
0100
,
0001
1000
0010
0100
0010
1000
0001
0010
0001
1000
0100
0010
0001
1000
0010
0100
,
0010
1000
0001
0100
0001
1000
0100
0010
0001
0100
0010
1000
0010
0100
0001
0010
,
0001
1000
0010
1000
0100
0010
0001
1000
0001
0010
0100
1000
0001
1000
0001
0100
,
0010
1000
0001
1000
0100
0010
0001
1000
0010
1000
0001
1000
0001
0010
0100
1000
,
0001
1000
0001
0100
0010
0100
0001
1000
0001
1000
0001
0010
0001
0010
0100
1000
,
0100
0010
0001
1000
0100
1000
0001
0010
0100
0010
0001
1000
0001
1000
0010
0100
,
0010
1000
0001
0100
0001
1000
0010
0100
0001
1000
0001
0010
0100
1000
0100
1000
,
0001
1000
0001
0100
0010
1000
0010
1000
0010
1000
0100
0010
0001
0010
0100
1000
,
0001
1000
0100
0010
0100
1000
0001
0010
0001
1000
0010
1000
0100
0010
0001
1000
,
0010
0100
0001
0100
0001
1000
0100
0010
0001
1000
0100
1000
0001
1000
0001
0100
,
0010
0100
0001
1000
0100
1000
0001
0100
0010
1000
0001
1000
0100
0010
0001
1000
,
0001
0100
0010
0100
0001
1000
0010
1000
0001
1000
0100
0010
0001
0010
0100
1000
,
0001
0100
0010
1000
0001
1000
0100
0010
0001
1000
0001
0100
0010
1000
0001
1000
,
0100
0010
0001
0100
0001
1000
0010
1000
0001
1000
0001
0010
0001
0100
0010
1000
,
0001
1000
0100
0010
0001
1000
0010
1000
0100
0010
0001
1000
0010
0100
0001
1000
,
0001
1000
0100
1000
0001
0100
0001
0010
0001
1000
0010
0100
0001
1000
0010
1000
,
0100
1000
0001
0010
0001
0100
0010
1000
0001
1000
0001
0100
0001
0010
0100
1000
,
0001
1000
0010
0100
0001
1000
0001
1000
0100
0010
0001
1000
0001
1000
0010
0100
,
0001
1000
0001
0010
0100
1000
0001
0100
0001
1000
0001
1000
0100
0010
0001
1000
,
0100
1000
0001
0100
0001
0010
0001
1000
0010
0100
0001
0010
0001
1000
0010
1000
,
0100
0010
0001
0100
0010
1000
0010
0100
0001
0010
0001
1000
0100
0010
0001
1000
,
0100
1000
0001
0100
0010
1000
0010
0100
0001
1000
0100
1000
0001
0100
0010
1000
,
0001
0010
0001
1000
0100
0010
0001
0100
0010
1000
0010
0100
0001
1000
0100
1000
,
0010
0100
0010
1000
0001
0100
0001
1000
0010
0100
0010
1000
0001
0010
0001
1000
,
0100
0010
0001
1000
0010
0100
0010
1000
0001
0100
0001
1000
0100
0010
0001
0100
,
0010
1000
0010
0100
0001
0010
0001
1000
0010
1000
0100
0010
0001
1000
0001
1000
,
0100
1000
0001
0100
0001
0010
0001
1000
0010
0100
0001
0010
0001
1000
0010
1000
,
0100
0010
0001
0100
0010
1000
0010
0100
0001
0010
0001
1000
0100
0010
0001
1000
,
0100
1000
0001
0100
0010
1000
0010
0100
0001
1000
0100
1000
0001
0100
0010
1000
,
0001
0010
0001
1000
0100
0010
0001
0100
0010
1000
0010
0100
0001
1000
0100
1000
,
0010
0100
0010
1000
0001
0100
0001
1000
0010
0100
0010
1000
0001
0010
0001
1000
,
0100
0010
0001
1000
0010
0100
0010
1000
0001
0100
0001
1000
0100
0010
0001
0100
,
0010
1000
0010
0100
0001
0010
0001
1000
0010
1000
0100
0010
0001
0100
0001
1000
,
0001
1000
0001
1000
0001
0010
0100
1000
,
0100
0010
0001
1000
1000
0100
1000
0001
,
0100
0010
1000
0010
0100
0001
1000
0100
,
1000
0001
0100
0010
1000
0001
0010
0001
,
1000
0001
0100
0010
0100
0001
1000
0001
0100
0010
0100
0001
1000
0100
1000
0001
,
0010
0100
0010
0001
1000
0001
1000
0010
0100
0010
1000
0001
0100
0001
1000
0010
,
0100
0001
1000
0001
0010
0100
1000
0100
1000
0001
1000
0001
0100
0010
1000
0010
,
1000
0010
1000
0100
0010
0001
0010
0100
1000
0001
1000
0100
0010
0100
1000
0001
,
0010
0001
1000
0010
1000
0100
0010
0001
1000
0010
0100
0001
0100
0001
1000
0100
,
0010
0001
0010
0100
1000
0010
1000
0100
1000
0001
0100
0010
1000
0100
1000
0001
,
0100
0001
0010
0100
1000
0010
0100
0001
0100
0010
1000
0100
1000
0001
0010
0100
,
1000
0001
0010
0001
1000
0010
0100
0001
0100
0010
1000
0001
0010
0001
1000
0010
,
0100
0001
1000
0100
1000
0001
0010
0100
1000
0010
0100
0001
0100
0010
1000
0001
,
0010
0001
0100
0010
0100
0001
1000
0010
1000
0001
0100
0010
0100
0001
1000
0100
,
1000
0001
0010
0100
1000
0001
0100
0010
0100
0001
1000
0010
1000
0001
0010
0100
,
1000
0010
0100
0001
0100
0010
1000
0100
1000
0001
0100
0001
0010
0100
1000
0001
,
1000
0100
0010
0001
1000
0001
1000
0010
0100
0001
1000
0001
0010
0100
1000
0001
,
0100
0001
1000
0001
1000
0100
0010
0001
1000
0001
1000
0010
0100
0010
1000
0001
,
1000
0001
1000
0100
1000
0100
0010
0001
1000
0001
0100
0010
0100
0001
1000
0001
,
0100
0010
0100
0001
1000
0100
1000
0001
0010
0100
0010
0001
1000
0001
1000
0010
,
0100
0010
1000
0001
0100
0001
1000
0010
0100
0001
1000
0001
0010
0100
1000
0100
,
1000
0001
1000
0001
0100
0010
1000
0010
1000
0010
1000
0100
0010
0001
0010
0100
,
1000
0001
1000
0100
0010
0100
1000
0001
0010
0001
1000
0010
1000
0100
0010
0001
,
1000
0010
0100
0001
0100
0001
1000
0100
0010
0001
0010
0100
1000
0010
1000
0100
,
1000
0001
0100
0010
1000
0100
1000
0001
0100
0001
0010
0100
1000
0010
0100
0001
,
0100
0010
1000
0100
1000
0001
0010
0100
1000
0001
0010
0001
1000
0010
0100
0001
,
0100
0010
1000
0001
0010
0001
1000
0010
0100
0001
1000
0100
1000
0001
0010
0100
,
1000
0010
0100
0001
0100
0010
1000
0001
0010
0001
0100
0010
0100
0001
1000
0010
,
1000
0001
0100
0010
0100
0001
1000
0100
1000
0001
0010
0100
1000
0001
0100
0010
,
0100
0001
1000
0010
1000
0001
0010
0100
1000
0010
0100
0001
0100
0010
1000
0100
,
1000
0001
0100
0001
0010
0100
1000
0001
1000
0100
0010
0001
1000
0001
1000
0010
,
0100
0001
1000
0001
0010
0100
1000
0001
0100
0001
1000
0001
1000
0100
0010
0001
,
1000
0001
1000
0010
0100
0010
1000
0001
1000
0001
1000
0100
1000
0100
0010
0001
,
0010
0100
1000
0001
0010
0001
1000
0100
0010
0100
1000
0001
1000
0001
0100
0010
,
0100
0001
1000
0010
1000
0001
0100
0010
1000
0001
1000
0100
0010
0001
0010
0001
,
1000
0001
1000
0010
0100
0001
0100
0001
0100
0001
0010
0100
1000
0100
0010
0001
,
1000
0001
0010
0100
0010
0001
1000
0100
1000
0001
0100
0001
0010
0100
1000
0001
,
0100
0010
1000
0010
1000
0001
0010
0100
1000
0001
0010
0001
1000
0001
1000
0010
,
0100
0010
1000
0001
0010
0001
1000
0010
0100
0001
1000
0001
0010
0100
1000
0001
,
1000
0010
0100
0010
1000
0001
0100
0001
1000
0001
0010
0100
1000
0100
0010
0001
,
1000
0010
0100
0001
1000
0001
0010
0100
1000
0001
1000
0010
0100
0001
1000
0001
,
0010
0100
1000
0010
1000
0001
0100
0001
1000
0001
1000
0100
1000
0010
0100
0001
,
1000
0001
0010
0100
1000
0001
0100
0001
0010
0100
1000
0001
0100
0010
1000
0001
,
1000
0001
0010
0001
1000
0010
1000
0100
1000
0001
0100
0010
1000
0001
0100
0001
,
0010
0001
1000
0100
1000
0010
0100
0001
1000
0001
1000
0010
1000
0100
0010
0001
,
1000
0001
0100
0010
1000
0001
1000
0001
0010
0100
1000
0001
1000
0001
0100
0010
,
0200
0300
0000
0000
0000
0000
1010
0000
0000
0000
0000
0000
1001
0000
0000
0000
0000
0000
0000
0000
0000
0000
0000
0000
2000
0000
0000
0000
3002
0000
0000
0000
,
0203
0000
0000
0000
0320
0000
2030
3002
0000
0000
0000
0000
0000
0000
2003
0000
,
3020
0000
0000
0000
2030
0000
3002
2003
0000
0000
0000
0000
0000
0000
0000
0000
,
3020
0000
2030
0000
3002
0000
0203
0320
0000
0000
0000
0000
0000
0000
0230
0000
,
0320
0230
0302
2003
3002
0023
0230
2300
,
3200
0320
0032
0203
0302
2003
3200
2300
,
3002
0203
0302
0023
0230
2300
3200
0320
,
0230
2300
3200
2300
3002
2003
3020
2030
,
3200
0320
0032
0023
0230
2300
3020
2030
,
3010
0100
1000
0010
0100
0001
0100
0010
1000
0100
1000
0001
0010
0100
1000
0001
,
0010
0001
1000
0010
0100
0001
0100
0010
1000
0001
0010
0001
1000
0010
0100
0001
,
1000
0100
1000
0001
0010
0100
1000
0010
0100
0001
0100
0010
1000
0001
0010
0001
,
0100
0010
0100
0001
1000
0010
1000
0001
0100
0010
0100
0001
1000
0100
1000
0001
,
0010
0100
1000
0001
0100
0010
0100
0001
1000
0010
1000
0001
0010
0100
1000
0010
,
0100
0001
0100
0010
1000
0100
1000
0001
0100
0001
0010
0100
1000
0010
1000
0001
,
1000
0010
0100
0010
1000
0001
1000
0010
0100
0010
1000
0001
0010
0001
1000
0100
,
0010
0100
1000
0001
1000
0001
0100
0010
0100
0001
1000
0010
1000
0001
0100
0010
,
1000
0001
1000
0100
0010
0001
0010
0001
1000
0001
1000
0010
0100
0001
0100
0001
,
0100
0001
0010
0100
1000
0100
0010
0001
1000
0001
0010
0100
0010
0001
1000
0100
,
1000
0001
0100
0001
0010
0100
1000
0001
0100
0010
1000
0010
1000
0001
0010
0100
,
1000
0100
0010
0001
0100
0001
0010
0001
1000
0010
0100
0001
0010
0001
1000
0010
,
1000
0100
0010
0001
0100
0010
1000
0010
0100
0001
0010
0001
1000
0100
0010
0001
,
1000
0100
1000
0001
0100
0010
1000
0010
0100
0001
1000
0100
1000
0001
0100
0010
,
1000
0001
0010
0001
1000
0100
0010
0001
0100
0010
1000
0010
0100
0001
1000
0100
,
1000
0010
0100
0010
1000
0001
0100
0001
1000
0010
0100
0010
1000
0001
0010
0001
,
1000
0100
0010
0001
1000
0010
0100
0010
1000
0001
0100
0001
1000
0100
0010
0001
,
0100
0010
1000
0010
0100
0001
0010
0001
1000
0010
1000
0100
0010
0001
1000
0001
,
0010
0100
1000
0001
1000
0001
0100
0010
1000
0001
1000
0100
0010
0001
1000
0010
,
1000
0001
1000
0001
0010
0100
1000
0001
1000
0001
0100
0010
0100
0001
1000
0001
,
1000
0001
0010
0001
0010
0100
1000
0001
1000
0010
0100
0010
1000
0001
1000
0010
,
0100
0010
1000
0001
0010
0001
1000
0100
0010
0100
1000
0001
1000
0001
0100
0010
,
0100
0001
1000
0010
1000
0001
0100
0010
1000
0001
1000
0100
0010
0001
0010
0001
,
1000
0001
1000
0010
0100
0001
0100
0001
0100
0001
0010
0100
1000
0100
0010
0001
,
1000
0001
0010
0100
0010
0001
1000
0100
1000
0001
0100
0001
0010
0100
1000
0001
,
0100
0010
1000
0010
1000
0001
0010
0100
1000
0100
0010
0001
0100
0001
0010
0001
,
1000
0010
0100
0001
0010
0001
1000
0010
1000
0100
0010
0001
0100
0010
1000
0010
,
0100
0001
0010
0001
1000
0100
0010
0001
1000
0100
1000
0001
0100
0010
1000
0010
,
0100
0001
1000
0100
1000
0001
0100
0010
1000
0001
0010
0001
1000
0100
0010
0001
,
0100
0010
1000
0010
0100
0001
1000
0100
1000
0010
0100
0010
1000
0001
0100
0001
,
1000
0010
0100
0010
1000
0001
0010
0001
1000
0100
0010
0001
1000
0010
0100
0010
,
1000
0001
0100
0001
1000
0100
0010
0001
0100
0010
1000
0010
0100
0001
0010
0001
,
1000
0010
1000
0100
0010
0001
1000
0001
0010
0100
1000
0001
1000
0001
0100
0010
,
1000
0001
1000
0100
0010
0001
1000
0010
1000
0001
1000
0001
0010
0100
1000
0001
,
1000
0001
0100
0010
0100
0001
1000
0001
1000
0001
0010
0001
0010
0100
1000
0100
,
0010
0001
1000
0100
1000
0001
0010
0100
0010
0001
1000
0001
1000
0010
0100
0010
,
1000
0001
0100
0001
1000
0010
0100
0001
1000
0001
0010
0100
1000
0100
1000
0001
,
1000
0001
0100
0010
1000
0010
1000
0010
1000
0100
0010
0001
0010
0100
1000
0001
,
1000
0100
0010
0100
1000
0001
0010
0001
1000
0010
1000
0100
0010
0001
1000
0010
,
0100
0001
0100
0001
1000
0100
0010
0001
1000
0100
1000
0001
1000
0001
0100
0010
,
0100
0001
1000
0100
1000
0001
0100
0010
1000
0001
1000
0100
0010
0001
1000
0001
,
0100
0010
0100
0001
1000
0010
1000
0001
1000
0100
0010
0001
0010
0100
1000
0001
,
0100
0010
1000
0001
1000
0100
0010
0001
1000
0001
0100
0010
1000
0001
1000
0100
,
0010
0001
0100
0001
1000
0010
1000
0001
1000
0001
0010
0001
0100
0010
1000
0001
,
1000
0100
0010
0001
1000
0010
1000
0100
0010
0001
1000
0010
0100
0001
1000
0001
,
1000
0100
1000
0001
0100
0001
0010
0001
1000
0010
0100
0001
1000
0010
1000
0100
,
1000
0001
0010
0001
0100
0010
1000
0001
1000
0001
0100
0001
0010
0100
1000
0001
,
2000
3000
1001
0000
1010
0000
0110
0000
0202
0000
0303
0000
1000
0000
0010
0000
,
1000
0001
0010
0100
1000
0001
0100
0001
1000
0001
1000
0100
0010
0001
1000
0100
,
1000
0001
0100
0001
0010
0001
1000
0010
0100
0001
0010
0001
1000
0010
1000
0100
,
0010
0001
0100
0010
1000
0010
0100
0001
0010
0001
1000
0100
0010
0001
1000
0100
,
1000
0001
0100
0010
1000
0010
0100
0001
1000
0100
1000
0001
0100
0010
1000
0001
,
0010
0001
1000
0100
0010
0001
0100
0010
1000
0010
0100
0001
1000
0100
1000
0010
,
0100
0010
1000
0001
0100
0001
1000
0010
0100
0010
1000
0001
0010
0001
1000
0100
,
0010
0001
1000
0010
0100
0010
1000
0001
0100
0001
1000
0100
0010
0001
0100
0010
,
1000
0010
0100
0001
0010
0001
1000
0010
1000
0100
0010
0001
1000
0001
1000
0100
,
1000
0001
0100
0001
0010
0001
1000
0010
0100
0001
0010
0001
1000
0010
1000
0100
,
0010
0001
0100
0010
1000
0010
0100
0001
0010
0001
1000
0100
0010
0001
1000
0100
,
1000
0001
0100
0010
1000
0010
0100
0001
1000
0100
1000
0001
0100
0010
1000
0001
,
0010
0001
1000
0100
0010
0001
0100
0010
1000
0010
0100
0001
1000
0100
1000
0010
,
0100
0000
0000
0000
,
1001
0000
0000
0000
,
1010
0000
0000
0000
,
0110
0000
0000
0000
,
0101
1100
0011
0110
,
1001
1010
0110
0101
,
1100
0011
0110
1001
,
0100
0010
1000
0001
0100
0001
1000
0010
0100
0010
1000
0001
0010
0001
1000
0100
,
0010
0001
1000
0010
0100
0010
1000
0001
0100
0001
1000
0100
0010
0001
0100
0010
,
1000
0010
0100
0001
0010
0001
1000
0010
1000
0100
0010
0001
0100
0010
1000
0100
,
1000
0001
0010
0100
1000
0001
0010
0001
1000
0010
0100
0001
0100
0010
1000
0001
,
0010
0001
1000
0010
0100
0001
1000
0100
1000
0001
0010
0100
1000
0010
0100
0001
,
0100
0010
1000
0001
0010
0001
0100
0010
0100
0001
1000
0010
1000
0001
0100
0010
,
0100
0001
1000
0100
1000
0001
0010
0100
1000
0001
0100
0010
0100
0001
1000
0010
,
1000
0001
0010
0100
1000
0010
0100
0001
0100
0010
1000
0100
1000
0001
0100
0001
,
0010
0100
1000
0010
1000
0001
1000
0010
0100
0010
1000
0001
1000
0010
0100
0010
,
1000
0001
0010
0001
1000
0100
0010
0100
1000
0001
1000
0001
0100
0010
0100
0001
,
1000
0010
1000
0001
0100
0010
1000
0001
1000
0100
0010
0001
0010
0001
1000
0001
,
1000
0010
0100
0001
0100
0001
0100
0001
0010
0100
1000
0100
0010
0001
1000
0001
,
0010
0100
0010
0001
1000
0100
1000
0001
0100
0001
0010
0100
1000
0001
0100
0010
,
1000
0010
1000
0001
0010
0100
1000
0100
0010
0001
0100
0001
0010
0001
1000
0010
,
0100
0001
0010
0001
1000
0010
1000
0100
0010
0001
0100
0010
1000
0010
0100
0001
,
0010
0001
1000
0100
0010
0001
1000
0100
1000
0001
0100
0010
1000
0010
0100
0001
,
1000
0100
1000
0001
0100
0010
1000
0001
0010
0001
1000
0100
0010
0001
0100
0010
,
1000
0010
0100
0001
1000
0100
1000
0010
0100
0010
1000
0001
0100
0001
1000
0010
,
0100
0010
1000
0001
0010
0001
1000
0100
0010
0001
1000
0010
0100
0010
1000
0001
,
0100
0001
1000
0100
0010
0001
0100
0010
1000
0010
0100
0001
0010
0001
1000
0010
,
1000
0100
0010
0001
1000
0001
0010
0100
1000
0001
1000
0001
0100
0010
1000
0001
,
1000
0100
0010
0001
1000
0010
1000
0001
1000
0001
0010
0100
1000
0001
1000
0001
,
0100
0010
0100
0001
1000
0001
1000
0001
0010
0001
0010
0100
1000
0001
1000
0010
,
1000
0000
0000
0000
0001
0100
0001
0000
2000
3000
0000
0000
0000
0000
0000
0000
,
1100
0000
0000
0011
0000
0000
2002
0000
0000
0000
0000
0000
3003
0000
0000
0000
,
1000
0100
0010
0001
0010
0001
1000
0001
1000
0010
0100
0001
0100
0001
0100
0001
,
0010
0100
1000
0100
0010
0001
1000
0001
0010
0100
0010
0001
1000
0100
1000
0001
,
0100
0001
0010
0100
1000
0001
0100
0010
1000
0010
1000
0001
0010
0100
1000
0100
,
0010
0001
0100
0001
0010
0001
1000
0010
0100
0001
0010
0001
1000
0010
1000
0100
,
0010
0001
0100
0010
1000
0010
0100
0001
0010
0001
1000
0100
0010
0001
1000
0100
,
1000
0001
0100
0010
1000
0010
0100
0001
1000
0100
1000
0001
0100
0010
1000
0001
,
0010
0001
1000
0100
0010
0001
0100
0010
1000
0010
0100
0001
1000
0100
1000
0010
,
0100
0010
1000
0001
0100
0001
1000
0010
0100
0010
1000
0001
0010
0001
1000
0100
,
0010
0001
1000
0010
0100
0010
1000
0001
0100
0001
1000
0100
0010
0001
0100
0010
,
1000
0010
0100
0001
0010
0001
1000
0010
1000
0100
0010
0001
1000
0001
0010
0100
,
1000
0001
1000
0001
0100
0010
1000
0001
1000
0100
0010
0001
1000
0010
1000
0001
,
1000
0001
0010
0100
1000
0001
1000
0001
0100
0010
0100
0001
1000
0001
1000
0001
,
0010
0001
0010
0100
1000
0100
0010
0001
1000
0100
1000
0001
0010
0100
0010
0001
,
1000
0001
1000
0010
0100
0010
1000
0001
0100
0001
1000
0010
0100
0001
1000
0001
,
0010
0100
1000
0100
1000
0001
1000
0001
0100
0010
1000
0010
1000
0010
1000
0100
,
0010
0001
0010
0100
1000
0001
1000
0100
0010
0100
1000
0001
0010
0001
1000
0010
,
1000
0100
0010
0001
1000
0010
0100
0001
0100
0001
1000
0100
0010
0001
1000
0100
,
1000
0001
1000
0001
0100
0010
0100
0001
1000
0100
1000
0001
0100
0010
1000
0001
,
1000
0100
0010
0001
1000
0001
0100
0010
0100
0001
1000
0010
1000
0001
1000
0100
,
0010
0001
0010
0100
1000
0001
0100
0010
1000
0001
1000
0100
0010
0001
1000
0001
,
0100
0010
1000
0001
1000
0100
0010
0001
0100
0001
1000
0010
1000
0001
1000
0001
,
0010
0001
0100
0010
1000
0001
1000
0100
0010
0001
1000
0010
1000
0100
0010
0001
,
1000
0010
0100
0001
1000
0001
1000
0100
1000
0001
0100
0001
0010
0001
1000
0010
,
0100
0001
1000
0010
1000
0100
1000
0001
0010
0001
0100
0010
1000
0001
1000
0001
,
0100
0001
0010
0100
1000
0001
0100
0001
0010
0001
1000
0010
0100
0001
0010
0001
,
1000
0010
1000
0100
1000
0001
0100
0001
1000
0100
1000
0010
0100
0001
1000
0100
,
1000
0010
0100
0010
1000
0001
0100
0001
1000
0100
1000
0010
0100
0010
1000
0001
,
0100
0001
1000
0100
1000
0010
0100
0001
1000
0100
1000
0010
0100
0010
1000
0001
,
0010
0100
1000
0010
0100
0010
1000
0001
0100
0001
1000
0010
0100
0010
1000
0001
,
0010
0001
1000
0100
0010
0001
1000
0010
0100
0010
1000
0001
0100
0001
1000
0100
,
0010
0001
0100
0010
1000
0010
0100
0001
0010
0001
1000
0010
1000
0100
0010
0001
,
0100
0010
1000
0100
1000
0001
0010
0100
1000
0001
0010
0001
1000
0010
0100
0001
,
0100
0010
1000
0001
0010
0001
1000
0010
0100
0001
1000
0100
1000
0001
0010
0100
,
1000
0010
0100
0001
0100
0010
1000
0001
0010
0001
0100
0010
0100
0001
1000
0010
,
1000
0001
0100
0010
0100
0001
1000
0100
1000
0001
0010
0100
1000
0001
0100
0010
,
0100
0001
1000
0010
1000
0001
0010
0100
1000
0010
0100
0001
0100
0010
1000
0100
,
1000
0001
0100
0001
0010
0100
1000
0010
1000
0001
1000
0010
0100
0010
1000
0001
,
1000
0010
0100
0010
1000
0001
0010
0001
1000
0100
0010
0100
1000
0001
1000
0001
,
0100
0010
0100
0001
1000
0010
1000
0001
0100
0010
1000
0001
1000
0100
0010
0001
,
0010
0001
1000
0001
1000
0010
0100
0001
0100
0001
0100
0001
0010
0100
1000
0100
,
0010
0001
1000
0001
0010
0100
0010
0001
1000
0100
1000
0001
0100
0001
0010
0100
,
1000
0001
0100
0010
1000
0010
1000
0001
0010
0100
1000
0100
0010
0001
0100
0001
,
0010
0001
1000
0010
0100
0001
0010
0001
1000
0010
1000
0100
0010
0001
0100
0010
,
1000
0010
0100
0001
0010
0001
1000
0100
0010
0001
1000
0100
1000
0001
0100
0010
,
1000
0010
0100
0001
1000
0100
1000
0001
0100
0010
1000
0001
0010
0001
1000
0100
,
0010
0001
0100
0010
1000
0010
0100
0001
1000
0100
1000
0010
0100
0010
1000
0001
,
0100
0001
1000
0010
0100
0010
1000
0001
0010
0001
1000
0100
0010
0001
1000
0010
,
0100
0010
1000
0001
0100
0001
1000
0100
0010
0001
0100
0010
1000
0010
0100
0001
,
0010
0001
1000
0010
1000
0100
0010
0001
1000
0001
0010
0100
1000
0001
1000
0001
,
0100
0010
1000
0001
1000
0100
0010
0001
1000
0010
1000
0001
1000
0001
0010
0100
,
1000
0001
1000
0001
0100
0010
0100
0001
1000
0001
1000
0001
0010
0001
0010
0100
,
1000
0001
1000
0010
1000
0001
0010
0001
1000
0010
0100
0001
0010
0001
1000
0010
,
1000
0100
0010
0001
0100
0010
1000
0010
0100
0001
0010
0001
1000
0100
0010
0001
,
1000
0100
1000
0001
0100
0010
1000
0010
0100
0001
1000
0100
1000
0001
0100
0010
,
1000
0001
0010
0001
1000
0100
0010
0001
0100
0010
1000
0010
0100
0001
1000
0100
,
1000
0010
0100
0010
1000
0001
0100
0001
1000
0010
0100
0010
1000
0001
0010
0001
,
1000
0100
0010
0001
1000
0010
0100
0010
1000
0001
0100
0001
1000
0100
0010
0001
,
0100
0010
1000
0010
0100
0001
0010
0001
1000
0010
1000
0100
0010
0001
1000
0001
,
0010
0100
1000
0001
1000
0001
0100
0010
1000
0001
1000
0100
0010
0001
1000
0010
,
1000
0001
1000
0001
0010
0100
1000
0001
1000
0001
0100
0010
0100
0001
1000
0001
,
1000
0001
0010
0001
0010
0100
1000
0100
0010
0001
1000
0100
1000
0001
0010
0100
,
0010
0001
1000
0001
1000
0010
0100
0010
1000
0001
0100
0001
1000
0010
0100
0001
,
1000
0001
0010
0100
1000
0100
1000
0001
1000
0001
0100
0010
1000
0010
1000
0010
,
1000
0100
0010
0001
0010
0100
1000
0001
1000
0100
0010
0100
1000
0001
0010
0001
,
1000
0010
1000
0100
0010
0001
1000
0010
0100
0001
0100
0001
1000
0100
0010
0001
,
1000
0100
1000
0001
1000
0001
0100
0010
0100
0001
1000
0100
1000
0001
0100
0010
,
1000
0001
1000
0100
0010
0001
1000
0001
0100
0010
0100
0001
1000
0010
1000
0001
,
1000
0100
0010
0001
0010
0100
1000
0001
0100
0010
1000
0001
1000
0100
0010
0001
,
1000
0001
0100
0010
1000
0001
1000
0100
0010
0001
0100
0001
1000
0010
1000
0001
,
1000
0001
0010
0001
0100
0010
1000
0001
1000
0100
0010
0001
1000
0010
1000
0100
,
0010
0001
1000
0010
0100
0001
1000
0001
1000
0100
1000
0001
0100
0001
0010
0001
,
1000
0010
0100
0001
1000
0010
1000
0100
1000
0001
0010
0001
0100
0010
1000
0001
,
1000
0001
0100
0001
0010
0100
1000
0001
0100
0001
0010
0001
1000
0010
0100
0001
,
0010
0001
1000
0010
1000
0100
1000
0001
0100
0001
1000
0100
1000
0010
0100
0001
,
0200
0300
0000
0000
0000
0000
1001
0000
0000
0000
1000
0000
0100
0000
1000
0000
,
0002
0000
0203
0320
0230
0302
0000
0000
,
2003
3000
0000
0000
0000
0000
1001
0000
0000
0000
0020
0000
0230
0000
0320
0000
,
2030
0000
3002
2003
3002
2003
3002
2003
,
3001
0010
0100
1000
0010
0100
0001
0100
0010
1000
0100
1000
0001
0100
0001
0010
,
0100
1000
0010
0100
0001
0010
0001
1000
0100
0010
0001
1000
0100
1000
0001
0100
,
0010
1000
0010
0100
0001
1000
0100
1000
0001
0100
0010
1000
0001
0010
0001
1000
,
0100
0010
0001
0100
0010
1000
0010
0100
0001
1000
0100
1000
0010
0100
0010
1000
,
0001
0100
0001
1000
0100
1000
0010
0100
,
0001
0010
0100
1000
0100
0010
0001
1000
,
0001
0100
0010
0100
0001
0010
0100
1000
,
0010
1000
0001
0010
0001
1000
0010
1000
,
0001
0000
0000
0000
,
0000
0000
0000
0000
,
0000
0000
0000
0000
,
0000
0000
0000
0000
,
0000
0000
0000
0000
,
0000
0000
0000
0000
,
0000
0000
0000
0000
,
00M0
0000
0000
0000
,
0000
0000
0000
0000
;
