#TITLE:He's a Pirate;
#SUBTITLE:Pirates of the Caribbean;
#ARTIST:Klaus Badelt;
#TITLETRANSLIT:;
#SUBTITLETRANSLIT:;
#ARTISTTRANSLIT:;
#CREDIT:;
#BANNER:Pirates-Banner.png;
#BACKGROUND:Pirates-Background.png;
#LYRICSPATH:;
#CDTITLE:!LiquidCDTitle.png;
#MUSIC:He's a Pirate.mp3;
#OFFSET:-0.100;
#SAMPLESTART:42.851;
#SAMPLELENGTH:11.980;
#SELECTABLE:YES;
#BPMS:0.000=140.780,171.000=146.000,172.000=156.000,173.000=166.000,174.000=186.000,175.000=216.000,176.000=256.000,177.000=303.699,178.000=330.519,179.000=378.939,180.000=447.818,181.000=530.257,182.000=618.296,186.000=704.315,191.000=757.534,193.000=846.594,201.000=928.233,209.000=1019.051,217.000=1150.679,225.000=1298.346,237.000=1503.998,261.000=1743.632,308.000=735.133,308.250=589.116,308.500=431.518,308.750=341.499,309.000=277.880,309.250=230.260,309.500=206.640,309.750=183.820,310.000=142.600,310.250=109.380;
#STOPS:;
#BGCHANGES:;
// cache tags:
#FIRSTBEAT:0.000;
#LASTBEAT:311.750;
#SONGFILENAME:Songs/other/He's A Pirate/He's A Pirate.sm;
#HASMUSIC:1;
#HASBANNER:1;
#MUSICLENGTH:92.507;
// end cache tags

//---------------dance-single - ----------------
#NOTES:
     dance-single:
     :
     Challenge:
     10:
     0.605,1.000,0.562,0.022,1.000,338.000,52.000,2.000,583.000,0.000:

1000
0000
1000
0001
0000
0001
1000
0000
1000
0100
1000
0100
,
1000
0000
1000
0001
0000
0001
1000
0000
1000
0100
1000
0100
,
1000
0000
1000
0001
0000
0001
1000
0000
1000
0100
0010
0001
,
1000
0000
1000
0000
0100
0010
0001
0000
0001
0000
0100
0010
,
1000
0000
1000
0000
0100
0010
0001
0100
0000
0000
0100
0010
,
0100
0000
0100
0000
0001
0010
0001
0000
0001
0000
0100
0010
,
0100
0000
0100
0000
1000
0100
0010
0000
0000
0000
0010
1000
,
0010
0000
0010
0000
0001
0100
0001
0000
0001
0000
1000
0001
,
1000
0000
1000
0000
0010
1000
0100
0001
0000
0000
0100
1000
,
0010
0000
0011
0000
0101
0000
0100
1000
0000
0000
1000
0010
,
0001
0000
0011
0000
0001
0100
1000
0000
0000
0000
0010
0100
,
0110
0000
0100
0000
1000
0100
0110
0000
0010
0000
0001
0010
,
0110
0000
0100
0000
1000
0100
0010
0001
0000
0000
0001
0100
,
1100
0000
0100
0000
1000
0010
0011
0000
0010
0000
0001
1000
,
1100
0000
0100
0000
0010
0100
1000
0000
0000
0000
1000
0010
,
0001
0000
1001
0000
0001
0010
1000
0000
1001
0000
0010
0100
,
1000
0000
1001
0000
0100
0010
0001
0010
0000
0000
0100
1000
,
0100
0000
0100
0000
0010
0000
0001
0100
0000
0000
0010
0100
,
1000
0000
1000
0000
0100
1000
0010
0000
0010
0000
1000
0000
,
0100
0000
0100
1000
0001
0000
0110
0000
0000
0000
0001
0100
,
0010
0000
0000
0000
0000
0000
1001
0000
0000
0000
0100
0010
,
1000
0000
0000
0000
0000
0000
0100
0100
0000
0101
0000
0000
,
1100
0000
0000
0000
1000
0100
0010
0000
0010
0000
0010
0000
,
0001
0010
0000
1000
1000
1000
0100
0000
0001
0000
0100
0000
,
0001
0100
0000
0010
0010
0010
1000
0000
1100
0000
1010
0000
,
1001
0001
0000
0100
0100
0100
0001
0000
1001
0000
0101
0000
,
0011
0000
0000
0000
0010
0100
1000
0000
1000
0100
1000
0001
,
1000
0000
0001
0010
0001
1000
0001
0000
1000
0100
0010
0001
,
0100
0000
0001
0010
0100
1000
0010
0000
0100
1000
0010
0001
,
0010
0000
0010
0001
0100
1000
0100
0000
0010
0001
0010
0100
,
0010
0000
0100
1000
0100
0010
0100
0000
1000
0001
1000
0010
,
0001
0000
0001
1000
0001
0010
1000
0000
0010
0100
1000
1000
,
0100
0000
0010
0100
0001
0001
0100
0000
0010
0100
1000
0100
,
0010
0000
0100
0010
0001
0010
0100
0000
0000
1000
1100
0000
,
0100
0000
0000
1000
0001
0001
1001
0000
0000
0100
1000
1000
,
1100
0000
0000
0010
0100
0100
0110
0000
0101
0000
0110
0000
,
1100
1000
0000
0110
0100
0100
1100
0000
0000
0011
0001
0001
,
1100
0000
0000
1100
1000
1000
0011
0000
0101
0000
1001
0000
,
1000
0100
0000
1000
0100
0010
1001
0000
0000
1000
0100
0010
,
1100
0000
0000
0010
0100
1000
0101
0000
1100
0000
1001
0000
,
0001
1000
0000
1000
1000
1000
1100
0000
0000
0100
0100
0100
,
0110
0000
0000
0010
0010
0010
0011
0000
1100
0000
0110
0000
,
1001
0000
0000
0000
0000
0000
0000
0000
0000
0000
0000
0000
0110
0000
0000
0000
0110
0000
0000
0000
0110
0000
0000
0000
2M02
0000
0000
0M00
0000
0000
0M00
0000
0000
00M0
0000
0000
0M00
0000
0000
0M00
0000
0000
0M00
0000
0000
00M0
0000
0000
,
00M0
00M0
0M00
00M0
00M0
00M0
0M00
0M00
0M00
00M0
0M00
0M00
0M00
00M0
00M0
00M0
,
0M00
00M0
00M0
00M0
0M00
0M00
0M00
00M0
0M00
0M00
0M00
00M0
00M0
00M0
0M00
00M0
,
00M0
00M0
0M00
0M00
0M00
00M0
0M00
0M00
0M00
00M0
00M0
00M0
0M00
00M0
00M0
00M0
,
0M00
0M00
0M00
00M0
0M00
0M00
0M00
00M0
00M0
00M0
0M00
00M0
00M0
00M0
0M00
0M00
,
0M00
00M0
0M00
0M00
0M00
00M0
00M0
00M0
0M00
00M0
00M0
00M0
0M00
0M00
0M00
00M0
,
0M00
0M00
0M00
00M0
00M0
00M0
0M00
00M0
00M0
00M0
0M00
0M00
0M00
00M0
0M00
0M00
,
0M00
00M0
00M0
00M0
0M00
00M0
00M0
00M0
0M00
0M00
0M00
00M0
0M00
0M00
0M00
00M0
,
00M0
00M0
0M00
00M0
00M0
00M0
0M00
0M00
0M00
00M0
0M00
0M00
0M00
00M0
00M0
00M0
,
0M00
00M0
00M0
00M0
0M00
0M00
0M00
00M0
0M00
0M00
0M00
00M0
00M0
00M0
0M00
00M0
,
00M0
00M0
0M00
0M00
0M00
00M0
0M00
0M00
0M00
00M0
00M0
00M0
0M00
00M0
00M0
00M0
,
0M00
0M00
0M00
00M0
0M00
0M00
0M00
00M0
00M0
00M0
0M00
00M0
00M0
00M0
0M00
0M00
,
0M00
00M0
0M00
0M00
0M00
00M0
00M0
00M0
0M00
00M0
00M0
00M0
0M00
0M00
0M00
00M0
,
0M00
0M00
0M00
00M0
00M0
00M0
0M00
00M0
00M0
00M0
0M00
0M00
0M00
00M0
0M00
0M00
,
0M00
00M0
00M0
00M0
0M00
00M0
00M0
00M0
0M00
0M00
0M00
00M0
0M00
0M00
0M00
00M0
,
00M0
00M0
0M00
00M0
00M0
00M0
0M00
0M00
0M00
00M0
0M00
0M00
0M00
00M0
00M0
00M0
,
0M00
00M0
00M0
00M0
0M00
0M00
0M00
00M0
0M00
0M00
0M00
00M0
00M0
00M0
0M00
00M0
,
00M0
00M0
0M00
0M00
0M00
00M0
0M00
0M00
0M00
00M0
00M0
00M0
0M00
00M0
00M0
00M0
,
0M00
0M00
0M00
00M0
0M00
0M00
0M00
00M0
00M0
00M0
0M00
00M0
00M0
00M0
0M00
0M00
,
0M00
00M0
0M00
0M00
0M00
00M0
00M0
00M0
0M00
00M0
00M0
00M0
0M00
0M00
0M00
00M0
,
0M00
0M00
0M00
00M0
00M0
00M0
0M00
00M0
00M0
00M0
0M00
0M00
0M00
00M0
0M00
0M00
,
0M00
00M0
00M0
00M0
0M00
00M0
00M0
00M0
0M00
0M00
0M00
00M0
0M00
0M00
0M00
00M0
,
00M0
00M0
0M00
00M0
00M0
00M0
0M00
0M00
0M00
00M0
0M00
0M00
0M00
00M0
00M0
00M0
,
0M00
00M0
00M0
00M0
0M00
0M00
0M00
00M0
0M00
0M00
0M00
00M0
00M0
00M0
0M00
00M0
,
00M0
00M0
0M00
0M00
0M00
00M0
0M00
0M00
0M00
00M0
00M0
00M0
0M00
00M0
00M0
00M0
,
0M00
0M00
0M00
00M0
0M00
0M00
0M00
00M0
00M0
00M0
0M00
00M0
00M0
00M0
0M00
0M00
,
0M00
00M0
0M00
0M00
0M00
00M0
00M0
00M0
0M00
00M0
00M0
00M0
0M00
0M00
0M00
00M0
,
0M00
0M00
0M00
00M0
00M0
00M0
0M00
00M0
00M0
00M0
0M00
0M00
0M00
00M0
0M00
0M00
,
0M00
00M0
00M0
00M0
0M00
00M0
00M0
00M0
0M00
0M00
0M00
00M0
0M00
0M00
0M00
00M0
,
00M0
00M0
0M00
00M0
00M0
00M0
0M00
0M00
0M00
00M0
0M00
0M00
0M00
00M0
00M0
00M0
,
0M00
00M0
00M0
00M0
0M00
0M00
0M00
00M0
0M00
0M00
0M00
00M0
00M0
00M0
0M00
00M0
,
00M0
00M0
0M00
0M00
0M00
00M0
0M00
0M00
0M00
00M0
00M0
00M0
0M00
00M0
00M0
00M0
,
0M00
0M00
0M00
00M0
0M00
0M00
0M00
00M0
00M0
00M0
0M00
00M0
00M0
00M0
0M00
0M00
,
0M00
00M0
0M00
0M00
0M00
00M0
00M0
00M0
0M00
00M0
00M0
00M0
0M00
0M00
0M00
00M0
,
0M00
0M00
0M00
00M0
00M0
00M0
0M00
00M0
00M0
00M0
0M00
0M00
0M00
0000
0MM0
0MM0
,
0MM0
0MM0
0MM0
0MM0
0MM0
0MM0
0MM0
0MM0
0MM0
3MM3
0000
0000
0000
MMMM
MMMM
0MM0
;
