#TITLE:Demystify Feast;
#SUBTITLE:;
#ARTIST:ZUN;
#TITLETRANSLIT:;
#SUBTITLETRANSLIT:;
#ARTISTTRANSLIT:;
#CREDIT:Arvin;
#BANNER:../Tachyon Delta-bn.png;
#BACKGROUND:../Tachyon Delta-bg.png;
#LYRICSPATH:;
#CDTITLE:!dondon151.png;
#MUSIC:Demystify Feast.ogg;
#OFFSET:-0.145;
#SAMPLESTART:89.674;
#SAMPLELENGTH:11.860;
#SELECTABLE:YES;
#BPMS:0.000=162.000;
#STOPS:;
#BGCHANGES:;
// cache tags:
#FIRSTBEAT:12.000;
#LASTBEAT:354.000;
#SONGFILENAME:Songs/Tachyon Delta/Demystify Feast - [Arvin]/Demystify Feast.sm;
#HASMUSIC:1;
#HASBANNER:1;
#MUSICLENGTH:132.545;
// end cache tags

//---------------dance-single - Arvin----------------
#NOTES:
     dance-single:
     Arvin:
     Challenge:
     14:
     1.000,1.000,0.015,0.181,1.000,991.000,2.000,24.000,0.000,0.000:

0000
0000
0000
0000
,
0000
0000
0000
0000
,
0000
0000
0000
0000
,
1000
0100
0010
0001
0010
0100
1000
0010
,
0100
0001
0100
0010
1000
0001
0100
0010
,
0100
0000
0001
0000
1000
0000
0100
0000
0010
0000
0100
1000
0001
0000
1000
0000
,
1001
0000
0000
0000
0000
0000
0000
0000
0000
0000
1000
0000
0000
0000
0001
0100
,
0010
0000
0000
0000
0000
0000
1000
0000
0000
0010
0000
0000
0100
0000
0000
0000
0000
0000
0001
0000
0000
0000
0000
0000
1000
0000
0000
0000
0000
0000
0001
0000
0000
0000
0000
0000
1000
0000
0000
0001
0000
0000
1000
0000
0100
0000
1000
0000
,
0100
0000
1000
0000
0001
0010
0100
0000
1000
0100
0010
0000
0001
0100
0000
0100
,
0010
0000
1000
0000
0001
0010
0100
0000
1000
0000
0000
0001
1000
0000
0001
0000
,
1000
0010
0100
0000
0001
0000
1000
0000
0100
0000
0010
0000
0001
1000
0010
0000
,
0100
0000
0001
1000
0001
0000
0100
0000
0010
1000
0001
0000
1000
0000
0001
0000
,
1001
1000
0010
0100
0001
0100
0010
1000
,
0001
0000
0000
0010
0000
0000
0100
0000
0000
1000
0000
0000
0001
0010
0100
1000
0100
1000
0001
0010
0001
1000
0010
0100
,
0001
1000
0010
0100
0001
0100
0010
1000
0001
1000
0100
0010
0001
0010
0001
1000
0100
0010
0001
1000
0100
1000
0001
0100
,
0010
0000
1000
0000
0001
0010
0100
0000
1000
0001
1000
0010
0100
0001
0100
0010
,
1000
0000
0001
0000
0010
0100
1000
0001
0010
0100
0010
0001
1000
0100
0010
0001
,
0100
0000
0001
0000
1000
0100
0010
0000
0001
1000
0001
0100
0010
1000
0010
0100
,
0001
0000
1000
0000
0100
0010
0001
1000
0100
0010
0100
1000
0001
0010
0100
1000
,
0001
0000
1000
0000
0001
0010
0100
0000
1000
0001
1000
0010
0100
0001
0100
0010
,
1000
0000
0001
0000
0010
0100
1000
0001
0010
0100
0010
0001
1000
0100
0010
0001
,
1000
0000
0001
0000
1000
0100
0010
0000
0001
1000
0001
0100
0010
1000
0010
0100
,
0001
0000
0000
1000
0000
0000
0001
0010
0001
1000
0100
0010
0001
1000
0100
1000
0001
0100
0001
0000
0000
1000
0000
0000
,
0001
0000
1000
0000
0001
0010
0100
0000
1000
0001
1000
0010
0100
0001
0100
0010
,
1000
0000
0001
0000
0010
0100
1000
0001
0010
0100
0010
0001
1000
0100
0010
0001
,
1000
0000
0001
0000
1000
0010
0100
0000
0001
1000
0001
0010
0100
1000
0100
0010
,
0001
0000
1000
0000
0010
0100
0001
1000
0010
0100
0010
1000
0001
0100
0010
1000
,
0001
0000
1000
0000
0001
0100
0010
0000
1000
0001
1000
0100
0010
0001
0010
0100
,
1000
0000
0001
0000
0100
0010
1000
0001
0100
0010
0100
0001
1000
0010
0100
0001
,
1000
0000
0001
0000
1000
0100
0010
0000
0001
1000
0001
0100
0010
1000
0010
0100
,
0001
0000
1000
0000
0100
0010
0001
1000
0100
0010
0100
1000
0001
0010
0100
1000
,
0001
0010
0100
1000
0100
0010
0001
1000
,
0010
0100
0001
0100
0010
1000
0001
0100
,
0001
0100
0010
1000
0001
0100
0001
1000
0100
1000
0001
0010
0100
1000
0100
1000
0001
0010
0001
1000
0100
1000
0001
0100
,
0001
1000
0010
0100
0001
0100
0001
1000
0010
1000
0001
0100
0010
1000
0010
1000
0001
0100
0010
1000
0001
0010
0100
1000
,
0001
0000
0000
0010
0000
0000
0001
0000
0000
0010
0000
0000
0100
0000
0000
0010
0000
0000
0100
0000
0000
1000
0000
0000
0100
0000
0000
1000
0000
0000
0001
0000
0000
1000
0000
0000
0001
0000
0010
0000
0100
0000
1000
0000
0000
0010
0000
0000
,
0100
0000
0000
0001
0000
0000
1000
0000
0000
0001
0000
0000
1000
0000
0010
0000
0100
0000
0001
0000
1000
0000
0010
0000
0100
0000
0000
0000
0000
0000
0001
0000
0000
0000
0000
0000
0100
0000
0000
0000
0000
0000
0000
0000
0000
0000
0000
0000
,
0010
1000
0001
0000
0100
0000
0010
1000
0001
0000
0010
0000
0100
1000
0002
0000
,
0000
0000
0003
2000
0000
3001
0100
0010
,
1000
0001
0010
0000
0100
0000
1000
0000
0002
0000
0000
0000
0003
0000
1000
0100
,
1000
0010
0100
0001
0010
0100
1000
0000
0001
0000
0100
0000
0010
0000
0000
0000
,
1000
0001
0010
0000
0100
0000
1000
0000
0001
0000
0100
0000
0010
1000
0002
0000
,
0000
0000
0003
0000
1000
0100
0010
0000
0000
0000
0001
0000
1000
0000
0010
0000
,
0100
0001
1000
0000
0100
0000
0010
0000
0002
0000
0000
0000
0000
0000
0003
0000
,
0000
0000
0000
0000
0000
0000
0000
0000
0000
0000
0000
0000
1000
0000
0010
0000
0100
0000
0001
0000
1000
0000
0010
0000
0100
0000
0000
0000
0000
0000
0001
0000
0000
0000
0000
0000
1000
0000
0000
0100
0000
0000
0010
0000
0000
0000
0000
0000
,
0001
1000
0001
0100
0010
1000
0010
0100
0001
0000
1000
0000
0100
0010
0001
1000
,
0100
0010
0100
1000
0001
0010
0100
1000
0010
0000
1000
0000
0001
0010
0100
0000
,
1000
0001
1000
0010
0100
0001
0100
0010
1000
0000
0001
0000
0010
0100
1000
0001
,
0010
0100
0010
0001
1000
0100
0010
0001
1000
0000
0001
0000
1000
0100
0010
0000
,
0001
1000
0001
0100
0010
1000
0010
0100
0001
0000
1000
0000
0100
0010
0001
1000
,
0100
0010
0100
1000
0001
0010
0100
1000
0001
0000
1000
0000
0001
0010
0100
0000
,
1000
0000
0000
0001
0000
0000
1000
0000
0000
0010
0000
0000
0100
0000
0000
0001
0000
0000
0100
0000
0000
0010
0000
0000
1000
0000
0000
0000
0000
0000
0001
0000
0000
0000
0000
0000
1000
0000
0000
0100
0000
0000
0010
0000
0001
0000
1000
0000
,
0001
0100
0010
1000
0010
0100
0001
0100
0010
1000
0001
0010
0100
0000
0000
0000
,
1000
0100
0010
0001
1000
0100
0010
0001
1000
0010
0100
0000
0001
0000
1000
0001
,
0000
0100
0000
0010
1000
0001
0010
0100
1000
0100
0010
0001
1000
0010
1000
0000
,
0001
0010
0100
0010
0001
0000
0000
0000
1000
0100
0010
0001
0100
0010
1000
0100
,
0010
0001
0010
0100
1000
0000
0000
0000
0001
0100
0010
1000
0010
0100
0001
0010
,
0100
1000
0100
0010
0001
1000
0010
1000
0001
0100
0010
1000
0010
0100
0001
1000
,
0100
0010
0100
0010
0001
1000
0010
0100
0001
0100
0010
1000
0001
0010
0100
0010
,
0100
1000
0001
0100
0010
1000
0010
0100
0001
0010
0100
0010
0001
1000
0100
0010
,
0001
1000
0010
0100
0001
1000
0010
0100
0010
1000
0001
0100
0010
0000
0000
1000
0000
0000
0010
0000
0000
0000
0000
0000
,
0100
0001
1000
0000
0010
0000
0100
0001
1000
0000
0100
0000
0010
0001
2000
0000
,
0000
3000
0000
0000
0000
0000
0002
0000
0000
0000
1003
0000
0010
0000
0100
0000
,
0001
1000
0100
0000
0010
0000
0001
0000
2000
0000
0000
0000
0000
0000
0000
0000
,
0000
0000
0000
0000
3001
0100
0010
0000
,
1000
0001
0010
0000
0100
0000
1000
0000
0001
0000
0100
0000
0010
1000
0002
0000
,
0000
0000
0003
1000
0000
0001
1000
0010
,
0100
0000
0000
0001
0000
0000
1000
0000
0000
0000
0000
0000
0100
0000
0000
0000
0000
0000
0010
0000
0000
0000
0000
0000
0001
0000
1000
0000
0100
0000
0010
0000
0001
0000
1000
0000
0100
0000
0010
0000
0100
0000
1000
0000
0001
0000
0010
0000
,
0100
1000
0100
1000
0001
0100
0010
1000
0001
1000
0010
0100
0001
0000
0000
1000
0000
0000
0100
0000
0000
0000
0000
0000
,
0010
0001
1000
0000
0100
0000
0010
0001
1000
0000
0010
0000
0100
0001
2000
0000
,
0000
3000
0000
0000
0000
0000
0002
0000
0000
0000
1003
0000
0100
0000
0010
0000
,
0001
1000
0010
0000
0100
0000
0001
0000
2000
0000
0000
0000
0000
0000
0000
0000
,
0000
0000
0000
0000
3001
0010
0100
0000
,
1000
0001
0100
0000
0010
0000
1000
0000
0001
0000
0010
0000
0100
1000
0002
0000
,
0000
0000
0003
1000
0000
0001
1000
0100
,
0010
0000
0000
0001
0000
0000
1000
0000
0000
0000
0000
0000
0010
0000
0000
0000
0000
0000
0100
0000
0000
0000
0000
0000
0001
0000
1000
0000
0010
0000
0100
0000
0001
0000
1000
0000
0010
0000
0100
0000
0010
0000
1000
0000
0001
0000
0100
0000
,
0010
0000
1000
0000
0010
0000
1000
0000
0001
0000
0010
0000
0100
0000
1000
0000
0001
0000
1000
0000
0100
0000
0010
0000
0001
0000
0000
0000
0000
0000
1000
0000
0000
0000
0000
0000
0010
0000
0000
0100
0000
0000
0001
0000
0000
0000
0000
0000
,
1000
0000
0100
0010
0000
0001
1000
0000
0001
0000
0100
0000
0010
1000
0001
0010
,
0100
1000
0100
0010
0001
1000
0001
0100
0001
0000
1000
0000
0010
0100
0001
0000
,
1000
0000
0000
0000
0000
0000
0100
0000
0000
0010
0000
0000
0000
0000
0000
0001
0000
0000
1000
0000
0000
0000
0000
0000
0001
0000
0000
0000
0000
0000
0100
0000
0000
0000
0000
0000
0010
0000
0000
1000
0000
0000
0001
0000
0100
0000
0010
0000
,
1000
0000
0010
0000
1000
0000
0001
0000
0100
0000
0010
0000
1000
0000
0001
0000
0010
0000
0100
0000
1000
0000
0001
0000
0010
0000
0000
0000
0000
0000
0001
0000
0000
0000
0000
0000
0100
0000
0000
0010
0000
0000
1000
0000
0000
0000
0000
0000
,
0001
0000
0020
0000
0000
0000
0130
0000
1000
0000
0001
0000
0100
0010
1000
0000
,
0002
0000
2003
0000
3000
0000
0001
0000
1000
0000
0010
0000
0100
0001
1000
0000
,
0100
0000
0020
0000
0000
0000
0031
0000
1000
0000
0010
0000
0100
0001
1000
0000
,
0020
0000
0230
0000
0300
0000
0001
0000
1000
0000
0100
0000
0010
0001
1000
0000
,
0010
0000
0200
0000
0000
0000
0301
0000
1000
0000
0010
0000
0100
0001
1000
0000
,
0020
0000
2030
0000
3000
0000
0001
0000
0010
0000
0100
0000
1000
0001
0010
0000
,
0100
0000
0000
0020
0000
0000
0000
0000
0000
0031
0000
0000
0100
0001
1000
0010
1000
0001
0010
0100
1000
0001
0010
0001
,
2000
0000
3000
0000
;
