#TITLE:Lunch Break;
#SUBTITLE:;
#ARTIST:The CRAB;
#TITLETRANSLIT:;
#SUBTITLETRANSLIT:;
#ARTISTTRANSLIT:;
#CREDIT:;
#BANNER:;
#BACKGROUND:;
#LYRICSPATH:;
#CDTITLE:;
#MUSIC:the_CRAB_Lunch_Break.mp3;
#OFFSET:0.000;
#SAMPLESTART:45.865;
#SAMPLELENGTH:5.000;
#SELECTABLE:YES;
#BPMS:0.000=130.820;
#STOPS:;
#BGCHANGES:;
// cache tags:
#FIRSTBEAT:4.000;
#LASTBEAT:292.000;
#SONGFILENAME:Songs/toune 6/Lunch break/Lunch Break.sm;
#HASMUSIC:1;
#HASBANNER:0;
#MUSICLENGTH:134.138;
// end cache tags

//---------------dance-single - ----------------
#NOTES:
     dance-single:
     :
     Beginner:
     1:
     0.077,0.082,0.000,0.007,0.000,71.000,0.000,1.000,0.000,0.000:
0000
0000
0000
0000
,
1000
0000
0000
0000
,
0100
0000
0000
0000
,
0010
0000
0000
0000
,
0001
0000
0000
0000
,
0100
0000
0000
0000
,
0010
0000
0000
0000
,
0100
0000
0000
0000
,
0001
0000
0000
0000
,
1000
0000
0000
0000
,
0001
0000
0000
0000
,
0100
0000
0000
0000
,
0010
0000
0000
0000
,
0100
0000
0000
0000
,
0001
0000
0000
0000
,
1000
0000
0000
0000
,
0010
0000
0000
0000
,
0100
0000
0000
0000
,
0010
0000
0000
0000
,
0100
0000
0000
0000
,
0001
0000
0000
0000
,
1000
0000
0000
0000
,
0001
0000
0000
0000
,
0100
0000
0000
0000
,
0010
0000
0000
0000
,
0100
0000
0000
0000
,
0010
0000
0000
0000
,
0100
0000
0000
0000
,
0001
0000
0000
0000
,
1000
0000
0000
0000
,
0100
0000
0000
0000
,
0010
0000
0000
0000
,
0100
0000
0000
0000
,
0001
0000
0000
0000
,
1000
0000
0000
0000
,
0010
0000
0000
0000
,
0100
0000
0000
0000
,
0001
0000
0000
0000
,
0100
0000
0000
0000
,
0010
0000
0000
0000
,
1000
0000
0000
0000
,
0001
0000
0000
0000
,
0100
0000
0000
0000
,
0010
0000
0000
0000
,
1000
0000
0000
0000
,
0001
0000
0000
0000
,
0100
0000
0000
0000
,
0010
0000
0000
0000
,
0001
0000
0000
0000
,
1000
0000
0000
0000
,
0100
0000
0000
0000
,
1000
0000
0000
0000
,
0001
0000
0000
0000
,
0100
0000
0000
0000
,
0010
0000
0000
0000
,
1000
0000
0000
0000
,
0001
0000
0000
0000
,
0100
0000
0000
0000
,
0010
0000
0000
0000
,
0100
0000
0000
0000
,
0001
0000
0000
0000
,
1000
0000
0000
0000
,
0100
0000
0000
0000
,
0010
0000
0000
0000
,
0001
0000
0000
0000
,
1000
0000
0000
0000
,
0001
0000
0000
0000
,
0100
0000
0000
0000
,
0010
0000
0000
0000
,
1000
0000
0000
0000
,
0001
0000
0000
0000
,
0200
0000
0000
0000
,
0000
0000
0000
0000
,
0300
0000
0000
0000
;

//---------------dance-single - Copied from----------------
#NOTES:
     dance-single:
     Copied from:
     Easy:
     4:
     0.268,0.327,0.075,0.127,0.000,225.000,10.000,17.000,0.000,0.000:
0000
0000
0000
0000
,
1000
0101
0010
0001
,
0100
0011
1000
0110
,
0001
1010
0100
0010
,
0001
0100
0010
0001
,
0100
0001
1000
0100
,
0010
1000
0001
1000
,
0100
0010
2000
0100
,
0100
3100
0010
0100
,
1000
0010
0100
1000
,
0001
0100
0001
1000
,
0100
0001
0100
0020
,
0100
0100
0130
0000
,
0100
1000
0010
0101
,
0000
0001
0100
0010
,
1001
0000
0200
0010
,
0010
0310
0000
1000
,
0100
0010
0001
0000
,
0010
1000
0001
1000
,
0100
0000
1001
0000
,
0001
0100
0010
0001
,
0000
1000
0100
0010
,
0101
0000
1001
0000
,
0110
0001
0100
1000
,
0010
0100
0001
1000
,
0100
0010
0001
1000
,
0010
1000
0001
0010
,
0000
0100
1000
0010
,
0001
0100
0100
0010
,
2000
0100
0100
0100
,
3100
0020
0001
0001
,
0031
0100
1000
0001
,
0100
0000
0000
0000
,
0000
0000
0000
0000
,
0000
0000
0000
0000
,
0000
0000
0000
0000
,
0000
0000
0000
0000
,
0002
1000
1000
1000
,
0003
0020
0100
0100
,
0100
0030
2000
0100
,
0100
0100
3100
0000
,
0002
0100
0100
0100
,
0103
0000
0200
0010
,
0010
0010
0310
0000
,
2000
0001
0001
0001
,
3001
0000
0020
0100
,
0100
0100
0030
0000
,
0020
0001
0001
0001
,
0031
0000
0200
1000
,
1000
1000
0300
0000
,
0200
1000
1000
1000
,
1300
0000
0200
0001
,
0001
0001
0300
0000
,
0100
1000
0001
0100
,
0010
0000
0100
0010
,
1000
0100
1000
0000
,
0001
1000
0001
0010
,
0100
0000
0100
0001
,
0010
1000
0001
0000
,
0100
0010
1000
0100
,
0001
0000
0010
0100
,
1000
0001
1000
0000
,
0100
0010
1000
0001
,
0010
0000
1000
0100
,
0001
0100
0001
0000
,
1000
0010
0100
1000
,
0001
0000
1000
0010
,
0100
1000
0001
0000
,
0010
0100
0010
0001
,
1000
0000
0100
0010
,
0001
0100
1000
0000
,
0200
0000
0000
0000
,
0000
0000
0000
0000
,
0300
0000
0000
0000
;

//---------------dance-single - Medium----------------
#NOTES:
     dance-single:
     Medium:
     Medium:
     5:
     0.484,0.490,0.306,0.045,0.000,407.000,41.000,6.000,0.000,0.000:
0000
0000
0000
0000
,
1000
0100
1000
0000
0100
0010
0100
0000
,
0001
0100
0010
0000
1000
0000
0001
0000
,
0010
0100
0010
0000
1000
0100
1000
0000
,
0001
0100
0001
0000
0010
0000
1001
0000
,
0100
0000
0011
0000
1000
0100
1000
0000
,
0010
0000
1100
0000
0001
1000
0001
0000
,
0100
0010
1000
0100
,
0001
1000
0001
0100
0001
0010
0100
0010
,
1000
0000
0001
0000
1000
0100
1000
0010
,
0001
0000
0100
0000
0010
1000
0001
1000
,
0100
0000
1001
0000
0100
0010
1000
0001
,
0010
0000
1000
0000
0001
0010
0001
1000
,
0100
0000
1000
0000
0100
0010
1000
0100
,
0001
0000
1000
0100
1000
0010
0100
0001
,
1000
0000
0010
0000
0100
1000
0001
0100
,
0010
0000
1100
0000
0001
1000
0001
0010
,
0100
0000
0011
0000
1000
0100
1000
0001
,
0010
0000
0110
0000
0010
0100
0010
0100
,
0100
0000
0011
0000
1000
0100
0010
0100
,
0001
0000
1100
0000
1000
0100
1000
0001
,
1000
0000
0101
0000
1000
1000
0100
0100
,
0001
0001
0011
0000
0100
0100
0010
0100
,
0100
0000
1010
0000
0100
0001
1000
0001
,
0010
0000
0101
0000
0001
1000
1000
0100
,
0100
0000
1001
0000
2000
0100
3002
0010
,
0013
0000
1100
0000
2000
0100
3002
0100
,
0103
0000
1200
0000
1000
1000
0001
0001
,
0301
0000
1000
0010
0100
0001
0100
0010
,
1000
0000
1000
0001
0100
0010
1000
0001
,
0100
0000
1000
0001
0100
0001
1000
0100
,
0010
0000
0100
0010
0100
0010
0100
0010
,
0100
0000
0000
0000
,
0000
0000
0000
0000
,
0000
0000
0000
0000
,
0000
0000
0000
0000
,
0000
0000
0000
0000
,
0001
0000
1000
0000
0001
1000
0001
0000
,
0100
0000
0010
0000
1000
0100
1000
0000
,
0010
0000
0101
0000
0010
0100
0001
0000
,
1000
0000
0110
0000
0001
1000
0100
0000
,
0001
1000
0100
0010
0100
1000
0100
0000
,
0100
0000
1001
0000
0010
0100
0010
0100
,
0010
0000
1001
0000
0010
0100
0010
0001
,
1000
0000
0101
0000
1000
0100
0010
0100
,
0001
0000
1001
0000
0010
0100
1000
0001
,
0100
0000
1010
0000
1000
0001
0100
1000
,
0010
0000
0110
0000
0001
1000
0001
1000
,
0001
0000
0110
0000
0001
0100
0010
0100
,
1000
0000
1001
0000
1000
0001
1000
0100
,
0100
0000
1001
0000
0100
1000
0100
1000
,
1000
0000
0011
0000
1000
0100
1000
0010
,
0001
0000
0101
0000
0001
0100
1000
0010
,
0001
0000
0011
0000
0010
1000
0100
0001
,
0010
0000
1000
0100
1000
0010
0100
0001
,
1000
0000
0001
0100
0010
1000
0100
1000
,
0001
0000
1000
0001
1000
0010
1000
0001
,
0100
0000
0010
0100
0001
1000
0001
0100
,
0010
0000
1000
0001
0100
0010
1000
0001
,
0100
0000
0010
0100
1000
0001
0100
0010
,
0001
0000
1100
0000
0001
1000
0010
0100
,
1001
0000
1000
0100
1000
0001
1000
0010
,
0101
0000
0001
0100
0010
1000
0001
0100
,
1010
0000
0100
0010
1000
0001
0100
0010
,
0101
0000
1000
0010
0100
0001
0100
0010
,
1001
0000
0100
1000
0010
0100
0001
0100
,
0101
0000
1000
0100
1000
0010
0100
0001
,
0101
0000
0001
0100
0010
0100
1000
0001
,
0011
0000
0100
0010
1000
0010
0100
0010
,
1001
0000
0100
0010
1000
0100
1000
0010
,
0101
0000
1000
0001
0100
0010
1000
0001
,
0200
0000
0000
0000
,
0000
0000
0000
0000
,
0300
0000
0000
0000
;

//---------------dance-single - Heavy----------------
#NOTES:
     dance-single:
     Heavy:
     Hard:
     8:
     0.526,0.490,0.142,0.052,0.239,468.000,19.000,7.000,0.000,0.000:
0000
0000
0000
0000
,
1000
0000
1100
0000
0100
0010
0100
0000
,
0001
1000
0000
0000
0010
0000
0000
1000
0000
0000
0100
0000
0001
0000
0000
0000
,
0010
0100
0010
0000
1000
0100
1000
0000
,
0001
0000
0100
0000
0001
0000
0000
0100
0000
0000
0020
0000
0000
0000
0130
0000
,
0100
0000
0011
0000
1000
0100
1000
0000
,
0010
0000
0000
0000
1100
0000
0000
0000
0001
0000
1000
0001
1000
0001
1000
0000
,
0100
0010
2000
3100
,
0001
1000
0001
0100
0001
0010
0100
0010
,
1000
0000
0000
0000
0001
1000
0000
0000
1000
0000
0100
0000
1000
0000
0010
0000
,
0001
0000
0000
0000
0100
1000
0000
0000
0010
0000
1000
0000
0001
0000
1000
0000
,
0100
0000
0000
0000
1000
0001
0000
0000
0100
0000
0010
0000
1000
0001
0000
0000
,
0011
0000
0000
0000
0000
0000
0000
0000
1000
0000
0100
0000
0000
0000
0000
0000
0001
0000
0000
0010
0000
0000
0000
0000
0001
0000
0000
0000
1000
0000
0000
0000
,
0100
0000
0000
0000
1000
0001
0000
0000
0100
0000
0010
0000
1000
0000
0100
0000
,
0001
0000
0000
0000
1000
0010
0000
0000
1000
0000
0010
0000
0100
0010
0000
0001
,
1000
0000
0000
0000
0010
0001
0000
0000
0100
0010
1000
0100
0001
0000
0100
0000
,
0010
0000
0000
0000
1000
0100
0000
0000
0001
1000
0000
0000
0001
0000
0010
0000
,
0100
0000
0011
0000
1000
0100
1000
0001
,
0010
0000
0000
0000
0100
0010
0000
0100
0000
0000
0100
0000
0010
0000
0100
0000
,
0100
0000
0000
0000
0010
0001
0000
0000
1000
0000
0100
0000
0010
0000
0100
0000
,
0001
0000
1000
0000
0100
0010
0000
0000
1000
0000
0100
1000
0000
0000
0000
0000
,
1000
0000
0010
0000
0001
0010
0000
0100
0000
0100
0000
0000
1100
0000
0000
0000
,
0001
0000
0001
0000
0010
0100
0000
0010
0000
0010
0000
0000
0011
0000
0000
0000
,
0100
0000
0001
0000
1000
0001
0000
0100
0000
0100
0000
0000
1000
0000
0001
0000
,
0010
0000
0100
0000
0001
1000
0000
0000
0001
0000
0000
1000
0000
0000
0100
0000
,
0100
0000
0010
0000
1000
0200
0000
1000
0000
1300
0000
0000
0011
0000
0000
0000
,
0010
0000
1000
0000
0100
0020
0000
0100
0000
0130
0000
0000
0101
0000
0000
0000
,
0100
0000
1000
0000
0200
1000
0000
0010
0000
0010
0000
0000
0001
0000
0000
0000
,
0301
0000
0100
0000
1000
0001
0000
1000
0100
0000
0001
0000
0100
0000
0010
0000
,
1000
0000
0000
0000
1000
0001
0000
0001
0100
0000
0010
0000
1000
0000
0001
0000
,
0100
0000
0000
0000
1000
0001
1000
0001
0100
0000
0001
0000
1000
0000
0100
0000
,
0010
0000
0100
0010
0100
0010
0100
0010
,
0200
0000
0000
0000
,
0000
0000
0000
0000
,
0000
0000
0000
0000
,
0000
0000
0000
0000
,
0000
0000
0000
0000
,
0301
0000
0000
0000
1100
0000
0000
0001
0000
0000
1000
0000
0001
0000
1000
0000
,
0100
0000
0000
0000
0010
0000
0000
1000
0000
0000
0100
0000
1000
0000
0000
0000
,
0010
0000
0000
0000
0101
0000
0000
0011
0000
0000
0100
0000
0001
0000
0100
0000
,
1000
0000
0000
0000
0010
0100
0000
0010
0100
0000
1000
0000
0100
0000
0000
0000
,
0001
1000
0100
0010
0100
1000
0100
0001
,
0100
0000
0000
0000
1000
0001
0000
1000
0010
0000
0001
0000
0010
0000
0100
0000
,
0010
0001
1000
0001
0010
0100
0010
0001
,
1000
0010
0001
0100
1000
0100
0010
0100
,
1000
0010
1001
0000
0010
0100
1000
0001
,
0100
0001
1000
0001
1000
0001
0100
1000
,
0010
0000
0110
0000
0001
1000
0001
1000
,
0001
1000
0010
0000
0001
0100
0010
0100
,
1000
0000
0001
0000
1000
0000
0001
0000
1000
0000
0001
0000
1000
0000
0100
0010
,
0100
0000
0000
0000
1001
0000
0000
0000
0100
0000
1000
0000
0100
0000
1000
0001
,
1000
0000
0000
0000
0011
0000
0000
0000
1000
0000
0100
0000
1000
0000
0010
0100
,
0001
0000
0000
0000
0101
0000
0000
0000
0001
0000
0100
0000
1000
0000
0010
0100
,
0001
0000
0000
0000
0011
0000
0000
0000
0010
0000
1000
0000
0100
0000
0001
1000
,
0010
0000
1000
0100
1000
0010
0100
0001
,
1000
0100
0001
0100
0010
1000
0100
1000
,
0001
0000
1000
0001
1000
0010
1000
0001
,
0100
1000
0010
0100
0001
1000
0001
0100
,
0010
0000
1000
0001
0100
0010
1000
0001
,
0100
0001
0010
0100
1000
0001
0100
0010
,
0001
0000
1100
0000
0001
1000
0010
0100
,
1000
0001
1000
0100
1000
0001
1000
0010
,
0001
0000
0001
0100
0010
1000
0001
0100
,
1000
0001
0100
0010
1000
0001
0100
0010
,
0001
0000
1000
0010
0100
0001
0100
0010
,
1000
0010
0100
1000
0010
0100
0001
0100
,
0001
0000
0000
0000
1000
0000
0100
0000
1000
0000
0010
0000
0100
0000
0001
1000
,
0001
1000
0001
0100
0010
0100
1000
0001
,
0010
0000
0100
0010
1000
0010
0100
0010
,
1000
0001
0100
0010
1000
0100
1000
0010
,
0100
0001
1000
0001
0100
0010
1000
0001
,
0200
0000
0000
0000
,
0000
0000
0000
0000
,
0300
0000
0000
0000
;
