#TITLE:Dance In The Forest;
#SUBTITLE:Gurumin (2004);
#ARTIST:Falcom Sound Team JDK;
#TITLETRANSLIT:;
#SUBTITLETRANSLIT:;
#ARTISTTRANSLIT:;
#CREDIT:;
#BANNER:Dance in the Forest.jpg;
#BACKGROUND:Dance in the Forest-bg.jpg;
#LYRICSPATH:;
#CDTITLE:ducky.png;
#MUSIC:Dance in the Forest.mp3;
#OFFSET:-1.475;
#SAMPLESTART:42.857;
#SAMPLELENGTH:12.000;
#SELECTABLE:YES;
#BPMS:0.000=140.000;
#STOPS:;
#BGCHANGES:;
// cache tags:
#FIRSTBEAT:0.000;
#LASTBEAT:320.021;
#SONGFILENAME:Songs/VGMP 3/Dance in the Forest (Ducky)/Dance in the Forest.sm;
#HASMUSIC:1;
#HASBANNER:1;
#MUSICLENGTH:143.516;
// end cache tags

//---------------dance-single - ----------------
#NOTES:
     dance-single:
     :
     Hard:
     12:
     1.000,1.000,1.000,0.404,1.000,801.000,234.000,58.000,0.000,1.000:
1001
0100
0000
0101
0000
1000
0010
0100
0001
0000
0100
0000
1010
0001
0010
1100
,
0000
0110
1000
0001
0010
0100
1000
0010
1001
0000
0101
0000
1010
0000
0100
0000
,
1001
0100
0000
0101
0000
1000
0100
0010
0001
0000
0010
0000
0101
0010
1000
0110
,
0000
0101
0010
1000
0010
0100
0001
0100
1010
0000
1001
0000
0110
0000
1000
0000
,
1001
0100
0000
0101
0000
1000
0010
0100
0001
0000
0100
0000
1010
0001
1000
0101
,
0000
0110
1000
0001
0010
0100
1000
0010
0101
0000
0001
1000
0101
0000
0001
0100
,
1001
0100
0000
0101
0000
1000
0100
0010
0001
0000
0010
0000
1001
0010
1000
0101
,
0000
0110
1000
0001
0010
0100
0010
0001
1100
0000
0001
1000
0110
0000
0001
0100
,
1020
0000
0000
0000
0000
0000
0000
0000
0000
0000
0000
0000
0000
0030
1000
0001
,
1000
0000
1000
0100
1000
0000
0010
1000
0010
0000
0010
0100
0010
0000
0100
0001
,
0210
0000
0000
0302
0000
0000
0023
0000
0000
0000
0000
0000
0000
0000
0000
0000
,
0030
0000
0000
0000
0000
0000
0000
0000
2001
0000
0000
0000
3000
0000
0000
0000
2000
0000
0000
0000
3000
0000
0000
0000
0200
0000
0000
0000
0300
0000
0000
0010
0002
0000
0000
0000
0000
0000
0000
0000
0000
0000
0000
0000
0203
0000
0000
0000
0000
0000
0000
0000
0000
0000
0000
0000
2300
0000
0000
0000
0000
0000
0000
0000
,
3201
0000
0300
0200
0000
0300
0020
0000
0000
0000
0000
0000
0000
0000
0000
0000
,
0030
0000
0000
0000
0000
0000
0000
0000
2000
0000
0000
0000
3000
0000
0000
0000
2000
0000
0000
0000
3000
0000
0000
0000
0200
0000
0000
0000
0300
0000
0000
0010
0002
0000
0000
0000
0000
0000
0000
0000
0003
0000
0000
0000
0020
0000
0000
0000
0000
0000
0000
0000
0030
0000
0000
0000
0200
0000
0000
0000
0300
0000
0000
0000
,
1001
0010
0000
1100
0000
1010
0000
0110
0000
1001
0000
0000
1001
0000
1010
0000
,
0101
0000
0110
1010
0000
1010
0000
0101
0000
0011
0000
1100
0010
0001
0010
0100
,
0021
0000
0000
0000
0000
0000
0000
0000
0000
0000
0000
0000
0000
0030
0100
0010
,
0100
0000
1000
0001
1000
0000
0010
1000
0010
0000
0100
0010
0100
0000
0001
1000
,
0201
0000
0000
0320
0000
0000
2030
0000
0000
0000
0000
0000
0001
0000
0001
0000
,
3010
0000
0000
0000
0000
0000
0000
0000
2000
0000
0000
0000
3000
0000
0000
0000
2000
0000
0000
0000
3000
0000
0000
0000
0200
0000
0000
0000
0300
0000
0000
0010
0002
0000
0000
0000
0000
0000
0000
0000
0000
0000
0000
0000
0203
0000
0000
0000
0000
0000
0000
0000
0000
0000
0000
0000
2300
0000
0000
0000
3000
0000
0000
0000
,
0101
0010
0000
1010
0100
0000
1020
0000
0100
0000
0100
0000
0000
0000
0000
0000
,
0130
0000
0000
0000
0001
0000
0000
0000
1000
0000
0000
0000
0001
0000
0000
0000
1000
0000
0000
0000
0001
0000
0000
0000
0100
0000
0000
0000
0010
0000
0000
1000
0001
0000
0000
0000
0100
0000
0000
0000
0100
0000
0000
0000
0000
0000
0000
0000
0000
0000
0000
0000
0000
0000
0000
0000
0100
0000
0000
0000
0000
0000
0000
0000
,
1001
0000
0010
0000
0100
0010
1000
0010
0000
0010
0010
0000
0100
0000
0000
0000
,
1001
0010
1000
0010
0100
0001
0010
1000
0010
0100
1000
0001
0100
0010
0100
0010
,
0101
1000
0100
0010
0001
0010
0100
1000
0010
0000
1001
0000
0010
0100
1000
0100
,
0010
0001
0010
0100
1000
0000
1001
0000
0101
0010
1000
0001
0100
0010
1001
0000
,
0011
0100
1000
0100
0010
0001
0010
0100
1000
0000
1001
0000
0010
0100
1000
0100
,
0010
0001
0010
0100
1000
0000
1001
0000
0001
0010
0100
1000
0100
0010
0001
0000
,
0101
0010
1000
0010
0100
0001
0100
0010
1000
0000
1001
0000
0010
0100
0001
0100
,
0010
1000
0010
0100
0001
0000
1001
0000
0001
0100
0010
1000
0110
0000
0010
0100
,
2001
0000
0000
3200
0000
0000
0320
0000
,
0000
0000
0000
0000
0000
0000
0000
0000
0032
0000
0000
0000
0000
0000
0000
0000
0000
0000
0000
0000
2003
3000
0000
0000
0000
0000
0000
0000
2000
3000
0000
0000
0200
0000
0000
0000
0000
0000
0000
0000
0000
0000
0000
0000
0000
0000
0000
0000
0000
0000
0000
0000
0000
0000
0000
0000
0000
0000
0000
0000
0300
0000
0000
0000
,
1010
0101
0000
0101
0010
0000
1010
0000
1010
0001
1100
0000
0101
0000
0000
0000
,
1100
0011
0000
0011
0100
0000
1100
0000
1100
0001
0110
0000
0011
0000
0000
0000
,
1001
0000
0000
0100
0010
0000
1002
0000
0000
0000
1000
0000
0100
0000
0000
0000
,
1003
0100
0010
0001
0100
0010
1000
0001
0100
1000
0100
0001
0010
0100
1000
0001
,
1010
0101
0000
0101
0010
0000
1010
0000
1010
0001
1100
0000
0101
0000
0000
0000
,
1100
0011
0000
0011
0100
0000
1100
0000
1100
0001
0110
0000
0011
0000
0000
0000
,
1001
0000
0000
0001
0010
0000
1200
0000
0000
0000
0001
0000
0010
0000
0300
0000
,
1000
0000
0001
1000
0100
0010
0001
0010
0100
0010
0001
0010
0100
1000
0001
0100
,
1010
0101
0000
0101
0010
0000
1010
0000
1010
0001
1100
0000
0101
0000
0000
0000
,
1100
0011
0000
0011
0100
0000
1100
0000
1100
0001
0110
0000
0011
0000
0000
0000
,
1001
0000
0000
0000
0000
0000
0000
0000
0000
0000
0000
0000
0100
0000
0000
0000
0010
0000
0000
0000
0000
0000
0000
0000
1002
0000
0000
0000
0000
0000
0000
0000
0000
0000
0000
0000
0000
0000
0000
0000
0100
0000
0000
0000
0000
0000
0000
0000
1003
0000
0000
0000
0000
0000
0000
0010
0002
0000
0000
0000
0000
0000
0000
0000
,
0103
0000
0000
0000
0000
0000
0000
0000
0012
0000
0000
0000
0000
0000
0000
0000
0003
0000
0000
0000
0002
0000
0000
0000
1000
0000
0000
0000
0003
0000
0000
0010
0200
0000
0000
0000
0000
0000
0000
0000
0300
0000
0000
0000
0200
0000
0000
0000
0010
0000
0000
0000
0300
0000
0000
0000
0201
0000
0000
0000
0300
0000
0000
0000
,
1010
0101
0000
0101
0010
0000
1010
0000
1010
0001
1100
0000
0101
0000
0000
0000
,
1100
0011
0000
0011
0100
0000
1100
0000
1100
0001
0110
0000
0011
0000
0000
0000
,
1001
0000
0000
0001
0010
0000
1200
0000
0000
0000
0010
0000
0001
0000
0300
0000
,
1000
0000
0000
0000
0000
0000
0000
0010
0100
0000
0000
0000
0000
0000
0000
0000
0010
0000
0000
0000
1000
0000
0000
0000
0010
0000
0000
0000
0100
0000
0000
0000
0001
0000
0000
0000
0001
0000
0000
0000
0001
0000
0000
0000
0001
0000
0000
0000
1000
0000
0000
0000
1000
0000
0000
0000
0010
0000
0000
0000
0010
0000
0000
0000
,
0110
0000
1000
0000
0001
0000
1000
0010
0000
0100
0001
0000
0010
0000
0100
0000
,
1000
0000
0001
0000
1000
0000
0010
1000
0000
0001
0100
0000
1010
0000
0100
0000
,
1001
0000
0100
0000
0001
0000
0010
0100
0000
1000
0001
0000
0010
0000
0100
0000
,
1000
0000
0001
0000
1000
0000
0010
0100
0000
0001
1000
0000
0010
0000
0100
0000
,
0011
0000
1000
0000
0001
0000
1000
0100
0000
0010
0001
0000
0100
0000
0010
0000
,
1000
0000
0120
0000
1030
0000
0001
0010
0000
0100
1000
0000
0010
0000
0100
0000
,
1010
0100
0001
0010
0100
0000
1000
0010
0000
0100
0001
0000
0100
0000
0010
0000
,
1010
1010
0000
1010
1010
0000
1010
1010
0000
1010
0001
1000
0001
0100
1001
0000
,
1010
0000
1000
0001
0110
0000
0001
1000
0000
1000
0100
0100
0010
0001
0100
0100
,
1010
0000
1000
0100
0011
0000
0001
0100
0000
0010
0100
0100
0001
0010
0100
0100
,
0010
0000
0001
0010
1100
0000
1000
0010
0000
1000
0100
0100
0010
0001
0100
0100
,
0010
1000
0001
0010
1100
0000
0110
0010
0010
0010
0100
1000
0001
0010
0100
0010
,
1001
0000
1000
0001
0110
0000
0001
0100
0000
0001
0100
0100
0001
0010
0100
0100
,
0010
0000
0001
0010
0100
0000
1000
0100
0000
0010
0100
0100
1000
0010
0100
0100
,
1001
0000
1000
0010
0101
0000
0010
0100
0000
0001
0100
0100
0001
0010
0100
0100
,
0011
0000
0000
0011
0000
0000
0000
0000
0000
0011
0000
0000
0011
0000
0000
0000
0000
0000
0011
0000
0000
0011
0000
0000
0000
0000
0000
0011
0000
0000
0011
0000
0000
0000
0000
0000
0001
0000
0010
0000
0100
0000
1000
0000
0000
0001
0000
0000
,
1010
0101
0000
0101
0010
0000
1010
0000
1010
0001
1100
0000
0101
0000
0000
0000
,
1100
0011
0000
0011
0100
0000
1100
0000
1100
0001
0110
0000
0011
0000
0000
0000
,
1001
0000
0000
0100
0010
0000
1002
0000
0000
0000
1000
0000
0100
0000
0000
0000
,
1003
0100
0010
0001
0100
0010
1000
0001
0100
1000
0100
0001
0010
0100
1000
0001
,
1010
0101
0000
0101
0010
0000
1010
0000
1010
0001
1100
0000
0101
0000
0000
0000
,
1100
0011
0000
0011
0100
0000
1100
0000
1100
0001
0110
0000
0011
0000
0000
0000
,
1001
0000
0000
0001
0010
0000
1200
0000
0000
0000
0001
0000
0010
0000
0300
0000
,
1000
0000
0001
1000
0100
0010
0001
0010
0100
0010
0001
0010
0100
1000
0001
0100
,
1010
0101
0000
0101
0010
0000
1010
0000
1010
0001
1100
0000
0101
0000
0000
0000
,
1100
0011
0000
0011
0100
0000
1100
0000
1100
0001
0110
0000
0011
0000
0000
0000
,
1001
0000
0000
0000
0000
0000
0000
0000
0000
0000
0000
0000
0100
0000
0000
0000
0010
0000
0000
0000
0000
0000
0000
0000
1002
0000
0000
0000
0000
0000
0000
0000
0000
0000
0000
0000
0000
0000
0000
0000
0100
0000
0000
0000
0000
0000
0000
0000
1003
0000
0000
0000
0000
0000
0000
0010
0002
0000
0000
0000
0000
0000
0000
0000
,
0103
0000
0000
0000
0000
0000
0000
0000
0012
0000
0000
0000
0000
0000
0000
0000
0003
0000
0000
0000
0002
0000
0000
0000
1000
0000
0000
0000
0003
0000
0000
0010
0200
0000
0000
0000
0000
0000
0000
0000
0300
0000
0000
0000
0200
0000
0000
0000
0010
0000
0000
0000
0300
0000
0000
0000
0201
0000
0000
0000
0300
0000
0000
0000
,
1010
0101
0000
0101
0010
0000
1010
0000
1010
0001
1100
0000
0101
0000
0000
0000
,
1100
0011
0000
0011
0100
0000
1100
0000
1100
0001
0110
0000
0011
0000
0000
0000
,
1001
0000
0000
0001
0010
0000
1200
0000
0000
0000
0010
0000
0001
0000
0300
0000
,
1000
0000
0000
0000
0000
0000
0000
0010
0100
0000
0000
0000
0000
0000
0000
0000
0010
0000
0000
0000
1000
0000
0000
0000
0010
0000
0000
0000
0100
0000
0000
0000
0001
0000
0000
0000
0001
0000
0000
0000
0001
0000
0000
0000
0001
0000
0000
0000
1000
0000
0000
0000
1000
0000
0000
0000
0010
0000
0000
0000
0010
0000
0000
0000
,
0110
0000
0000
0000
;

//---------------dance-single - ----------------
#NOTES:
     dance-single:
     :
     Challenge:
     13:
     1.000,1.000,1.000,1.000,1.000,842.000,364.000,160.000,0.000,88.000:
1021
0030
0000
0000
0100
0000
0000
0000
0000
0000
0000
0000
1101
0000
0000
0000
0000
0000
0000
0000
0001
0000
0000
0000
0010
0000
0000
0000
0100
0000
0000
0000
0010
0000
0000
0000
0000
0000
0000
0000
0001
0000
0000
0000
0000
0000
0000
0000
1010
0000
0000
0000
0101
0000
0000
0000
1000
0000
0000
0000
0011
0000
0000
0000
,
0000
0000
0000
0000
1001
0000
0000
0000
0010
0000
0000
0000
0101
0000
0000
0000
0010
0000
0000
0000
1000
0000
0000
0000
0011
0000
0000
0000
0100
0000
0000
0000
1021
0030
0000
0000
0000
0000
0000
0000
0100
0000
0000
0000
0021
0030
0000
0000
1000
0000
0000
0000
0000
0000
0000
0000
0120
0030
0000
0000
0000
0000
0000
0000
,
1021
0030
0000
0000
0100
0000
0000
0000
0000
0000
0000
0000
1101
0000
0000
0000
0000
0000
0000
0000
0001
0000
0000
0000
0010
0000
0000
0000
0100
0000
0000
0000
0010
0000
0000
0000
0000
0000
0000
0000
0001
0000
0000
0000
0000
0000
0000
0000
1100
0000
0000
0000
0011
0000
0000
0000
0100
0000
0000
0000
1001
0000
0000
0000
,
0000
0101
0010
1100
0010
0100
1001
0100
0011
0000
0100
0001
1010
0000
0100
0000
,
1021
0030
0000
0000
0100
0000
0000
0000
0000
0000
0000
0000
1101
0000
0000
0000
0000
0000
0000
0000
0001
0000
0000
0000
0010
0000
0000
0000
0100
0000
0000
0000
0010
0000
0000
0000
0000
0000
0000
0000
0001
0000
0000
0000
0000
0000
0000
0000
1010
0000
0000
0000
0101
0000
0000
0000
1000
0000
0000
0000
0011
0000
0000
0000
,
0000
0101
0010
1100
0010
0100
0011
1000
0110
0000
1010
0101
1010
0000
1010
0100
,
1021
0030
0000
0000
0100
0000
0000
0000
0000
0000
0000
0000
1101
0000
0000
0000
0000
0000
0000
0000
0001
0000
0000
0000
0010
0000
0000
0000
0100
0000
0000
0000
0010
0000
0000
0000
0000
0000
0000
0000
0001
0000
0000
0000
0000
0000
0000
0000
1100
0000
0000
0000
0011
0000
0000
0000
0100
0000
0000
0000
1001
0000
0000
0000
,
0000
0000
0000
0101
0000
0000
0010
0000
0000
1001
0000
0000
0010
0000
0000
2100
3000
0000
0011
0000
0000
2010
3000
0000
0101
0000
0000
0000
0000
0000
1001
0000
0000
0010
0000
0000
0101
0000
0000
0000
0000
0000
0011
0000
0000
0100
0000
0000
,
1022
0003
0000
0000
0000
0000
0000
0000
0000
0000
0000
0000
1000
0000
0000
0000
0000
0000
0000
0000
0000
0000
0000
0000
0000
0000
0000
0000
0000
0000
0000
0000
0000
0000
0000
0000
0000
0000
0000
0000
0001
0000
0000
0000
0000
0000
0000
0000
0000
0000
0000
0000
0030
0000
0000
0000
0001
0000
0000
0000
1000
0000
0000
0000
,
0001
0000
0000
0000
0000
0000
0000
0000
0010
0000
0000
0000
0100
0000
0000
0000
0010
0000
0000
0000
0000
0000
0000
0000
0101
0000
0000
0000
1000
0000
0000
0000
0121
0030
0000
0000
0000
0000
0000
0000
0100
0000
0000
0000
1021
0030
0000
0000
0100
0000
0000
0000
0000
0000
0000
0000
0121
0030
0000
0000
1000
0000
0000
0000
,
0221
0030
0000
0000
0000
0000
0000
0000
0000
0000
0000
0000
2300
0000
0000
0000
0000
0000
0000
0000
0000
0000
0000
0000
3002
0000
0000
0000
0000
0000
0000
0000
0100
0000
0000
0000
0000
0000
0000
0000
1000
0000
0000
0000
0000
0000
0000
0000
1000
0000
0000
0000
0000
0000
0000
0000
1000
0000
0000
0000
0010
0000
0000
0000
,
0003
0000
0000
0000
0000
0000
0000
0000
2100
0000
0000
0000
3000
0000
0000
0000
2000
0000
0000
0000
3000
0000
0000
0000
0200
0000
0000
0000
0300
0000
0000
0010
0002
0000
0000
0000
0000
0000
0000
0000
0000
0000
0000
0000
0203
0000
0000
0000
0000
0000
0000
0000
0000
0000
0000
0000
2300
0000
0000
0000
0000
0000
0000
0000
,
3221
0030
0000
0000
0000
0000
0000
0000
0300
0000
0000
0000
0200
0000
0000
0000
0000
0000
0000
0000
0300
0000
0000
0000
0020
0000
0000
0000
0000
0000
0000
0000
0000
0000
0000
0000
0100
0000
0000
0000
0000
0000
0000
0000
0000
0000
0000
0000
1000
0000
0000
0000
0000
0000
0000
0000
1000
0000
0000
0000
0000
0000
0000
0000
,
0130
0000
0000
0000
0000
0000
0000
0000
2000
0000
0000
0000
3010
0000
0000
0000
2000
0000
0000
0000
3000
0000
0000
0000
0210
0000
0000
0000
0300
0000
0000
0010
0002
0000
0000
0000
1100
0000
0000
0000
0003
0000
0000
0000
0110
0000
0000
0000
1000
0000
0000
0000
0101
0000
0000
0000
0110
0000
0000
0000
0000
0000
0000
0000
,
1010
0100
0000
1100
0000
1010
0000
0110
0000
1001
0000
0000
1101
0000
1010
0000
,
0011
0000
0000
0000
0000
0000
0000
0000
0110
0000
0000
0000
1010
0000
0000
0000
0000
0000
0000
0000
1120
0030
0000
0000
0000
0000
0000
0000
0121
0030
0000
0000
0000
0000
0000
0000
1010
0000
0000
0000
0000
0000
0000
0000
1100
0000
0000
0000
0011
0000
0000
0000
0100
0000
0000
0000
1001
0000
0000
0000
0100
0000
0000
0000
,
1022
0003
0000
0000
0000
0000
0000
0000
0000
0000
0000
0000
0000
0000
0000
0000
0000
0000
0000
0000
0000
0000
0000
0000
0000
0000
0000
0000
0000
0000
0000
0000
0000
0000
0000
0000
0000
0000
0000
0000
0000
0000
0000
0000
0000
0000
0000
0000
0100
0000
0000
0000
0030
0000
0000
0000
0001
0000
0000
0000
1010
0000
0000
0000
,
0001
0000
0000
0000
0000
0000
0000
0000
0010
0000
0000
0000
0100
0000
0000
0000
0010
0000
0000
0000
0000
0000
0000
0000
0100
0000
0000
0000
1000
0000
0000
0000
0120
0030
0000
0000
0000
0000
0000
0000
0001
0000
0000
0000
1020
0030
0000
0000
0001
0000
0000
0000
0000
0000
0000
0000
1020
0030
0000
0000
0001
0000
0000
0000
,
1220
0030
0000
0000
0000
0000
0000
0000
0000
0000
0000
0000
2300
0000
0000
0000
0000
0000
0000
0000
0000
0000
0000
0000
3002
0000
0000
0000
0000
0000
0000
0000
0000
0000
0000
0000
0000
0000
0000
0000
0000
0000
0000
0000
0000
0000
0000
0000
0100
0000
0000
0000
0000
0000
0000
0000
0100
0000
0000
0000
0000
0000
0000
0000
,
0013
0000
0000
0000
0000
0000
0000
0000
2000
0000
0000
0000
3000
0000
0000
0000
2000
0000
0000
0000
3000
0000
0000
0000
0200
0000
0000
0000
0300
0000
0000
0010
0002
0000
0000
0000
0000
0000
0000
0000
0000
0000
0000
0000
0203
0000
0000
0000
0000
0000
0000
0000
0000
0000
0000
0000
2300
0000
0000
0000
3000
0000
0000
0000
,
2201
0300
0000
0000
0010
0000
0000
0000
3000
0000
0000
0000
2001
0000
0000
0000
0100
0000
0000
0000
0000
0000
0000
0000
3021
0000
0000
0000
0000
0000
0000
0000
0100
0000
0000
0000
0000
0000
0000
0000
0100
0000
0000
0000
0000
0000
0000
0000
0000
0000
0000
0000
0000
0000
0000
0000
0000
0000
0000
0000
0030
0000
0000
0000
,
0100
0000
0000
0000
0010
0000
0000
0000
2000
0000
0000
0000
3010
0000
0000
0000
2000
0000
0000
0000
3010
0000
0000
0000
0002
0000
0000
0000
0013
0000
0000
1000
0200
0000
0000
0000
0310
0000
0000
0000
0010
0000
0000
0000
0002
0000
0000
0000
0003
0000
0000
0000
0000
0000
0000
0000
0020
0000
0000
0000
0030
0000
0000
0000
,
2001
0000
0010
0000
0100
0010
3002
0010
0000
0010
0010
0000
0203
0000
0000
0300
,
1001
0000
0000
0000
0010
0000
0000
0000
1100
0000
0000
0000
0010
0000
0000
0000
0101
0000
0000
0000
1020
0030
0000
0000
0101
0000
0000
0000
0021
0030
0000
0000
1100
0000
0000
0000
0010
0000
0000
0000
0101
0000
0000
0000
1010
0000
0000
0000
0101
0000
0000
0000
0010
0000
0000
0000
1001
0000
0000
0000
1001
0000
0000
0000
,
1021
0030
0000
0000
0100
0000
0000
0000
1000
0000
0000
0000
0001
0000
0000
0000
0010
0000
0000
0000
0001
0000
0000
0000
0100
0000
0000
0000
1000
0000
0000
0000
0010
0000
0000
0000
0000
0000
0000
0000
1001
0000
0000
0000
0000
0000
0000
0000
0010
0000
0000
0000
0100
0000
0000
0000
1000
0000
0000
0000
0001
0000
0000
0000
,
0100
0000
0000
0000
0001
0000
0000
0000
0010
0000
0000
0000
1000
0000
0000
0000
0100
0000
0000
0000
0000
0000
0000
0000
1001
0000
0000
0000
0000
0000
0000
0000
0201
0300
0000
0000
0010
0000
0000
0000
1000
0000
0000
0000
0201
0300
0000
0000
1010
0000
0000
0000
0001
0000
0000
0000
1200
0300
0000
0000
0000
0000
0000
0000
,
1021
0030
0000
0000
0100
0000
0000
0000
1000
0000
0000
0000
0001
0000
0000
0000
0010
0000
0000
0000
0001
0000
0000
0000
0100
0000
0000
0000
1000
0000
0000
0000
0010
0000
0000
0000
0000
0000
0000
0000
1001
0000
0000
0000
0000
0000
0000
0000
0010
0000
0000
0000
0100
0000
0000
0000
1000
0000
0000
0000
0001
0000
0000
0000
,
0100
0001
0010
1000
0100
0000
1001
0000
0001
0010
1000
0001
1010
0001
0100
0000
,
1021
0030
0000
0000
0100
0000
0000
0000
1000
0000
0000
0000
0001
0000
0000
0000
0010
0000
0000
0000
0001
0000
0000
0000
0100
0000
0000
0000
1000
0000
0000
0000
0010
0000
0000
0000
0000
0000
0000
0000
1001
0000
0000
0000
0000
0000
0000
0000
0010
0000
0000
0000
0100
0000
0000
0000
1000
0000
0000
0000
0001
0000
0000
0000
,
0100
0001
0010
1000
0100
0000
1001
0000
0001
0100
1010
0101
1010
0000
1010
0100
,
2021
0030
0000
0000
0000
0000
0000
0000
0000
0000
0000
0000
0000
0000
0000
0000
0000
0000
0000
0000
0000
0000
0000
0000
3200
0000
0000
0000
0000
0000
0000
0000
0000
0000
0000
0000
0000
0000
0000
0000
0000
0000
0000
0000
0000
0000
0000
0000
0320
0000
0000
0000
0000
0000
0000
0000
0000
0000
0000
0000
0000
0000
0000
0000
,
0000
0000
0000
0000
0000
0000
0000
0000
0032
0000
0000
0000
0000
0000
0000
0000
0000
0000
0000
0000
2000
3000
0000
0000
0000
0000
0000
0000
2000
3000
0000
0000
0203
0000
0000
0000
0000
0000
0000
0000
0000
0000
0000
0000
0000
0000
0000
0000
0000
0000
0000
0000
0000
0000
0000
0000
0000
0000
0000
0000
0300
0000
0000
0000
,
1012
0003
0000
0000
0101
0000
0000
0000
0000
0000
0000
0000
0101
0000
0000
0000
0010
0000
0000
0000
0000
0000
0000
0000
1010
0000
0000
0000
0000
0000
0000
0000
1010
0000
0000
0000
0001
0000
0000
0000
1110
0000
0000
0000
0000
0000
0000
0000
1102
0000
0000
0000
0000
0000
0000
0000
0000
0000
0000
0000
0003
0000
0000
0000
,
1100
0011
0000
0011
0100
0000
1100
0000
1100
0001
1110
0000
2011
0000
0000
3000
,
0212
0003
0000
0000
0000
0000
0000
0000
0300
0000
0000
0000
0020
0000
0000
0000
1000
0000
0000
0000
0030
0000
0000
0000
0102
0000
0000
0000
0000
0000
0000
0000
0000
0000
0000
0000
0000
0000
0000
0000
1000
0000
0000
0000
0000
0000
0000
0000
0100
0000
0000
0000
0000
0000
0000
0000
0000
0000
0000
0000
0000
0000
0000
0000
,
1013
0100
0011
1000
0100
0010
1001
0100
1010
0001
0100
1000
0001
1000
0011
0100
,
1012
0003
0000
0000
0101
0000
0000
0000
0000
0000
0000
0000
0101
0000
0000
0000
0010
0000
0000
0000
0000
0000
0000
0000
1010
0000
0000
0000
0000
0000
0000
0000
1010
0000
0000
0000
0001
0000
0000
0000
1110
0000
0000
0000
0000
0000
0000
0000
1102
0000
0000
0000
0000
0000
0000
0000
0000
0000
0000
0000
0003
0000
0000
0000
,
1100
0011
0000
0011
0100
0000
1100
0000
1100
0001
1110
0000
2011
0000
0000
3000
,
0212
0003
0000
0000
0000
0000
0000
0000
0300
0000
0000
0000
0002
0000
0000
0000
0010
0000
0000
0000
0000
0000
0000
0000
2103
0000
0000
0000
0000
0000
0000
0000
0000
0000
0000
0000
0000
0000
0000
0000
0001
0000
0000
0000
0000
0000
0000
0000
0100
0000
0000
0000
0000
0000
0000
0000
0000
0000
0000
0000
0000
0000
0000
0000
,
3001
0000
0000
0000
0000
0000
0000
0000
0110
0000
0000
0000
1000
0000
0000
0000
0100
0000
0000
0000
0021
0030
0000
0000
1100
0000
0000
0000
0021
0030
0000
0000
1100
0000
0000
0000
0010
0000
0000
0000
0001
0000
0000
0000
0010
0000
0000
0000
0101
0000
0000
0000
1000
0000
0000
0000
0011
0000
0000
0000
1100
0000
0000
0000
,
1012
0003
0000
0000
0101
0000
0000
0000
0000
0000
0000
0000
0101
0000
0000
0000
0010
0000
0000
0000
0000
0000
0000
0000
1010
0000
0000
0000
0000
0000
0000
0000
1010
0000
0000
0000
0001
0000
0000
0000
1110
0000
0000
0000
0000
0000
0000
0000
1102
0000
0000
0000
0000
0000
0000
0000
0000
0000
0000
0000
0003
0000
0000
0000
,
1100
0011
0000
0011
0100
0000
1100
0000
1100
0001
1110
0000
2011
0000
0000
3000
,
0212
0003
0000
0000
0000
0000
0000
0000
0300
0000
0000
0000
0020
0000
0000
0000
0100
0000
0000
0000
0030
0000
0000
0000
1002
0000
0000
0000
0000
0000
0000
0000
0000
0000
0000
0000
0000
0000
0000
0000
0100
0000
0000
0000
0000
0000
0000
0000
1003
0000
0000
0000
0000
0000
0000
0010
0002
0000
0000
0000
0000
0000
0000
0000
,
0103
0000
0000
0000
0000
0000
0000
0000
0012
0000
0000
0000
0000
0000
0000
0000
0003
0000
0000
0000
0002
0000
0000
0000
1000
0000
0000
0000
0003
0000
0000
0010
0201
0000
0000
0000
0000
0000
0000
0000
0300
0000
0000
0000
0200
0000
0000
0000
0010
0000
0000
0000
0300
0000
0000
0000
1200
0000
0000
0000
0300
0000
0000
0000
,
1012
0003
0000
0000
0101
0000
0000
0000
0000
0000
0000
0000
0101
0000
0000
0000
0010
0000
0000
0000
0000
0000
0000
0000
1010
0000
0000
0000
0000
0000
0000
0000
1010
0000
0000
0000
0001
0000
0000
0000
1110
0000
0000
0000
0000
0000
0000
0000
1102
0000
0000
0000
0000
0000
0000
0000
0000
0000
0000
0000
0003
0000
0000
0000
,
1100
0011
0000
0011
0100
0000
1100
0000
1100
0001
1110
0000
2011
0000
0000
3000
,
0212
0003
0000
0000
0000
0000
0000
0000
0300
0000
0000
0000
0002
0000
0000
0000
0010
0000
0000
0000
0000
0000
0000
0000
2103
0000
0000
0000
0000
0000
0000
0000
0000
0000
0000
0000
0000
0000
0000
0000
0010
0000
0000
0000
0000
0000
0000
0000
0001
0000
0000
0000
0000
0000
0000
0000
3000
0000
0000
0000
0000
0000
0000
0000
,
1000
0000
0000
0000
0000
0000
0000
0010
0101
0000
0000
0000
0000
0000
0000
0000
0010
0000
0000
0000
1000
0000
0000
0000
0011
0000
0000
0000
0100
0000
0000
0000
1001
0000
0000
0000
0011
0000
0000
0000
0001
0000
0000
0000
0001
0000
0000
0000
1000
0000
0000
0000
1000
0000
0000
0000
0010
0000
0000
0000
0010
0000
0000
0000
,
1012
0003
0000
0000
0000
0000
0000
0000
1000
0000
0000
0000
0100
0000
0000
0000
0001
0000
0000
0000
0000
0000
0000
0000
0001
0000
0000
0000
0100
0000
0000
0000
0000
0000
0000
0000
1000
0000
0000
0000
0100
0000
0000
0000
0100
0000
0000
0000
0000
0000
0000
0000
0010
0000
0000
0000
0100
0000
0000
0000
0100
0000
0000
0000
,
0001
0000
0001
0010
1000
0000
1000
0010
0000
0001
0010
0010
2000
0100
3010
0010
,
1200
0300
1000
0100
0001
0000
0001
0100
0000
1000
0100
0100
0000
0010
0100
0100
,
0001
1000
0001
0010
0100
0000
0010
0010
0010
0010
1000
0001
0000
0001
1000
0010
,
1002
0003
1000
0100
0001
0000
0001
0100
0000
1000
0100
0100
0000
0010
0100
0100
,
0001
0000
0201
0310
1000
0000
1000
0010
0000
0001
0010
0010
0000
0100
0010
0010
,
1002
0203
1300
0120
0031
0000
0001
0100
0000
1000
0100
0100
0000
0010
0100
0100
,
1010
1010
0000
1010
1010
0000
1010
1010
0000
1010
0011
1100
0011
0100
1001
0000
,
1012
0003
0000
0000
0000
0000
0000
0000
1100
0000
0000
0000
0010
0000
0000
0000
0101
0000
0000
0000
0000
0000
0000
0000
1001
0000
0000
0000
0110
0000
0000
0000
0000
0000
0000
0000
1000
0000
0000
0000
0110
0000
0000
0000
0100
0000
0000
0000
0001
0000
0000
0000
0010
0000
0000
0000
1100
0000
0000
0000
0100
0000
0000
0000
,
1010
0000
0011
0100
1010
0000
1100
0011
0000
1000
0011
0010
1000
0100
0011
0010
,
0101
0000
1100
0010
0101
0000
1001
0110
0000
1000
0110
0100
0001
0010
1100
0100
,
1010
0001
1100
0001
0110
0000
0011
1010
0010
0010
0101
1010
0000
1010
1100
0001
,
1010
0000
1100
0010
0101
0000
1001
0110
0000
1000
0110
0100
0001
0010
1100
0100
,
1010
0000
0011
0100
1010
0000
1100
0011
0000
0001
0110
0010
1000
0100
0011
0010
,
0101
0000
1100
0010
0101
0000
1001
0110
0000
1000
0110
0100
0001
0010
1100
0100
,
1010
0000
0000
1011
0000
0000
0000
0000
0000
1010
0000
0000
1011
0000
0000
0000
0000
0000
1010
0000
0000
1011
0000
0000
0000
0000
0000
1010
0000
0000
1011
0000
0000
0000
0000
0000
0001
0000
0010
0000
0100
0000
1001
0000
0000
0100
0000
0000
,
1012
0003
0000
0000
0101
0000
0000
0000
0000
0000
0000
0000
0101
0000
0000
0000
0010
0000
0000
0000
0000
0000
0000
0000
1010
0000
0000
0000
0000
0000
0000
0000
1010
0000
0000
0000
0001
0000
0000
0000
1110
0000
0000
0000
0000
0000
0000
0000
1102
0000
0000
0000
0000
0000
0000
0000
0000
0000
0000
0000
0003
0000
0000
0000
,
1100
0011
0000
0011
0100
0000
1100
0000
1100
0001
1110
0000
2011
0000
0000
3000
,
0212
0003
0000
0000
0000
0000
0000
0000
0300
0000
0000
0000
0020
0000
0000
0000
1000
0000
0000
0000
0030
0000
0000
0000
0102
0000
0000
0000
0000
0000
0000
0000
0000
0000
0000
0000
0000
0000
0000
0000
1000
0000
0000
0000
0000
0000
0000
0000
0100
0000
0000
0000
0000
0000
0000
0000
0000
0000
0000
0000
0000
0000
0000
0000
,
1013
0100
0011
1000
0100
0010
1001
0100
1010
0001
0100
1000
0001
1000
0011
0100
,
1012
0003
0000
0000
0101
0000
0000
0000
0000
0000
0000
0000
0101
0000
0000
0000
0010
0000
0000
0000
0000
0000
0000
0000
1010
0000
0000
0000
0000
0000
0000
0000
1010
0000
0000
0000
0001
0000
0000
0000
1110
0000
0000
0000
0000
0000
0000
0000
1102
0000
0000
0000
0000
0000
0000
0000
0000
0000
0000
0000
0003
0000
0000
0000
,
1100
0011
0000
0011
0100
0000
1100
0000
1100
0001
1110
0000
2011
0000
0000
3000
,
0212
0003
0000
0000
0000
0000
0000
0000
0300
0000
0000
0000
0002
0000
0000
0000
0010
0000
0000
0000
0000
0000
0000
0000
2103
0000
0000
0000
0000
0000
0000
0000
0000
0000
0000
0000
0000
0000
0000
0000
0001
0000
0000
0000
0000
0000
0000
0000
0100
0000
0000
0000
0000
0000
0000
0000
0000
0000
0000
0000
0000
0000
0000
0000
,
3001
0000
0000
0000
0000
0000
0000
0000
0110
0000
0000
0000
1000
0000
0000
0000
0100
0000
0000
0000
0021
0030
0000
0000
1100
0000
0000
0000
0021
0030
0000
0000
1100
0000
0000
0000
0010
0000
0000
0000
0001
0000
0000
0000
0010
0000
0000
0000
0101
0000
0000
0000
1000
0000
0000
0000
0011
0000
0000
0000
1100
0000
0000
0000
,
1012
0003
0000
0000
0101
0000
0000
0000
0000
0000
0000
0000
0101
0000
0000
0000
0010
0000
0000
0000
0000
0000
0000
0000
1010
0000
0000
0000
0000
0000
0000
0000
1010
0000
0000
0000
0001
0000
0000
0000
1110
0000
0000
0000
0000
0000
0000
0000
1102
0000
0000
0000
0000
0000
0000
0000
0000
0000
0000
0000
0003
0000
0000
0000
,
1100
0011
0000
0011
0100
0000
1100
0000
1100
0001
1110
0000
2011
0000
0000
3000
,
0212
0003
0000
0000
0000
0000
0000
0000
0300
0000
0000
0000
0020
0000
0000
0000
0100
0000
0000
0000
0030
0000
0000
0000
1002
0000
0000
0000
0000
0000
0000
0000
0000
0000
0000
0000
0000
0000
0000
0000
0100
0000
0000
0000
0000
0000
0000
0000
1003
0000
0000
0000
0000
0000
0000
0010
0002
0000
0000
0000
0000
0000
0000
0000
,
0103
0000
0000
0000
0000
0000
0000
0000
0012
0000
0000
0000
0000
0000
0000
0000
0003
0000
0000
0000
0002
0000
0000
0000
1000
0000
0000
0000
0003
0000
0000
0010
0201
0000
0000
0000
0000
0000
0000
0000
0300
0000
0000
0000
0200
0000
0000
0000
0010
0000
0000
0000
0300
0000
0000
0000
1200
0000
0000
0000
0300
0000
0000
0000
,
1012
0003
0000
0000
0101
0000
0000
0000
0000
0000
0000
0000
0101
0000
0000
0000
0010
0000
0000
0000
0000
0000
0000
0000
1010
0000
0000
0000
0000
0000
0000
0000
1010
0000
0000
0000
0001
0000
0000
0000
1110
0000
0000
0000
0000
0000
0000
0000
1102
0000
0000
0000
0000
0000
0000
0000
0000
0000
0000
0000
0003
0000
0000
0000
,
1100
0011
0000
0011
0100
0000
1100
0000
1100
0001
1110
0000
2011
0000
0000
3000
,
0212
0003
0000
0000
0000
0000
0000
0000
0300
0000
0000
0000
0002
0000
0000
0000
0010
0000
0000
0000
0000
0000
0000
0000
2103
0000
0000
0000
0000
0000
0000
0000
0000
0000
0000
0000
0000
0000
0000
0000
0010
0000
0000
0000
0000
0000
0000
0000
0001
0000
0000
0000
0000
0000
0000
0000
3000
0000
0000
0000
0000
0000
0000
0000
,
1000
0000
0000
0000
0000
0000
0000
0010
0101
0000
0000
0000
0000
0000
0000
0000
0010
0000
0000
0000
1000
0000
0000
0000
0011
0000
0000
0000
0100
0000
0000
0000
1001
0000
0000
0000
0011
0000
0000
0000
0001
0000
0000
0000
0001
0000
0000
0000
1000
0000
0000
0000
1000
0000
0000
0000
0010
0000
0000
0000
0010
0000
0000
0000
,
1012
0003
0000
0000
0000
0000
0000
0000
0000
0000
0000
0000
0000
0000
0000
0000
0000
0000
0000
0000
0000
0000
0000
0000
0000
0000
0000
0000
0000
0000
0000
0000
0000
0000
0000
0000
0000
0000
0000
0000
0000
0000
0000
0000
0000
0000
0000
0000
0000
0000
0000
0000
0000
0000
0000
0000
0000
0000
0000
0000
0000
0000
0000
0000
0000
0000
0000
0000
0000
0000
0000
0000
0000
0000
0000
0000
0000
0000
0000
0000
0000
0000
0000
0000
0000
0000
0000
0000
0000
0000
0000
0000
0000
0000
0000
0000
0000
0000
0000
0000
0000
0000
0000
0000
0000
0000
0000
0000
0000
0000
0000
0000
0000
0000
0000
0000
0000
0000
0000
0000
0000
0000
0000
0000
0000
0000
0000
0000
0000
0000
0000
0000
0000
0000
0000
0000
0000
0000
0000
0000
0000
0000
0000
0000
0000
0000
0000
0000
0000
0000
0000
0000
0000
0000
0000
0000
0000
0000
0000
0000
0000
0000
0000
0000
0000
0000
0000
0000
0000
0000
0000
0000
0000
0000
0000
0000
0000
0000
0000
0000
0000
0000
0000
0000
0000
0000
0000
0000
0000
0000
0000
0000
;
