#TITLE:Fake Promise;
#SUBTITLE:;
#ARTIST:DJ Sharpnel;
#TITLETRANSLIT:;
#SUBTITLETRANSLIT:;
#ARTISTTRANSLIT:;
#CREDIT:;
#BANNER:fake promise bn new.png;
#BACKGROUND:fake promise bg new.png;
#LYRICSPATH:;
#CDTITLE:;
#MUSIC:Fake Promise.ogg;
#OFFSET:1.266;
#SAMPLESTART:202.359;
#SAMPLELENGTH:20.125;
#SELECTABLE:YES;
#BPMS:0.000=190.800;
#STOPS:;
#BGCHANGES:;
// cache tags:
#FIRSTBEAT:4.000;
#LASTBEAT:1328.000;
#SONGFILENAME:Songs/SHARPNELSTREAMZ v2/Fake Promise/Fake Promise.sm;
#HASMUSIC:1;
#HASBANNER:1;
#MUSICLENGTH:417.000;
// end cache tags

//---------------dance-single - 16+ (TYLR@@)----------------
#NOTES:
     dance-single:
     16+ (TYLR@@):
     Challenge:
     16:
     1.000,1.000,0.086,0.463,1.000,3917.000,36.000,193.000,55.000,0.000:
0000
0000
0000
0000
,
0MM0
0000
0000
0000
,
0000
0000
0000
0000
,
0000
0000
0000
0000
,
0000
0000
0000
0000
,
0000
0000
0000
0000
,
0000
0000
0000
0000
,
0000
0000
0000
0000
,
0000
0000
0000
0000
,
1000
0001
0100
0001
1000
0100
1000
0001
,
0010
0000
0100
0000
0010
0000
0001
0000
0100
0000
0010
0000
1000
0000
0010
1000
,
0001
0010
0100
0010
0001
1000
0100
1000
,
0001
0000
0100
0000
0001
0000
1000
0001
0010
0100
1000
0000
0001
0000
0100
0000
,
0001
1000
0010
1000
0001
0010
0001
1000
,
0100
0000
0010
0000
0100
0000
1000
0000
0010
0000
0100
0000
0001
0000
0100
0001
,
1000
0100
0010
0100
1000
0010
0100
0001
,
1001
0000
0000
0000
0000
0000
0000
0000
0001
0010
0001
0010
0100
0000
0000
0000
,
1000
0000
0001
1000
0010
0100
0001
0100
0010
0000
1000
0000
1001
0000
0001
0000
,
0010
0001
1000
0000
0010
0000
1000
0000
0001
0000
0100
0000
0110
0000
0010
0100
,
0001
0000
1000
0001
0010
0100
0010
0001
1000
0000
0010
0000
0110
0000
0100
0000
,
0001
0100
0010
0000
1000
0000
0001
1000
0100
1000
0001
0000
0010
0000
0010
0000
,
0100
0000
1000
0001
1000
0010
0100
0010
1000
0000
0001
0000
0011
0000
0010
0000
,
0100
1000
0001
0000
0100
0000
0001
0000
1000
0000
0010
0000
0110
0000
0100
0010
,
1000
0000
0001
1000
0100
0010
0100
1000
0001
0000
0100
0000
0110
0000
0010
0000
,
1000
0000
0100
0000
0011
0000
0001
0000
1000
0000
1000
0001
0020
0000
0000
0000
,
0031
0000
1000
0001
0010
0100
0010
0001
1000
0000
0001
0000
0011
0000
0010
0000
,
0100
1000
0001
0000
0100
0000
0001
0000
1000
0000
0010
0000
0110
0000
0100
0010
,
1000
0000
0001
1000
0100
0010
0100
1000
0001
0000
0100
0000
0110
0000
0010
0000
,
1000
0010
0100
0000
0001
0000
1000
0001
0010
0001
1000
0000
0100
0000
0100
0000
,
0010
0000
0001
1000
0001
0100
0010
0100
0001
0000
1000
0000
1100
0000
0100
0000
,
0010
0001
1000
0000
0010
0000
1000
0000
0001
0000
0100
0000
0110
0000
0010
0100
,
0001
0000
1000
0001
0010
0100
0010
0001
1000
0000
0010
0000
0110
0000
0100
0000
,
0101
0000
0000
0000
1100
0000
0000
0000
0010
0001
0010
0001
2000
0000
0000
0000
,
3001
0000
1000
0010
0100
0010
1000
0001
0010
0000
0010
0000
0100
0000
0010
0000
,
0001
1000
0010
0000
0100
0000
0001
0000
1000
0000
1000
0000
0100
0000
1000
0100
,
0010
0000
0001
1000
0100
0010
0100
1000
0001
0000
0001
0000
0100
0000
0001
0000
,
1000
0010
0100
0000
0001
0000
1000
0001
0010
0001
1000
0000
0010
0000
1000
0000
,
0100
0000
1000
0001
0100
0001
1000
0100
0010
0000
0010
0000
0001
0000
0010
0000
,
0100
1000
0001
0000
1000
0000
0001
0000
0100
0000
0100
0000
0010
0000
0100
0001
,
1000
0000
0001
1000
0100
0010
0100
1000
0001
0000
0001
0000
0100
0000
0001
0000
,
0010
0000
0100
0000
0010
0000
0001
1000
0010
0000
0010
0000
0010
0000
1000
0000
,
1001
0000
0001
0100
0010
0100
0001
1000
0100
0000
0010
0000
0001
0000
1000
0000
,
0001
1000
0010
0000
0100
0000
0001
0000
1000
0000
1000
0000
0100
0000
1000
0100
,
0010
0000
0001
1000
0100
0010
0100
1000
0001
0000
1000
0000
0010
0000
1000
0000
,
0001
0010
0100
0000
1000
0000
0001
1000
0010
1000
0001
0000
0010
0000
0001
0000
,
1000
0001
0010
0001
1000
0100
0010
0001
1000
0100
1000
0100
1000
0001
0010
0001
,
1000
0010
0100
0001
1000
0001
0100
0010
1000
0001
0100
0001
1000
0010
1000
0001
,
0010
0100
1000
0001
0100
0010
1000
0100
0010
0001
0100
0010
1000
0001
0010
0100
,
1000
0000
1000
0000
1000
1000
1000
0000
,
0001
0010
0001
1000
0100
1000
0001
1000
0010
0100
0001
0100
0010
1000
0001
0010
,
0001
0010
0100
0010
0001
0100
0010
1000
0001
1000
0001
0010
0100
0010
0001
1000
,
0010
0100
0001
1000
0100
0010
0001
1000
0010
0100
0001
1000
0001
0010
0100
1000
,
0001
1000
0100
0010
0001
1000
0100
1000
0001
0100
0010
1000
0001
1000
0010
0100
,
0001
1000
0001
0100
0010
1000
0001
0010
0100
0010
0001
0100
0010
1000
0001
1000
,
0001
0010
0100
0010
0001
0100
0010
1000
0001
0010
0001
0010
0100
0010
0001
1000
,
0010
0100
0001
1000
0100
0010
0001
1000
0010
1000
0100
0010
0100
1000
0001
1000
,
0100
0010
0001
1000
0100
1000
0001
0010
0100
1000
0001
1000
0001
1000
0010
0100
,
0001
0010
0001
1000
0100
1000
0001
1000
0010
0100
0001
0100
0010
1000
0001
0010
,
0001
0010
0100
0010
0001
0100
0010
1000
0001
1000
0001
0010
0100
0010
0001
1000
,
0010
0100
0001
1000
0100
0010
0001
1000
0010
0100
0001
1000
0001
0010
0100
1000
,
0001
1000
0100
0010
0001
1000
0100
1000
0001
0100
0010
1000
0001
1000
0010
0100
,
0001
1000
0001
0100
0010
1000
0001
0010
0100
0010
0001
0100
0010
1000
0001
1000
,
0001
0010
0100
0010
0001
0100
0010
1000
0001
0010
0001
0010
0100
0010
0001
1000
,
0010
0100
0001
1000
0100
0010
0001
1000
0010
1000
0100
0010
0100
1000
0001
1000
,
0100
0010
0001
1000
0100
1000
0001
0010
0100
1000
0001
1000
0001
1000
0010
0100
,
0001
0010
0001
1000
0100
1000
0001
1000
0010
0100
0001
0100
0010
1000
0001
0010
,
0001
0010
0100
0010
0001
0100
0010
1000
0001
1000
0001
0010
0100
0010
0001
1000
,
0010
0100
0001
1000
0100
0010
0001
1000
0010
0100
0001
1000
0001
0010
0100
1000
,
0001
1000
0100
0010
0001
1000
0100
1000
0001
0100
0010
1000
0001
1000
0010
0100
,
0001
1000
0001
0100
0010
1000
0001
0010
0100
0010
0001
0100
0010
1000
0001
1000
,
0001
0010
0100
0010
0001
0100
0010
1000
0001
0010
0001
0010
0100
0010
0001
1000
,
0010
0100
0001
1000
0100
0010
0001
1000
0010
1000
0100
0010
0100
1000
0001
1000
,
0100
0010
0001
1000
0100
1000
0001
0010
0100
1000
0001
1000
0001
1000
0010
0100
,
0001
0010
0001
1000
0100
1000
0001
1000
0010
0100
0001
0100
0010
1000
0001
0010
,
0001
0010
0100
0010
0001
0100
0010
1000
0001
1000
0001
0010
0100
0010
0001
1000
,
0010
0100
0001
1000
0100
0010
0001
1000
0010
0100
0001
1000
0001
0010
0100
1000
,
0001
1000
0100
0010
0001
1000
0100
1000
0001
0100
0010
1000
0001
1000
0010
0100
,
0001
1000
0001
0100
0010
1000
0001
0010
0100
0010
0001
0100
0010
1000
0001
1000
,
0001
0010
0100
0010
0001
0100
0010
1000
0001
0010
0001
0010
0100
0010
0001
1000
,
0010
0100
0001
1000
0100
0010
0100
1000
0010
0100
0001
0010
0001
0010
0100
1000
,
0010
0100
0010
1000
0100
0010
0001
0100
0010
1000
0100
0010
0001
0100
0010
1000
,
0001
0000
0000
0000
,
0000
0000
0000
0000
,
0000
0000
0000
0000
0000
0000
0000
0000
0000
0000
0000
0000
0M00
0000
0000
M00M
0000
0000
00M0
0000
0000
000M
0000
0000
0M00
0000
0000
00M0
0000
0000
000M
0000
0000
00M0
0000
0000
000M
0000
0000
00M0
000M
0000
000M
0000
00M0
0000
000M
0000
,
000M
0000
00M0
000M
000M
0000
000M
0000
000M
0000
000M
0000
000M
0000
0000
00M0
0000
0000
000M
0000
0000
0000
0000
0000
00M0
0000
0000
0000
0000
0000
0000
0000
0000
0000
0000
0000
MMM0
0000
0000
0000
0000
0000
000M
0000
00M0
0000
0000
0000
,
0000
0000
0000
0M00
0000
0000
0000
0000
,
0000
00M0
0000
0000
0000
0000
0000
0000
,
0M00
0000
M000
M000
M000
M000
0000
0000
,
0000
0000
0000
0000
00M0
0000
0000
00M0
0000
00M0
0000
0000
00M0
0000
0M00
0000
,
0000
MM00
0000
0000
0000
0000
0000
0000
0000
0000
0000
0000
0000
0000
0000
0000
,
000M
0000
0M00
0000
,
0000
00M0
0000
0M00
,
0000
0000
0000
00M0
,
000M
00M0
0000
0000
0000
0000
0000
0000
,
1000
0000
0000
0000
0001
0000
0000
0000
1000
0000
0000
0000
0001
0000
1000
0001
,
1000
0001
1000
0001
,
1000
0000
0000
0000
0001
0000
1000
0001
1000
0001
1000
0000
0001
0000
1000
0000
,
1100
0000
0100
0000
0010
0000
0001
1000
,
0000
1000
0010
0100
0000
0100
0001
0010
,
0100
0000
1000
0000
0001
0000
0100
0010
,
0000
0010
1000
0000
0010
0000
0100
0000
,
0001
0000
1000
0000
0100
0000
0010
0001
,
0000
0001
0010
0000
0100
0000
1000
0000
,
1000
0000
0001
0000
0100
0000
0010
1000
,
0000
1000
0010
0000
0100
0000
0001
0000
,
1001
0000
1000
0000
0100
0000
0010
0001
,
0000
0001
0010
0100
0000
0100
1000
0010
,
0100
0000
0001
0000
1000
0000
0100
0010
,
0000
0010
0001
0000
0010
0000
0100
0000
,
1000
0000
0001
0000
0100
0000
0010
1000
,
0000
1000
0010
0000
0100
0000
0001
0000
,
0001
0000
1000
0000
0100
0000
0010
0001
,
0000
0001
0010
0000
0100
0000
1000
0000
,
1001
0000
0000
0000
0000
0000
0001
0000
0000
0100
0000
0000
0000
0000
0000
0010
1000
0010
1000
0000
0000
0010
0000
0000
,
0100
0000
0000
0000
0000
0000
0000
0000
0000
0000
0000
0000
0001
0000
0000
1000
0000
0000
0100
0000
0000
0000
0000
0000
0000
0000
0000
0000
0000
0000
0010
0000
0000
0001
0000
0000
1000
0000
0001
0000
1000
0000
0001
0000
0000
0000
0000
0000
,
0100
0000
0000
0000
0000
0000
0010
0000
0000
0100
0000
0000
0000
0000
0000
0001
0100
0001
0100
0000
0000
0010
0000
0000
,
1000
0000
0000
0000
0000
0000
0000
0000
0000
0000
0000
0000
0001
0000
0000
1000
0000
0000
0100
0000
0000
0000
0000
0000
0000
0000
0000
0000
0000
0000
0010
0000
0000
0001
0000
0000
1000
0000
0001
0000
1000
0000
0001
0000
0000
0000
0000
0000
,
0100
0000
0000
0000
0000
0000
0010
0000
0000
1000
0000
0000
0000
0000
0000
0001
1000
0001
1000
0000
0000
0100
0000
0000
,
0010
0000
0000
0000
0000
0000
0000
0000
0000
0000
0000
0000
0001
0000
0000
0010
0000
0000
0100
0000
0000
0000
0000
0000
0000
0000
0000
0000
0000
0000
1000
0000
0000
0001
0000
0000
1000
0000
0010
0000
1000
0000
0010
0000
0000
0000
0000
0000
,
0100
0000
0000
0000
0000
0000
0001
0000
0000
0100
0000
0000
0000
0000
0000
0010
1000
0010
1000
0000
0000
0001
0000
0000
,
1000
0000
0000
0000
0000
0000
0000
0000
0000
0000
0000
0000
0100
0000
0000
0010
0000
0000
0001
0000
0000
0000
0000
0000
0000
0000
0000
0000
0000
0000
1000
0000
0000
0010
0000
0000
0100
0000
0001
0000
0100
0000
0001
0000
0000
0000
0000
0000
,
1001
0000
0000
0000
0000
0000
1000
0000
0000
0100
0000
0000
0000
0000
0000
1000
0001
1000
0001
0000
0000
1000
0000
0000
,
0010
0000
0000
0000
0000
0000
0000
0000
0000
0000
0000
0000
0100
0000
0000
0001
0000
0000
1000
0000
0000
0000
0000
0000
0000
0000
0000
0000
0000
0000
0100
0000
0000
1000
0000
0000
0001
0000
1000
0000
0001
0000
1000
0000
0000
0000
0000
0000
,
0010
0000
0000
0000
0000
0000
0100
0000
0000
0010
0000
0000
0000
0000
0000
1000
0010
1000
0010
0000
0000
0100
0000
0000
,
0001
0000
0000
0000
0000
0000
0000
0000
0000
0000
0000
0000
1000
0000
0000
0001
0000
0000
0010
0000
0000
0000
0000
0000
0000
0000
0000
0000
0000
0000
0100
0000
0000
1000
0000
0000
0001
0000
1000
0000
0001
0000
1000
0000
0000
0000
0000
0000
,
0010
0000
0000
0000
0000
0000
0100
0000
0000
0001
0000
0000
0000
0000
0000
1000
0001
1000
0001
0000
0000
0010
0000
0000
,
0100
0000
0000
0000
0000
0000
0000
0000
0000
0000
0000
0000
1000
0000
0000
0100
0000
0000
0010
0000
0000
0000
0000
0000
0000
0000
0000
0000
0000
0000
0001
0000
0000
0010
0000
0000
0100
0000
1000
0000
0100
0000
1000
0000
0000
0000
0000
0000
,
0001
1000
0100
0010
0001
1000
0010
0100
0001
0010
0100
1000
0001
1000
0100
0010
,
0001
0100
0010
1000
0001
1000
0010
0100
0001
0010
0100
1000
0010
0100
0001
1000
,
0002
0203
0320
2030
3200
2300
3200
0320
,
0000
0000
0032
0000
1003
0100
1000
0000
0020
0000
0000
0000
0230
0000
0302
0000
,
0023
0000
0230
2300
3020
0000
0230
0302
,
2003
0000
3002
0203
0320
0000
2030
0000
,
3002
2003
3020
0230
0302
2003
3002
0023
,
0000
0000
0230
0000
1300
0100
1000
0000
0002
0000
0000
0000
0203
0000
0320
0000
,
2030
0000
3200
0320
0032
0000
0203
0320
,
2030
0000
3002
2003
0000
3020
0230
0302
,
20M3
3200
0320
0032
0203
0302
0203
0320
,
0000
0000
2030
0000
3001
0100
0001
0000
0020
0000
0000
0000
0230
0000
2300
0000
,
3020
0000
0230
0302
0023
0000
0230
2300
,
3002
0000
2003
3200
0320
0000
0032
0000
,
2003
3002
0023
0230
2300
3002
2003
3020
,
0000
0000
0230
0000
0301
0100
0001
0000
2000
0000
0000
0000
3200
0000
0320
0000
,
0032
0000
0203
0320
2030
0000
3200
0320
,
0032
0000
0000
0000
2003
0000
3002
0000
0000
0000
0023
0000
0230
0000
2300
3000
,
1002
0203
0320
2030
3200
2300
3200
0320
,
0000
0000
0032
0000
1003
0100
1000
0000
0020
0000
0000
0000
0230
0000
0302
0000
,
0023
0000
0230
2300
3020
0000
0230
0302
,
2003
0000
3002
0203
0320
0000
2030
0000
,
3002
2003
3020
0230
0302
2003
3002
0023
,
0000
0000
0230
0000
1300
0100
1000
0000
0002
0000
0000
0000
0203
0000
0320
0000
,
1030
0001
0100
0001
0010
0100
1000
0001
1000
0100
0010
0001
0100
0010
1000
0001
,
0010
0100
1000
0001
0100
0001
1000
0010
1000
0001
1000
0100
0010
0001
0100
0001
,
0020
0230
2300
3002
2003
3200
0320
0032
,
0203
0320
2030
3002
2003
3200
0320
0032
,
0203
0320
2030
3002
2003
3200
0320
0032
,
0203
0320
2030
3002
2003
3200
0320
0032
,
1003
0100
0010
0001
1000
0100
0010
0001
0100
0010
1000
0001
0100
0010
1000
0001
,
1000
0100
0010
0001
1000
0100
0010
0001
0100
0010
1000
0001
0100
0010
1000
0001
,
1000
0100
0010
0001
0100
0010
0100
0001
0010
0100
1000
0010
0100
0010
1000
0100
,
0010
0001
0100
0010
0100
0001
0010
0100
1000
0010
0100
0010
1000
0100
0010
0001
,
0200
0300
0200
0300
0200
0300
0200
0300
0000
0000
0000
0000
0000
0000
0001
0000
,
1000
0100
0010
0001
0010
0001
1000
0100
0010
0100
1000
0001
0100
0010
1000
0001
,
0010
0001
1000
0010
0100
0001
0100
0001
1000
0010
0100
0010
1000
0001
0100
0001
,
1000
0100
0010
0001
0010
0001
1000
0100
0010
0001
1000
0010
0100
0001
0100
0001
,
0010
0100
1000
0001
0010
0001
1000
0100
1000
0001
1000
0010
0100
0001
1000
0001
,
1000
0100
0010
0001
0010
0001
1000
0100
0010
0001
1000
0100
1000
0001
0100
0010
,
1000
0010
0100
0001
1000
0001
1000
0100
0010
0001
0100
0010
1000
0001
1000
0010
,
0100
0001
0010
0100
0010
0001
1000
0100
0010
0001
0010
0100
1000
0001
1000
0100
,
1000
0001
1000
0010
0100
0010
1000
0001
0100
0001
1000
0010
1000
0001
1000
0100
,
0010
0001
1000
0100
1000
0100
0010
0001
1000
0100
0010
0001
0100
0010
1000
0001
,
0010
0001
1000
0001
0100
0010
0100
0010
1000
0001
0100
0010
1000
0001
0100
0001
,
1000
0100
0010
0001
0010
0001
1000
0100
0010
0001
1000
0010
0100
0001
0100
0001
,
0010
0100
1000
0001
0010
0001
1000
0100
1000
0001
1000
0010
0100
0001
1000
0001
,
1000
0100
0010
0001
0010
0001
1000
0100
0010
0001
1000
0100
1000
0001
0100
0010
,
1000
0010
0100
0001
1000
0001
1000
0100
0010
0001
0100
0010
1000
0001
1000
0010
,
1000
0010
0100
0001
1000
0001
0010
0100
0010
0001
1000
0100
1000
0001
0100
0001
,
0010
0100
0010
0001
0100
0010
1000
0001
1000
0001
0100
0010
1000
0100
0010
0001
,
1000
0100
0010
0001
0010
0001
1000
0100
0010
0100
1000
0001
0100
0010
1000
0001
,
0010
0001
1000
0010
0100
0001
0100
0001
1000
0010
0100
0010
1000
0001
0100
0001
,
1000
0100
0010
0001
0010
0001
1000
0100
0010
0001
1000
0010
0100
0001
0100
0001
,
0010
0100
1000
0001
0010
0001
1000
0100
1000
0001
1000
0010
0100
0001
1000
0001
,
1000
0100
0010
0001
0010
0001
1000
0100
0010
0001
1000
0100
1000
0001
0100
0010
,
1000
0010
0100
0001
1000
0001
1000
0100
0010
0001
0100
0010
1000
0001
1000
0010
,
0100
0001
0010
0100
0010
0001
1000
0100
0010
0001
0010
0100
1000
0001
1000
0100
,
1000
0001
1000
0010
0100
0010
1000
0001
0100
0001
1000
0010
1000
0001
1000
0100
,
0010
0001
1000
0100
1000
0100
0010
0001
1000
0100
0010
0001
0100
0010
1000
0001
,
0010
0001
1000
0001
0100
0010
0100
0010
1000
0001
0100
0010
1000
0001
0100
0001
,
1000
0100
0010
0001
0010
0001
1000
0100
0010
0001
1000
0010
0100
0001
0100
0001
,
0010
0100
1000
0001
0010
0001
1000
0100
1000
0001
1000
0010
0100
0001
1000
0001
,
1000
0100
0010
0001
0010
0001
1000
0100
0010
0001
1000
0100
1000
0001
0100
0010
,
1000
0010
0100
0001
1000
0001
1000
0100
0010
0001
0100
0010
1000
0001
1000
0010
,
1000
0010
0100
0001
1000
0001
0010
0100
0010
0001
1000
0100
1000
0001
0100
0001
,
0010
0100
0010
0001
0100
0010
1000
0001
1000
0001
0100
0010
1000
0100
0010
0001
,
1000
0100
0010
0001
0010
0001
1000
0100
0010
0100
1000
0001
0100
0010
1000
0001
,
0010
0001
1000
0010
0100
0001
0100
0001
1000
0010
0100
0010
1000
0001
0100
0001
,
1000
0100
0010
0001
0010
0001
1000
0100
0010
0001
1000
0010
0100
0001
0100
0001
,
0010
0100
1000
0001
0010
0001
1000
0100
1000
0001
1000
0010
0100
0001
1000
0001
,
1000
0100
0010
0001
0010
0001
1000
0100
0010
0001
1000
0100
1000
0001
0100
0010
,
1000
0010
0100
0001
1000
0001
1000
0100
0010
0001
0100
0010
1000
0001
1000
0010
,
0100
0001
0010
0100
0010
0001
1000
0100
0010
0001
0010
0100
1000
0001
1000
0100
,
1000
0001
1000
0010
0100
0010
1000
0001
0100
0001
1000
0010
1000
0001
1000
0100
,
0010
0001
1000
0100
1000
0100
0010
0001
1000
0100
0010
0001
0100
0010
1000
0001
,
0010
0001
1000
0001
0100
0010
0100
0010
1000
0001
0100
0010
1000
0001
0100
0001
,
1000
0100
0010
0001
0010
0001
1000
0100
0010
0001
1000
0010
0100
0001
0100
0001
,
0010
0100
1000
0001
0010
0001
1000
0100
1000
0001
1000
0010
0100
0001
1000
0001
,
1000
0100
0010
0001
0010
0001
1000
0100
0010
0001
1000
0100
1000
0001
0100
0010
,
1000
0010
0100
0001
1000
0001
1000
0100
0010
0001
0100
0010
1000
0001
1000
0010
,
1000
0010
0100
0001
1000
0001
0010
0100
0010
0001
1000
0100
1000
0001
0100
0001
,
0010
0100
0010
0001
0100
0010
1000
0001
1000
0001
0100
0010
1000
0100
0010
0001
,
1000
0100
0010
0001
0010
0001
1000
0100
0010
0100
1000
0001
0100
0010
1000
0001
,
0010
0001
1000
0010
0100
0001
0100
0001
1000
0010
0100
0010
1000
0001
0100
0001
,
1000
0100
0010
0001
0010
0001
1000
0100
0010
0001
1000
0010
0100
0001
0100
0001
,
0010
0100
1000
0001
0010
0001
1000
0100
1000
0001
1000
0010
0100
0001
1000
0001
,
1000
0100
0010
0001
0010
0001
1000
0100
0010
0001
1000
0100
1000
0001
0100
0010
,
1000
0010
0100
0001
1000
0001
1000
0100
0010
0001
0100
0010
1000
0001
1000
0010
,
0100
0001
0010
0100
0010
0001
1000
0100
0010
0001
0010
0100
1000
0001
1000
0100
,
1000
0001
1000
0010
0100
0010
1000
0001
0100
0001
1000
0010
1000
0001
1000
0100
,
0010
0001
1000
0100
1000
0100
0010
0001
1000
0100
0010
0001
0100
0010
1000
0001
,
0010
0001
1000
0001
0100
0010
0100
0010
1000
0001
0100
0010
1000
0001
0100
0001
,
1000
0100
0010
0001
0010
0001
1000
0100
0010
0001
1000
0010
0100
0001
0100
0001
,
0010
0100
1000
0001
0010
0001
1000
0100
1000
0001
1000
0010
0100
0001
1000
0001
,
1000
0100
0010
0001
0010
0001
1000
0100
0010
0001
1000
0100
1000
0001
0100
0010
,
1000
0010
0100
0001
1000
0001
1000
0100
0010
0001
0100
0010
1000
0001
1000
0010
,
1000
0010
0100
0001
1000
0001
0010
0100
0010
0001
1000
0100
1000
0001
0100
0001
,
0010
0100
0010
0001
0100
0010
1000
0001
1000
0001
0100
0010
1000
0100
0010
0001
,
2000
3001
0200
0301
2000
3100
2000
3001
,
0200
0000
0310
0000
2000
0000
3001
0000
0020
0030
0020
0000
0130
0000
2000
0000
,
3001
0000
2000
3000
2000
3000
0200
0300
2000
0000
3001
0000
0200
0300
0200
0300
,
0010
2000
3001
1000
0010
0100
0001
0010
,
0120
0130
1000
2001
3001
0100
0010
1020
,
1030
0100
0010
0021
0031
1000
0010
0120
,
0130
0001
1000
0100
0010
0001
0100
0010
1000
0100
0010
0001
0100
0010
1000
0100
,
0010
0010
0000
0002
0000
0000
1000
1003
,
0001
0000
1000
0100
0010
0001
1000
0001
0010
0000
0100
0000
1100
0000
1000
0000
,
0001
0100
0001
0000
1000
0000
0100
0000
0010
0000
0001
0000
1001
0000
1000
0001
,
0100
0000
0001
1000
0100
0010
0100
1000
0001
0000
1000
0000
1010
0000
0010
0000
,
0100
0001
1000
0000
0100
0000
0010
0001
1000
0001
0010
0000
0100
0000
1000
0000
,
0001
0000
1000
0001
0100
0010
1000
0010
0100
0000
0001
0000
1001
0000
1000
0000
,
0001
0010
0100
0000
1000
0000
0001
0000
1000
0000
0100
0000
0110
0000
0010
0001
,
1000
0000
0001
0100
0010
1000
0001
1000
0010
0000
0100
0000
0101
0000
0001
0000
,
1001
1000
2100
3100
0010
0010
0002
1003
,
0001
0100
0001
0000
1000
0010
1000
0000
0001
0010
0001
0000
0010
0100
0010
0100
,
1000
0100
1000
0000
0001
0100
0001
0000
0010
0100
0010
0000
0001
1000
0001
1000
,
0010
0100
0010
0000
1000
0010
1000
0000
0001
1000
0001
0000
1000
0100
1000
0100
,
0010
0001
0010
0000
0001
1000
0001
0000
1000
0010
1000
0001
1000
0100
0010
0001
,
1000
0001
1000
0000
0001
0100
0001
0000
1000
0100
1000
0000
0001
0010
0001
0010
,
0100
1000
0100
0000
0010
0100
0010
0000
0001
0010
0001
0000
1000
0001
1000
0001
,
0100
0010
0100
0000
0010
1000
0010
0000
0100
0001
0100
0000
0001
1000
0001
1000
,
0200
0000
0300
0000
0010
0000
0000
0000
0001
1000
0001
1000
0010
0000
0000
0000
,
1010
0000
1000
0001
0010
0100
0010
0001
1000
0000
0001
0000
0100
0000
0001
0000
,
1000
0100
0010
0000
0001
0000
1000
0000
0010
0000
0010
0000
0100
0000
0010
0000
,
1000
0000
0001
0010
0100
0010
0001
1000
0100
0000
1000
0000
0001
0000
0100
0000
,
0010
1000
0001
0000
0100
0000
0001
1000
0100
1000
0001
0000
0100
0000
0010
0000
,
1000
0000
0001
0010
0100
0010
0001
1000
0100
0000
1000
0000
0001
0000
0100
0000
,
0010
1000
0001
0000
0100
0000
0001
0000
1000
0000
1000
0000
0100
0000
0010
0001
,
1000
0000
0001
0010
0100
0010
0001
1000
0100
0000
1000
0000
0001
0000
0100
0000
,
0010
0000
1000
0000
0010
0000
0100
0000
0001
0000
1000
0100
0010
0000
0001
0010
,
0100
0000
0010
0001
1000
0001
0100
0001
1000
0000
0001
0000
0010
0000
0001
0000
,
1000
0010
0100
0000
0001
0000
1000
0000
0100
0000
0100
0000
0010
0000
0100
0000
,
1000
0000
0001
0100
0010
0100
0001
1000
0010
0000
1000
0000
0001
0000
0010
0000
,
0100
1000
0001
0000
0010
0000
0001
1000
0010
1000
0001
0000
0010
0000
0100
0000
,
1000
0000
0001
0100
0010
0100
0001
1000
0010
0000
1000
0000
0001
0000
0010
0000
,
0100
1000
0001
0000
0010
0000
0001
0000
1000
0000
1000
0000
0010
0000
0100
0001
,
1000
0000
0001
0100
0010
0100
0001
1000
0010
0000
1000
0000
0001
0000
0010
0000
,
0100
0000
1000
0000
0100
0000
0010
0000
0001
0000
1000
0010
0100
0000
0010
1000
,
0001
1000
0100
0010
0100
1000
0001
0010
0100
0010
0001
1000
0001
0100
0010
1000
,
0001
0100
0001
1000
0010
1000
0100
0010
0001
1000
0001
0010
0001
1000
0010
0100
,
0001
0010
0100
0010
0001
1000
0010
1000
0100
0010
0001
0010
0100
1000
0001
0010
,
0001
1000
0010
1000
0001
0010
0100
0010
0001
1000
0010
1000
0001
0010
0100
1000
,
0001
1000
0010
0100
0010
1000
0001
0100
0010
0100
0001
1000
0001
0010
0100
1000
,
0001
0010
0001
1000
0100
1000
0010
0100
0001
1000
0001
0100
0001
1000
0100
0010
,
0001
0100
0010
0100
0001
1000
0100
1000
0010
0100
0001
0010
0001
0100
0010
1000
,
0001
0010
0100
1000
0001
0010
0100
0010
0001
1000
0100
0010
0001
0010
0100
0010
,
0001
1000
0010
0100
0001
1000
0001
0100
0010
0100
0001
1000
0100
0010
0100
1000
,
0001
0100
0001
1000
0010
1000
0100
0010
0001
1000
0001
0010
0001
1000
0010
0100
,
0001
0010
0100
0010
0001
1000
0010
1000
0100
0010
0001
0010
0100
1000
0001
0100
,
0001
1000
0100
1000
0001
0100
0010
0100
0001
1000
0100
1000
0001
0100
0001
1000
,
0100
0010
0001
1000
0100
0010
0100
1000
0001
0100
0010
1000
0010
0100
0001
1000
,
0100
0010
0001
1000
0100
1000
0001
0010
0001
1000
0010
0100
0001
1000
0010
1000
,
0001
0010
0100
1000
0010
0100
0010
1000
0100
0010
0001
0100
0010
0100
0001
0010
,
0100
1000
0100
1000
0001
1000
0001
1000
,
0010
0100
0010
1000
0100
1000
0001
0010
0001
1000
0100
1000
0010
0100
0001
1000
,
0001
0100
0010
1000
0100
0010
0001
1000
0010
0100
0010
1000
0100
0010
0001
1000
,
0010
0100
0010
1000
0100
1000
0001
0010
0001
1000
0010
1000
0100
0010
0001
1000
,
0010
0100
0010
1000
0100
0010
0100
1000
0001
0100
0010
1000
0100
1000
0001
0100
,
0001
1000
0010
1000
0100
0010
0001
1000
0010
0100
0010
1000
0100
0010
0100
1000
,
0001
0010
0100
1000
0010
0100
0010
1000
0001
0100
0010
1000
0100
0010
0100
1000
,
0001
0100
0010
1000
0100
0010
0001
1000
0010
0100
0010
1000
0100
1000
0001
0100
,
0001
1000
0100
1000
0010
0100
0010
1000
0001
1000
0100
1000
0010
0100
0010
1000
,
0100
0010
0100
1000
0010
1000
0001
0100
0001
1000
0010
1000
0100
0010
0001
1000
,
0001
0010
0100
1000
0010
0100
0001
1000
0100
0010
0100
1000
0010
0100
0001
1000
,
0100
0010
0100
1000
0010
1000
0001
0100
0001
1000
0100
1000
0010
0100
0001
1000
,
0100
0010
0100
1000
0010
0100
0010
1000
0001
0010
0100
1000
0010
1000
0001
0010
,
0001
1000
0100
1000
0010
0100
0001
1000
0100
0010
0100
1000
0010
0100
0010
1000
,
0001
0100
0010
1000
0100
0010
0100
1000
0001
0010
0100
1000
0010
0100
0010
1000
,
0001
0010
0100
1000
0001
0100
0010
0100
0001
0010
0100
1000
0001
0100
0010
0100
,
0001
0010
0100
1000
0010
0100
0010
1000
0001
0010
0100
1000
0010
0100
0010
1000
,
0100
0010
0001
1000
0010
0100
0001
1000
0100
0010
0100
1000
0001
0100
0010
0100
,
0001
1000
0010
1000
0001
0010
0100
1000
0001
0100
0001
1000
0010
0100
0001
1000
,
0100
0010
0001
1000
0010
0100
0010
1000
0001
0010
0100
0010
0001
1000
0010
1000
,
0001
0010
0100
1000
0100
0010
0001
1000
0010
0100
0001
1000
0100
0010
0001
1000
,
0010
0100
0001
1000
0001
0100
0010
0100
0001
0010
0100
1000
0001
0100
0010
1000
,
0001
0010
0100
0010
0001
1000
0100
0010
0001
1000
0010
1000
0001
0100
0010
0100
,
0001
0010
0100
0010
0001
0010
0100
0010
0001
0010
0100
0010
0001
0100
0010
1000
,
0100
0010
0001
0010
0100
0010
0001
0010
0100
0010
0001
1000
0001
0010
0100
1000
,
0010
0100
0001
1000
0100
0010
0001
1000
0010
0100
0010
1000
0001
0010
0100
0010
,
0001
1000
0100
1000
0001
0100
0010
1000
0001
0010
0001
1000
0100
0010
0001
1000
,
0010
0100
0001
1000
0100
0010
0100
1000
0001
0100
0010
0100
0001
1000
0100
1000
,
0001
0100
0010
1000
0010
0100
0001
1000
0100
0010
0001
1000
0010
0100
0001
1000
,
0100
0010
0001
1000
0001
0010
0100
0010
0001
0100
0010
1000
0001
0010
0100
1000
,
0001
0100
0010
0100
0001
1000
0010
0100
0001
1000
0100
1000
0001
0010
0100
0010
,
0001
0100
0010
0100
0001
0100
0010
0100
0001
0100
0010
0100
0001
0100
0010
0100
,
0001
1000
0010
0100
0010
1000
0001
0100
0001
1000
0010
0100
0001
0010
0100
1000
,
0010
0100
0001
1000
0100
0010
0100
1000
0001
0100
0001
1000
0100
0010
0100
1000
,
0001
0010
0100
1000
0001
0100
0010
1000
0001
0010
0001
1000
0100
0010
0100
1000
,
0001
0100
0001
1000
0100
0010
0100
1000
0001
0010
0100
1000
0001
0100
0010
1000
,
0001
0010
0100
0010
0001
1000
0100
1000
0001
0100
0010
1000
0001
0010
0001
1000
,
0010
0100
0010
1000
0001
0010
0100
0010
0001
1000
0010
1000
0001
0010
0100
1000
,
0001
1000
0010
0100
0001
1000
0010
1000
0001
0010
0100
1000
0001
0010
0100
0010
,
0001
1000
0010
1000
0001
1000
0010
1000
0001
1000
0010
1000
0001
0010
0100
1000
,
0010
1000
0001
1000
0010
1000
0001
1000
0010
1000
0001
1000
0010
0100
0001
0010
,
0100
0010
0001
1000
0010
0100
0010
1000
0001
0010
0001
1000
0010
0100
0010
1000
,
0001
0100
0010
1000
0001
0010
0100
1000
0001
0100
0001
1000
0010
0100
0010
1000
,
0001
0010
0001
1000
0010
0100
0010
1000
0001
0100
0010
1000
0001
0010
0100
1000
,
0001
0100
0010
0100
0001
1000
0010
1000
0001
0010
0100
1000
0001
0100
0001
1000
,
0100
0010
0100
1000
0001
0100
0010
0100
0001
1000
0100
1000
0001
0100
0010
1000
,
0001
1000
0100
0010
0001
1000
0100
1000
0001
0100
0010
1000
0001
0100
0010
0100
,
0001
0010
0100
1000
0010
0100
0010
1000
0100
0010
0001
0100
0010
0100
0001
0010
,
0100
1000
0010
0100
0010
1000
0100
0010
0001
0100
0010
0100
0001
0010
0100
1000
,
0002
0000
0000
0000
,
0000
0000
0000
0000
,
0003
0000
0000
0000
;

//---------------dance-single - 15+ (Loak)----------------
#NOTES:
     dance-single:
     15+ (Loak):
     Hard:
     15:
     1.000,1.000,0.031,0.657,1.000,3032.000,13.000,274.000,68.000,0.000:
0000
0000
0000
0000
,
MMMM
0000
0000
0000
,
0000
0000
0000
0000
,
0000
0000
0000
0000
,
0000
0000
0000
0000
,
0000
0000
0000
0000
,
0000
0000
0000
0000
,
0000
0000
0000
0000
,
0000
0000
0000
0000
,
0001
1000
0010
0100
,
0001
0000
0000
0000
1000
0000
0000
0000
0100
0000
0000
0000
0010
0000
0001
1000
,
0001
0100
0010
1000
,
0001
0000
0000
0000
0010
0000
0100
1000
0100
1000
0100
0000
0010
0000
0001
0000
,
1000
0010
0100
0001
,
1000
0000
0000
0000
0100
0000
0000
0000
0010
0000
0000
0000
0001
0000
1000
0010
,
1000
0001
0010
0100
,
2000
0000
3000
0000
0000
0000
0000
0000
0004
0403
0304
0403
0320
0000
0030
0000
,
1000
0000
0001
0000
0010
0100
1000
0100
0010
0000
0001
0000
1000
0000
0000
0000
,
0010
1000
0010
0000
0100
0000
0001
0000
1000
0000
0001
0000
0010
0000
0000
0000
,
0100
0000
1000
0000
0001
0100
0001
1000
0010
0000
1000
0000
0100
0000
0000
0000
,
0010
0001
0010
0000
0001
0000
1000
0000
0002
0000
0103
0000
0020
0000
0130
0000
,
0001
0000
1000
0000
0100
0010
0001
1000
0001
0000
0100
0000
0010
0000
0000
0000
,
0100
0001
0100
0000
0010
0000
1000
0000
0001
0000
0010
0000
0100
0000
0000
0000
,
1000
0000
0001
0000
0100
0010
1000
0010
0100
0000
0001
0000
1000
0000
0000
0000
,
0001
0000
0000
0000
0020
0000
0030
0000
0400
0300
4000
3400
0340
0030
0000
0000
,
0001
0000
1000
0000
0010
0100
0001
0100
0010
0000
1000
0000
0001
0000
0000
0000
,
0010
0001
0010
0000
0100
0000
0010
0000
0001
0000
1000
0000
0010
0000
0000
0000
,
0100
0000
0010
0000
1000
0001
1000
0100
0010
0000
0001
0000
1000
0000
0000
0000
,
0010
1000
0010
0000
0100
0000
0001
0000
2000
0000
3100
0000
0020
0000
0130
0000
,
1000
0000
0001
0000
0100
0010
1000
0001
1000
0000
0100
0000
0010
0000
0000
0000
,
0001
1000
0001
0000
0100
0000
0010
0000
1000
0000
0001
0000
0010
0000
0000
0000
,
0100
0000
1000
0000
0001
1000
0010
1000
0100
0000
0010
0000
0001
0000
0000
0000
,
0100
0000
0000
0000
0010
0000
0000
0000
4000
3004
4003
3004
0023
0000
0030
0000
,
0100
1000
0100
1000
0100
1000
0100
1000
,
0001
0000
0100
0000
0001
0000
0100
0000
0001
0000
0100
0000
0001
0000
1000
0001
,
0010
0001
0010
0001
0010
0001
0010
0001
,
1000
0000
0100
0000
1000
0000
0100
1000
0001
1000
0001
0000
1000
0000
0010
0000
,
0100
0001
0100
0001
0100
0001
0100
0001
,
1000
0000
0010
0000
1000
0000
0010
0000
1000
0000
0010
0000
1000
0000
0010
1000
,
0001
0010
0001
0010
0001
0010
0001
0010
,
0100
0000
0010
0000
0100
0000
1000
0001
1000
0001
0100
0000
0010
0000
1000
0000
,
0100
0000
0100
0000
0000
0100
0000
0010
,
0000
0000
0010
0000
0000
0010
0000
0010
,
0001
0000
0001
0000
0000
0001
0000
0100
,
0000
0000
0100
0000
0000
0100
0000
0100
,
0010
0000
0010
0000
0000
0010
0000
1000
,
0000
0000
1000
0000
0000
1000
0000
1000
,
0001
0000
0001
0000
0000
0001
0000
0020
,
M13M
0000
1000
0000
0010
0010
0100
0000
,
0001
1000
0010
1000
0001
0010
0100
2000
,
0000
0000
3001
0000
0100
0010
0100
0000
0002
0000
0000
0000
1003
0000
0200
0000
,
0010
0300
1000
0200
0010
0300
0001
0010
,
0200
0000
2300
0000
3002
0000
0103
0100
,
0010
0100
0001
1000
0100
0010
0100
2000
,
0000
0000
3001
0000
0100
0010
0100
0000
0002
0000
0000
0000
1003
0000
0020
0000
,
0100
0030
1000
0020
0100
0031
0001
1000
,
0200
0000
0000
0000
0310
0000
0010
0000
0001
0000
1000
0001
1000
0000
0010
0100
,
0001
1000
0100
0010
0100
1000
0001
0200
,
0000
0000
0310
0000
1000
0001
1000
0000
0002
0000
0000
0000
0013
0000
0200
0000
,
1000
0300
0010
0200
1000
0300
0001
1000
,
0020
0000
0230
0000
0302
0000
1003
1000
,
0100
0010
0001
0010
0100
1000
0001
0200
,
0000
0000
0310
0000
1000
0100
1000
0000
0002
0000
0000
0000
0103
0000
0020
0000
,
1000
0030
0100
0020
1000
0031
0001
0010
,
0200
0000
0000
0000
1300
0000
1000
0000
0001
0000
0100
0010
0100
0000
0001
1000
,
0100
1000
0001
0100
0010
0100
0001
2000
,
0000
0000
3100
0000
0010
0001
0010
0000
0200
0000
0000
0000
1300
0000
0002
0000
,
0100
0003
1000
0002
0100
0003
0001
0010
,
0200
0000
2300
0000
3002
0000
1003
1000
,
0010
0100
0001
1000
0100
1000
0001
0200
,
0000
0000
0310
0000
1000
0001
1000
0000
0200
0000
0000
0000
0310
0000
0002
0000
,
1000
0000
0003
0000
0010
0000
0002
0000
1000
0003
0001
0000
0001
0000
0100
0000
,
0020
0000
0000
0000
1030
0000
1000
0000
0100
0000
0010
0001
0010
0000
0100
1000
,
0001
0100
0010
1000
0001
1000
0100
0020
,
0000
0000
0031
0000
1000
0100
1000
0000
0002
0000
0000
0000
1003
0000
0002
0000
,
0100
0003
1000
0002
0100
0003
0001
0100
,
0020
0000
2030
0000
3002
0000
0013
0010
,
0100
0000
0000
1000
0000
0000
0010
0000
1000
0000
0001
0010
0000
0001
0010
0000
,
0100
0000
0000
1000
0000
0000
0001
0000
0100
0000
0010
1000
0000
0010
1000
0000
,
0001
0000
1000
0100
0000
1000
0100
0000
0010
0000
0001
1000
0000
0001
1000
0000
,
0010
1000
0001
1000
0001
0100
0001
0000
1000
0001
1000
0001
0010
0000
0001
0000
,
2002
0000
0000
0000
,
3003
0000
0000
0000
,
0000
0000
0000
0000
0000
0000
000M
00M0
M000
0M00
M00M
00M0
00M0
0M00
0M00
0M00
,
M000
0000
M000
0000
M000
0000
M000
0000
M00M
00M0
M000
0000
000M
0M00
0000
0000
M000
0000
0000
0000
0000
0000
0000
0000
0000
0M00
00M0
0000
0000
0000
0000
0000
,
000M
000M
000M
000M
0000
0000
0000
0000
0000
0000
0000
0000
0000
0000
0000
0000
,
0000
0000
0M00
0M00
0000
0000
0000
0000
0000
0000
0000
0000
0000
0000
0000
0000
,
0000
0000
0000
0000
0000
0M00
000M
000M
000M
0000
0000
0000
0000
0000
0000
0000
,
0000
0000
0000
0000
M000
0000
0000
0000
00M0
0000
000M
0000
0000
0M00
0000
00MM
,
M000
M000
M000
00M0
0000
0000
0000
0000
000M
0000
0000
0000
0000
0000
0000
0000
,
0M00
0000
0000
0000
0000
0000
0000
0000
00M0
0000
0000
00M0
0000
0000
0000
0000
,
0000
0000
0000
M000
0000
0M00
00M0
0000
0000
0000
0000
0000
0000
000M
0000
0000
,
0000
0000
0000
0000
0000
0000
0000
0000
0000
0000
0M00
0M00
000M
M000
0000
0000
,
0000
M000
M000
0000
0000
0000
0000
0000
0000
0000
0000
0000
0000
0000
0000
0000
,
0000
0000
0000
0000
,
0000
0000
0000
00M0
,
0000
0000
0000
0000
0000
00M0
0000
0000
,
0001
0000
1000
0000
0010
0000
0100
0010
,
0000
0010
1000
0000
0100
0000
0010
0000
,
0100
0000
1000
0000
0001
0000
0100
0010
,
0000
0010
0100
0000
0001
0000
1000
0000
,
0100
0000
0010
0000
0001
0000
1000
0010
,
0000
0010
0100
0000
0001
0000
0100
0000
,
0010
0000
1000
0000
0001
0000
0010
0100
,
0000
0100
1000
0000
0001
0000
1000
0000
,
0010
0000
0100
0000
0001
0000
1000
0001
,
0000
0001
0010
0000
0100
0000
0010
0000
,
0001
0000
1000
0000
0010
0000
0100
0001
,
0000
0001
1000
0000
0001
0000
0010
0000
,
0100
0000
1000
0000
0001
0000
0100
0001
,
0000
0001
1000
0000
0010
0000
1000
0000
,
0100
0000
0010
0000
0001
0000
0100
0010
,
0000
0010
0100
0000
0001
0000
1000
0000
,
0001
0000
0000
0000
0000
0000
0100
0000
0000
0001
0000
0000
0000
0000
0000
1000
0001
1000
0001
0000
0000
0100
0000
0000
,
0010
0000
0000
0000
0000
0000
0000
0000
0000
0000
0000
0000
1000
0000
0000
0010
0000
0000
0100
0000
0000
0000
0000
0000
0000
0000
0000
0000
0000
0000
0001
0000
0000
1000
0000
0000
0001
0000
0100
0000
0001
0000
0100
0000
0000
0000
0000
0000
,
0010
0000
0000
0000
0000
0000
1000
0000
0000
0001
0000
0000
0000
0000
0000
1000
0100
1000
0100
0000
0000
0010
0000
0000
,
0001
0000
0000
0000
0000
0000
0000
0000
0000
0000
0000
0000
1000
0000
0000
0001
0000
0000
0100
0000
0000
0000
0000
0000
0000
0000
0000
0000
0000
0000
0001
0000
0000
0010
0000
0000
0001
0000
1000
0000
0001
0000
1000
0000
0000
0000
0000
0000
,
0100
0000
0000
0000
0000
0000
1000
0000
0000
0010
0000
0000
0000
0000
0000
0100
0001
0100
0001
0000
0000
1000
0000
0000
,
0010
0000
0000
0000
0000
0000
0000
0000
0000
0000
0000
0000
1000
0000
0000
0001
0000
0000
0010
0000
0000
0000
0000
0000
0000
0000
0000
0000
0000
0000
0100
0000
0000
1000
0000
0000
0001
0000
1000
0000
0001
0000
1000
0000
0000
0000
0000
0000
,
0001
0000
0000
0000
0000
0000
0100
0000
0000
0010
0000
0000
0000
0000
0000
1000
0010
1000
0010
0000
0000
0100
0000
0000
,
0001
0000
0000
0000
0000
0000
0000
0000
0000
0000
0000
0000
1000
0000
0000
0100
0000
0000
0010
0000
0000
0000
0000
0000
0000
0000
0000
0000
0000
0000
0001
0000
0000
0010
0000
0000
0001
0000
1000
0000
0001
0000
1000
0000
0000
0000
0000
0000
,
0010
0000
0000
0000
0000
0000
0100
0000
0000
0001
0000
0000
0000
0000
0000
1000
0100
1000
0100
0000
0000
0010
0000
0000
,
0001
0000
0000
0000
0000
0000
0000
0000
0000
0000
0000
0000
1000
0000
0000
0001
0000
0000
0100
0000
0000
0000
0000
0000
0000
0000
0000
0000
0000
0000
0001
0000
0000
1000
0000
0000
0001
0000
0010
0000
0001
0000
0010
0000
0000
0000
0000
0000
,
0100
0000
0000
0000
0000
0000
1000
0000
0000
0001
0000
0000
0000
0000
0000
0100
0001
0100
0001
0000
0000
1000
0000
0000
,
0010
0000
0000
0000
0000
0000
0000
0000
0000
0000
0000
0000
0100
0000
0000
0001
0000
0000
1000
0000
0000
0000
0000
0000
0000
0000
0000
0000
0000
0000
0001
0000
0000
1000
0000
0000
0010
0000
1000
0000
0010
0000
1000
0000
0000
0000
0000
0000
,
0001
0000
0000
0000
0000
0000
0100
0000
0000
0001
0000
0000
0000
0000
0000
1000
0001
1000
0001
0000
0000
0010
0000
0000
,
0100
0000
0000
0000
0000
0000
0000
0000
0000
0000
0000
0000
1000
0000
0000
0001
0000
0000
0010
0000
0000
0000
0000
0000
0000
0000
0000
0000
0000
0000
0001
0000
0000
1000
0000
0000
0001
0000
0100
0000
0001
0000
0100
0000
0000
0000
0000
0000
,
0010
0000
0000
0000
0000
0000
1000
0000
0000
0001
0000
0000
0000
0000
0000
0010
0001
0010
0001
0000
0000
1000
0000
0000
,
0010
0000
0000
0000
0100
0001
1000
0000
0000
0000
0002
0000
2003
0000
3020
0000
,
0230
0320
2030
3002
0023
0230
2300
3020
,
0000
0230
0302
2003
3002
0000
0023
0230
,
2000
3000
0320
0230
2000
3000
0320
0032
,
2003
0000
3020
0230
0302
0000
2003
0000
,
3020
2030
3200
0320
0032
2003
3020
0230
,
0000
0320
2030
3002
0023
0000
0230
2300
,
0002
0003
3200
2300
0002
0003
3200
2300
,
0002
0003
3020
0230
0000
0302
0203
0320
,
2030
3020
0230
0302
0023
0230
2300
3020
,
0000
0230
0302
2003
3002
0000
0023
0230
,
2000
3000
0320
0230
2000
3000
0320
0032
,
0203
0000
0302
0023
0032
0000
2003
0000
,
3020
2030
3200
0320
0032
2003
3020
0230
,
0000
0320
2030
3002
0023
0000
0230
2300
,
0002
0003
3200
2300
0002
0003
3200
2300
,
0002
0003
3020
0230
0000
0302
0203
0320
,
2030
3020
0230
0302
0023
0230
2300
3020
,
0000
0230
0302
2003
3002
0000
0023
0230
,
2000
3000
0320
0230
2000
3000
0320
0032
,
2003
0000
3020
0230
0302
0000
2003
0000
,
3020
2030
3200
0320
0032
2003
3020
0230
,
0000
0320
2030
3002
0023
0000
0230
2300
,
0002
0003
3200
2300
0002
0003
3200
2300
,
0002
0003
3020
0230
0000
0302
0203
0320
,
2030
3200
0320
0032
2003
3020
0230
0302
,
2003
3200
0320
0032
2003
3020
0230
0302
,
2003
3200
0320
0032
2003
3020
0230
0302
,
2003
3200
0320
0032
2003
3020
0230
0302
,
1003
0010
0100
0001
1000
0001
0100
0001
0010
0100
1000
0001
1000
0100
0010
0100
,
1000
0001
0100
0001
1000
0010
0100
0010
1000
0001
0010
0100
0010
0001
1000
0010
,
4000
0004
0000
0000
0000
0000
0000
0000
0000
0000
0000
0000
0000
0000
0000
0000
0000
0000
0000
0000
0000
0000
0000
0000
,
0000
0000
0000
0000
0000
0000
0000
0000
0000
0000
0000
3003
,
0101
0000
1001
0000
1100
0000
1001
0000
0000
0000
0000
0000
0000
0000
0001
0100
,
0010
0100
0001
1000
0001
0010
0100
1000
0001
1000
0100
1000
0010
0100
0001
1000
,
0001
0100
0010
1000
0001
1000
0100
0010
0001
1000
0001
0100
0010
0100
0001
1000
,
0100
0010
0001
0100
0001
1000
0010
0100
0010
1000
0001
1000
0100
0010
0001
1000
,
0001
0100
0010
0100
0010
1000
0001
1000
0100
0010
0001
0100
0001
1000
0010
0100
,
0010
1000
0001
1000
0100
0010
0100
1000
0001
0010
0001
0100
0010
1000
0001
1000
,
0100
0010
0001
1000
0001
0100
0010
0100
0001
1000
0100
0010
0001
1000
0001
1000
,
0100
1000
0010
0100
0001
1000
0001
0100
0010
1000
0001
1000
0010
0100
0001
1000
,
0100
0010
0001
1000
0001
0000
1000
0000
0001
0000
1000
0100
0010
0000
0001
0100
,
0010
1000
0010
1000
0001
0100
0001
1000
0100
0010
0001
1000
0001
0100
0010
0100
,
0010
1000
0001
1000
0100
1000
0010
0100
0001
0100
0001
1000
0100
0010
0001
0010
,
0001
1000
0010
0100
0010
1000
0001
0100
0001
1000
0100
0010
0100
1000
0001
0100
,
0001
1000
0010
0100
0010
1000
0001
0010
0100
0010
0100
1000
0001
1000
0010
0100
,
0010
1000
0001
0100
0001
0010
0100
1000
0001
1000
0010
0100
0001
0100
0010
1000
,
0001
1000
0100
0010
0100
0010
0001
1000
0010
0100
0010
1000
0001
1000
0100
0010
,
0001
1000
0001
0100
0010
0100
0001
1000
0100
1000
0010
0100
0001
0010
0001
1000
,
0010
0100
0001
1000
0001
0000
0100
0000
0001
0000
1000
0010
0100
0000
0001
0010
,
0100
1000
0001
1000
0010
0100
0010
1000
0001
1000
0100
0010
0001
1000
0001
0100
,
0010
0100
0001
1000
0001
1000
0100
0010
0001
1000
0001
0100
0010
0100
0001
1000
,
0010
0100
0010
1000
0100
0010
0001
0100
0001
1000
0100
1000
0001
1000
0010
0100
,
0001
0100
0010
1000
0001
1000
0100
0010
0100
0010
0001
1000
0001
0100
0001
1000
,
0010
0100
0001
1000
0100
0010
0001
0100
0001
1000
0001
0100
0010
1000
0001
1000
,
0010
0100
0001
1000
0001
0010
0100
1000
0001
1000
0100
1000
0010
0100
0001
1000
,
0001
0100
0010
1000
0001
1000
0100
0010
0001
1000
0001
0100
0010
0100
0001
1000
,
0001
0010
0100
1000
0001
0000
1000
0000
0001
0000
1000
0010
0100
0000
0001
0010
,
0100
1000
0001
1000
0010
0100
0001
1000
0001
0010
0100
1000
0001
1000
0010
1000
,
0001
0100
0001
1000
0100
0010
0001
1000
0001
0100
0010
0100
0001
1000
0010
1000
,
0001
0100
0001
0010
0100
1000
0001
1000
0010
0100
0010
1000
0001
1000
0001
0010
,
0100
0010
0001
1000
0001
0100
0001
1000
0010
1000
0010
0100
0001
0100
0010
1000
,
0001
1000
0100
0010
0100
0010
0001
1000
0001
0100
0010
1000
0001
0010
0100
1000
,
0001
0100
0010
0100
0001
1000
0001
0100
0010
1000
0001
0100
0001
1000
0100
1000
,
0100
0010
0001
1000
0001
0100
0010
1000
0001
1000
0010
0100
0001
1000
0001
0010
,
0100
0010
0100
1000
0001
0000
0100
0000
0001
0000
1000
0100
0010
0000
0001
0100
,
0010
1000
0001
1000
0001
0100
0010
1000
0100
0010
0001
1000
0001
0100
0010
1000
,
0001
1000
0100
0010
0001
1000
0001
0100
0010
0100
0010
1000
0001
1000
0010
0100
,
0001
1000
0001
0100
0010
1000
0001
0010
0100
0010
0100
1000
0001
1000
0010
0100
,
0010
1000
0001
0010
0100
0010
0001
1000
0001
0100
0010
1000
0010
0100
0001
0010
,
0100
1000
0100
1000
0001
0100
0010
0100
0010
1000
0001
0100
0001
1000
0100
0010
,
0001
0100
0001
1000
0010
0100
0010
1000
0001
1000
0100
0010
0100
1000
0001
0100
,
0010
1000
0010
0100
0001
0100
0001
1000
0100
0010
0001
1000
0001
0100
0010
0100
,
0001
1000
0010
1000
0001
0000
1000
0000
0010
0000
0100
0001
1000
0000
0100
0010
,
0001
1000
0001
0100
0010
1000
0010
0100
0001
1000
0001
0010
0100
0010
0100
1000
,
0001
1000
0001
0100
0010
1000
0001
0100
0001
0010
0100
1000
0001
1000
0100
1000
,
0010
0100
0001
1000
0001
1000
0010
0100
0001
0010
0100
0010
0001
1000
0001
0100
,
0010
1000
0001
1000
0100
0010
0001
1000
0001
0100
0010
1000
0010
0100
0001
1000
,
0001
0010
0100
0010
0100
1000
0001
1000
0010
0100
0001
1000
0001
0100
0001
0010
,
0100
1000
0001
1000
0010
1000
0001
0100
0001
1000
0100
0010
0001
1000
0001
0100
,
0010
1000
0001
0100
0001
1000
0100
0010
0100
1000
0001
0100
0010
0100
0001
1000
,
0001
0100
0001
1000
0100
0000
0010
0000
0001
0000
1000
0100
0010
0000
0001
0100
,
0010
1000
0001
1000
0010
0100
0001
1000
0100
0010
0100
0010
0001
1000
0001
0100
,
0010
1000
0001
0100
0001
1000
0100
0010
0001
1000
0100
1000
0001
1000
0010
0100
,
0001
1000
0010
0100
0010
1000
0001
0100
0001
1000
0100
0010
0001
0100
0001
1000
,
0010
1000
0001
0100
0001
0010
0100
1000
0001
0100
0010
1000
0001
0100
0001
1000
,
0010
0100
0010
1000
0100
0010
0001
1000
0001
0100
0010
0100
0010
1000
0001
1000
,
0100
0010
0001
0010
0001
1000
0001
0100
0010
0100
0001
1000
0010
0100
0001
1000
,
0001
0010
0100
0010
0001
1000
0001
0100
0010
1000
0001
1000
0100
0010
0001
1000
,
0001
0100
0010
1000
0010
0000
0100
0000
0001
0000
1000
0010
0100
0000
0001
0010
,
0100
1000
0001
1000
0010
0100
0001
1000
0100
0010
0100
0010
0001
1000
0001
0100
,
0010
1000
0010
1000
0001
0100
0001
0010
0100
1000
0001
1000
0010
0100
0001
1000
,
0001
0100
0010
0100
0001
1000
0001
0010
0100
1000
0001
1000
0010
0100
0010
1000
,
0001
1000
0100
0010
0001
1000
0001
0100
0010
1000
0010
0100
0001
1000
0100
0010
,
0001
0100
0001
0100
0010
1000
0010
1000
,
0001
0010
0001
0010
0100
1000
0100
1000
,
0004
4000
0000
0000
0000
0000
0000
0000
0000
0000
0000
0000
0000
0000
0000
0000
0000
0000
0000
0000
0000
0000
0000
0000
,
0000
0000
0000
0000
0000
0000
0000
0000
0000
0000
0000
0000
0000
0000
0000
0000
0000
0000
0000
0000
0000
0000
0000
3003
,
0010
0100
0001
1000
0100
1000
0001
0100
,
0010
1000
0001
0010
0100
0010
0001
1000
,
0010
0100
0001
1000
0100
0010
0001
1000
,
0001
0100
0010
0100
0001
0010
0100
1000
,
0001
1000
0001
1000
0100
0010
0100
0010
,
0001
1000
0001
1000
0010
0100
0010
0100
,
0001
0010
0100
1000
0001
0100
0010
1000
0100
1000
0001
0100
0010
1000
0001
0100
,
0001
1000
0000
0000
0000
0000
0000
0000
,
0001
0000
1000
0000
0100
0010
0001
0010
0100
0000
1000
0000
0001
0000
0000
0000
,
0100
0001
0100
0000
0010
0000
1000
0000
0100
0000
0010
0000
0001
0000
0000
0000
,
1000
0000
0010
0000
0100
0001
1000
0001
0010
0000
0100
0000
1000
0000
0000
0000
,
0001
0100
0001
0000
1000
0000
0100
0010
0100
0010
0001
0000
1000
0000
0001
0000
,
0100
0000
0010
0000
1000
0001
1000
0100
0010
0000
0001
0000
0100
0000
0000
0000
,
0010
1000
0010
0000
0100
0000
0001
0000
1000
0000
0100
0000
0010
0000
0001
1000
,
0001
0000
0100
0000
0010
1000
0001
1000
0100
0000
0010
0000
0001
0000
0000
0000
,
0100
0000
0000
0000
0020
0000
0030
0000
4000
3000
0004
0043
0430
0300
0000
0000
,
1000
0000
0010
0000
0100
0000
0001
0000
1000
0000
0001
0000
0100
0000
0010
1000
,
0010
0000
1000
0000
0001
0000
0010
0000
0100
0000
0010
0000
0001
0000
1000
0100
,
1000
0000
0001
0000
0100
0000
0010
0000
1000
0000
0001
0000
0100
0000
0001
1000
,
0001
0000
0010
0000
0100
0000
0010
0000
0002
0003
2000
3000
0020
0030
0100
0001
,
0100
0000
0010
0000
1000
0000
0001
0000
0010
0000
0100
0000
0010
0000
0001
1000
,
0001
0000
0100
0000
0010
0000
0100
0000
0001
0000
1000
0000
0100
0000
1000
0010
,
1000
0000
0100
0000
0010
0000
0001
0000
0100
0000
0001
0000
1000
0000
0010
0100
,
0020
0000
0030
0000
0000
0000
0000
0000
4000
3400
4300
3400
0320
0000
0030
0000
,
0001
0000
0100
0000
0010
1000
0001
1000
0100
0000
0010
0000
0001
0000
1000
0000
,
0010
0100
0010
0000
1000
0000
0001
0000
0010
0000
0100
0000
0010
0000
0001
0000
,
1000
0000
0001
0000
0100
0010
1000
0001
1000
0000
0001
0000
0010
0000
0001
0000
,
1000
0100
1000
0000
0010
0000
0100
0001
1000
0001
1000
0000
0010
0000
0100
0000
,
0001
0000
1000
0000
0100
0010
0001
0010
0100
0000
1000
0000
0001
0000
0100
0000
,
0010
1000
0010
0000
0100
0000
0001
0000
1000
0000
0001
0000
0010
0000
0100
0000
,
0010
0000
0001
0000
1000
0001
1000
0010
0100
0000
0001
0000
1000
0000
0001
0000
,
0020
0000
0130
0000
2000
0000
3001
0000
0200
0000
0301
0010
0100
0000
1000
0001
,
0100
0000
0010
0000
1000
0001
1000
0010
0100
0000
0001
0000
0010
0000
0100
0000
,
0010
0001
0010
0000
0001
0000
1000
0000
0010
0000
0100
0000
0010
0000
1000
0000
,
0001
0000
0010
0000
0100
1000
0001
1000
0010
0000
0100
0000
0001
0000
1000
0000
,
0001
0100
0001
0000
1000
0000
0100
0010
0001
0010
0001
0000
1000
0000
0010
0000
,
0100
0000
0001
0000
1000
0100
0010
0100
1000
0000
0001
0000
0100
0000
0010
0000
,
1000
0010
1000
0000
0001
0000
0100
0000
0001
0000
0010
0000
0100
0000
1000
0000
,
0001
0000
0100
0000
0010
1000
0001
1000
0010
0000
0100
0000
0001
0000
0100
0000
,
0020
0000
1030
0000
0002
0000
0013
0000
0200
0000
1300
0100
0010
0000
0001
0100
,
0010
1000
0010
1000
0001
0010
0100
2000
,
0000
0000
3001
0000
0100
0010
0100
0000
0002
0000
0000
0000
1003
0000
0200
0000
,
0010
0300
1000
0200
0010
0300
0001
0010
,
0200
0000
2300
0000
3002
0000
0103
0100
,
0010
0100
0001
1000
0100
0010
0100
2000
,
0000
0000
3001
0000
0100
0010
0100
0000
0002
0000
0000
0000
1003
0000
0020
0000
,
0100
0030
1000
0020
0100
0031
0001
1000
,
0200
0000
0310
0000
0001
0000
1000
0000
0001
0100
0001
0100
0001
0000
1000
0000
,
0001
1000
0100
0010
0100
1000
0001
0200
,
0000
0000
0310
0000
1000
0001
1000
0000
0002
0000
0000
0000
0013
0000
0200
0000
,
1000
0300
0010
0200
1000
0300
0001
0100
,
0020
0000
2030
0000
3002
0000
1003
1000
,
0001
0100
0001
0100
0001
0100
0001
0100
,
0010
1000
0010
1000
0010
1000
0010
1000
,
0004
4000
0000
0000
0000
0000
0000
0000
0000
0000
0000
0000
0000
0000
0000
0000
0000
0000
0000
0000
0000
0000
0000
0000
,
3MM3
0000
0000
0000
,
1000
0100
0010
0001
0100
0010
1000
0001
0100
0001
1000
0100
0010
0001
0100
0010
,
1000
0001
1000
0100
0010
0100
1000
0001
0100
0010
0100
0001
1000
0001
0010
0100
,
1000
0001
1000
0010
0100
0010
1000
0001
1000
0100
0010
0001
1000
0001
0100
0010
,
1000
0100
1000
0001
0100
0010
0100
0010
1000
0001
1000
0100
0010
0001
1000
0001
,
0100
0010
0100
0001
1000
0010
1000
0100
0010
0001
1000
0001
0100
0010
1000
0001
,
0010
0100
0010
0100
1000
0001
0100
0001
1000
0010
0100
0001
1000
0001
0010
0100
,
1000
0001
0100
0001
1000
0010
1000
0001
0010
0100
0010
0001
1000
0001
0100
0010
,
1000
0001
0100
0001
1000
0000
0001
0000
1000
0000
0100
0010
0001
0000
1000
0010
,
0100
0001
1000
0010
0100
0010
1000
0001
0010
0100
0010
0100
1000
0001
0100
0001
,
1000
0010
0100
0010
1000
0001
0100
0001
0010
0100
1000
0001
1000
0010
0100
0010
,
1000
0001
0010
0001
0100
0001
1000
0010
0100
0010
1000
0001
0010
0100
1000
0001
,
0100
0001
1000
0001
0010
0100
1000
0001
1000
0010
0100
0010
1000
0001
0100
0001
,
0010
0100
1000
0001
1000
0001
0100
0010
1000
0001
0100
0001
1000
0100
0010
0100
,
1000
0001
0100
0001
1000
0010
0100
0010
1000
0001
0010
0100
1000
0001
1000
0100
,
4000
0004
0000
0000
0000
0000
0000
0000
0000
0000
0000
0000
0000
0000
0000
0000
0000
0000
0000
0000
0000
0000
0000
0000
,
0000
0000
0000
0000
0000
0000
0000
0000
0000
0000
0000
0000
0000
0000
0000
0000
0000
0000
0000
0000
0000
0000
0000
3003
,
0100
0010
1000
0001
1000
0100
0010
0001
1000
0001
0010
0001
0100
0010
1000
0001
,
1000
0010
0100
0001
1000
0001
0010
0100
1000
0001
1000
0010
0100
0010
1000
0001
,
0010
0100
1000
0010
1000
0001
0100
0010
0100
0001
1000
0001
0010
0100
1000
0001
,
1000
0010
0100
0010
0100
0001
1000
0001
0010
0100
1000
0010
1000
0001
0100
0010
,
0100
0001
1000
0001
0010
0100
0010
0001
1000
0100
1000
0010
0100
0001
1000
0001
,
0010
0100
1000
0001
1000
0010
0100
0010
1000
0001
0010
0100
1000
0001
1000
0001
,
0010
0001
0100
0010
1000
0001
1000
0010
0100
0001
1000
0001
0100
0010
1000
0001
,
0010
0100
1000
0001
1000
0000
0001
0000
1000
0000
0001
0010
0100
0000
1000
0010
,
0100
0001
0100
0001
1000
0010
1000
0001
0010
0100
1000
0001
1000
0010
0100
0010
,
0100
0001
1000
0001
0010
0001
0100
0010
1000
0010
1000
0001
0010
0100
1000
0100
,
1000
0001
0100
0010
0100
0001
1000
0010
1000
0001
0010
0100
0010
0001
1000
0010
,
1000
0001
0100
0010
0100
0001
1000
0100
0010
0100
0010
0001
1000
0001
0100
0010
,
0100
0001
1000
0010
1000
0100
0010
0001
1000
0001
0100
0010
1000
0010
0100
0001
,
1000
0001
0010
0100
0010
0100
1000
0001
0100
0010
0100
0001
1000
0001
0010
0100
,
1000
0001
1000
0010
0100
0010
1000
0001
0010
0001
0100
0010
1000
0100
1000
0001
,
0100
0010
1000
0001
1000
0000
0010
0000
1000
0000
0001
0100
0010
0000
1000
0100
,
0010
0001
1000
0001
0100
0010
0100
0001
1000
0001
0010
0100
1000
0001
1000
0010
,
0100
0010
1000
0001
1000
0001
0010
0100
1000
0001
1000
0010
0100
0010
1000
0001
,
0100
0010
0100
0001
0010
0100
1000
0010
1000
0001
0010
0001
1000
0001
0100
0010
,
1000
0010
0100
0001
1000
0001
0010
0100
0010
0100
1000
0001
1000
0010
1000
0001
,
0100
0010
1000
0001
0010
0100
1000
0010
1000
0001
1000
0010
0100
0001
1000
0001
,
0100
0010
1000
0001
1000
0100
0010
0001
1000
0001
0010
0001
0100
0010
1000
0001
,
1000
0010
0100
0001
1000
0001
0010
0100
1000
0001
1000
0010
0100
0010
1000
0001
,
1000
0100
0010
0001
1000
0000
0001
0000
1000
0000
0001
0100
0010
0000
1000
0100
,
0010
0001
1000
0001
0100
0010
1000
0001
1000
0100
0010
0001
1000
0001
0100
0001
,
1000
0010
1000
0001
0010
0100
1000
0001
1000
0010
0100
0010
1000
0001
0100
0001
,
1000
0010
1000
0100
0010
0001
1000
0001
0100
0010
0100
0001
1000
0001
1000
0100
,
0010
0100
1000
0001
1000
0010
1000
0001
0100
0001
0100
0010
1000
0010
0100
0001
,
1000
0001
0010
0100
0010
0100
1000
0001
1000
0010
0100
0001
1000
0100
0010
0001
,
1000
0010
0100
0010
1000
0001
1000
0010
0100
0001
1000
0010
1000
0001
0010
0001
,
4000
0004
0000
0000
0000
0000
0000
0000
0000
0000
0000
0000
0000
0000
0000
0000
0000
0000
0000
0000
0000
0000
0000
0000
,
0000
0000
0000
0000
0000
0000
0000
0000
0000
0000
0000
0000
0000
0000
0000
0000
0000
0000
0000
0000
0000
0000
0000
3003
,
0020
0000
0000
0000
,
0030
0000
0000
0000
;

//---------------dance-single - Oh Henry!----------------
#NOTES:
     dance-single:
     Oh Henry!:
     Edit:
     17:
     1.000,1.000,0.060,0.664,1.000,4061.000,25.000,277.000,0.000,0.000:
0000
0000
0000
0000
,
2002
3003
0001
0100
0001
0100
0001
0100
,
0010
0000
1000
0000
0010
0000
1000
0000
0010
0000
1000
0000
0010
0000
1000
0001
,
0010
0001
0010
0001
0010
0001
0010
0001
,
1000
0000
0100
0000
1000
0000
0100
1000
0001
1000
0010
0000
0100
0000
0100
0000
,
0001
1000
0001
1000
0001
1000
0001
1000
,
0010
0000
0100
0000
0010
0000
0100
0000
0010
0000
0100
0000
0010
0000
0100
0001
,
1000
0100
1000
0100
1000
0100
1000
0100
,
0010
0000
0001
0000
0010
0000
0001
1000
0001
0010
0001
0000
1000
0000
1000
0000
,
0010
0100
0010
0100
0010
0100
0010
0100
,
0001
0000
0100
0000
0001
0000
0100
0000
0001
0000
0100
0000
0001
0000
0100
0010
,
1000
0001
1000
0001
1000
0001
1000
0001
,
0010
0000
0100
0000
0010
0000
0100
0010
0001
1000
0100
0000
1000
0000
1000
0000
,
0010
1000
0010
1000
0010
1000
0010
1000
,
0001
0000
0010
0000
0001
0000
0010
0000
0001
0000
0010
0000
0001
0000
1000
0001
,
0100
0010
0100
0010
0100
0010
0100
0010
,
1010
0000
1000
0000
0001
0000
1000
0000
0001
1000
0010
1000
0100
0000
1000
0000
,
0010
0000
0100
0001
1000
0010
0100
0010
1000
0000
1000
0000
0001
0000
1000
0000
,
0100
1000
0001
0000
0010
0000
0010
0000
0100
0000
0100
0000
0010
0000
0001
1000
,
0010
0000
0100
0001
0100
0010
1000
0001
0100
0000
0100
0000
0001
0000
1000
0000
,
0100
1000
0001
0000
0010
0000
0100
1000
0010
1000
0001
0000
0100
0000
0010
0000
,
0100
0000
0001
1000
0001
0010
0100
0010
0001
0000
0001
0000
0010
0000
0001
0000
,
0100
0010
1000
0000
0001
0000
0001
0000
0100
0000
0100
0000
0010
0000
0100
0001
,
1000
0000
0100
0010
0001
1000
0100
0010
0100
0000
0100
0000
1000
0000
0001
0000
,
0100
0000
0100
0000
0001
0000
0001
0000
1000
0000
0010
0100
0001
0000
1000
0000
,
0001
0000
0010
0100
1000
0001
0010
0100
0010
0000
0010
0000
0001
0000
1000
0000
,
0001
1000
0010
0000
0100
0000
0100
0000
0001
0000
0001
0000
1000
0000
0001
1000
,
0100
0000
0010
0001
0010
0100
1000
0001
0010
0000
0010
0000
0001
0000
0100
0000
,
0010
1000
0001
0000
0100
0000
0010
1000
0100
1000
0001
0000
0010
0000
0100
0000
,
0010
0000
0001
1000
0001
0100
0010
0100
0001
0000
0001
0000
1000
0000
0001
0000
,
0010
0001
1000
0000
0100
0000
0100
0000
0010
0000
0010
0000
0100
0000
0010
0001
,
1000
0000
0010
1000
0010
0100
0001
1000
0010
0000
0010
0000
1000
0000
0001
0000
,
1000
0000
1000
0000
0001
0000
0001
0000
1000
0100
1000
0001
1000
0000
0100
0000
,
2200
3300
1000
0001
1000
0010
0100
0001
0100
0000
0100
0000
0001
0000
1000
0000
,
0100
0010
0001
0000
1000
0000
1000
0000
0001
0000
0001
0000
0010
0000
0100
1000
,
0001
0000
1000
0010
0100
0001
0100
0010
1000
0000
1000
0000
0001
0000
0100
0000
,
0001
1000
0100
0000
0010
0000
0010
0001
1000
0100
0010
0000
0001
0000
0001
0000
,
0100
0000
0001
1000
0010
0100
0001
1000
0010
0000
0010
0000
1000
0000
0001
0000
,
0010
0100
1000
0000
0001
0000
0001
0000
1000
0000
1000
0000
0010
0000
1000
0001
,
0100
0000
0001
0100
0010
1000
0010
0100
0001
0000
0001
0000
1000
0000
0001
0000
,
0010
0000
0010
0000
0001
0000
0001
1000
0100
0010
0100
0000
1000
0000
0001
0000
,
0022
0033
0010
0001
1000
0100
0010
0001
0010
0000
0010
0000
0001
0000
1000
0000
,
0010
0100
0001
0000
1000
0000
1000
0000
0001
0000
0001
0000
0100
0000
0010
1000
,
0001
0000
1000
0100
0010
0001
0010
0100
1000
0000
1000
0000
0001
0000
0010
0000
,
0001
1000
0010
0000
0100
0000
0100
0001
1000
0010
0100
0000
0001
0000
0001
0000
,
1000
0000
0100
0010
0001
1000
0100
1000
0001
0100
0001
1000
0010
0100
0001
1000
,
0100
0010
0001
0010
0100
1000
0001
0100
0010
1000
0010
0100
0001
1000
0001
0010
,
0100
1000
0010
0100
0010
1000
0100
0010
0001
0100
0010
0100
0001
0010
0100
1000
,
0002
1003
0100
0100
1000
1000
0001
0001
,
2000
3200
0320
0032
0203
0320
0230
0302
,
2003
0000
3200
0000
1300
0001
0100
0000
0020
0000
1030
0000
0002
0000
0023
0000
,
0230
1300
0002
0203
0320
0130
0002
2003
,
3002
0000
0003
0001
0000
0000
0020
0000
0030
0010
0000
0000
0200
0000
0300
0100
0000
0000
1000
0000
0000
0001
0000
0000
,
0200
0320
2030
3200
0320
0230
2300
3002
,
2003
0000
3020
0000
1030
0001
0100
0000
0020
0000
1030
0000
0002
0000
2003
0000
,
3200
0000
0000
1300
0000
0000
0002
0000
0000
0203
0000
0000
0310
0000
0000
2000
0000
3000
2000
0000
0000
3002
0000
0003
,
0010
0000
0100
0000
1000
0000
1000
0000
0001
0000
0100
0001
1000
0000
0010
1000
,
0200
2300
3002
0023
0032
0203
0320
2030
,
3200
0000
2300
0000
3001
0010
0100
0000
2000
0000
3001
0000
0200
0000
0320
0000
,
2030
3100
2000
3020
0230
0301
2000
3020
,
0230
0000
0300
0100
0000
0000
0002
0000
0003
0001
0000
0000
2000
0000
3000
1000
0000
0000
0001
0000
0000
1000
0000
0000
,
0002
0023
0230
2300
3020
0230
0302
0203
,
0320
0000
2030
0000
3010
0100
0001
0000
2000
0000
3010
0000
0200
0000
0302
0000
,
0023
0000
0000
0031
0000
0000
2000
0000
0000
3002
0000
0000
0203
0000
0000
0320
0000
0030
0020
0000
0000
2030
0000
3000
,
0100
0000
0010
0000
0001
0000
0001
0000
1000
0000
0001
1000
0010
0000
0100
0001
,
0010
0000
0001
1000
0100
0010
0100
1000
0010
0000
0010
0000
0100
0000
0001
0000
,
1000
0001
1000
0000
0100
0010
0001
0000
0100
0000
0100
0000
0010
0000
0100
0000
,
0001
0000
1000
0010
0100
0001
0010
0100
1000
0000
1000
0000
0001
0000
0100
0000
,
0001
0100
0001
0000
1000
0000
1000
0010
0100
0001
1000
0000
0001
0000
0001
0000
,
0010
0000
0001
1000
0010
0100
0010
1000
0100
0000
0100
0000
0010
0000
0001
0000
,
1000
0001
1000
0000
0010
0100
0001
0000
0010
0000
0010
0000
0100
0000
0010
0000
,
0001
0000
1000
0100
0010
0001
0100
0010
1000
0000
1000
0000
0001
0000
0010
0000
,
0001
0000
0001
0000
1000
0000
0010
0000
0100
0000
0001
1000
0100
0000
1000
0001
,
0010
0000
0001
0010
0100
0010
0001
0100
0010
0000
0010
0000
1000
0000
0001
0000
,
0100
0001
0100
0000
0010
1000
0001
0000
0100
0000
0100
0000
0001
0000
1000
0000
,
0100
0000
1000
0100
0010
0001
0100
0010
1000
0000
1000
0000
0001
0000
0100
0000
,
0001
1000
0001
0000
0100
0000
0010
1000
0010
0100
0001
0000
1000
0000
1000
0000
,
0100
0000
0010
0001
1000
0100
1000
0001
0100
0000
0010
0100
0000
0001
1000
0100
,
0010
0001
1000
0010
0100
0001
1000
0100
0010
0100
1000
0001
0010
0100
0010
0001
,
1000
0010
0100
0010
1000
0100
0010
0100
1000
0001
1000
0010
0100
0001
0010
0100
,
0010
0001
1000
0100
1000
0001
0100
0010
0100
0001
1000
0010
0100
0010
1000
0100
,
2000
0000
0000
0000
,
0000
0000
0000
0000
,
0000
0000
0000
0000
,
0000
0000
0000
0000
,
0000
0000
0000
0000
,
0000
0000
0000
0000
,
0000
0000
0000
0000
,
0000
0000
0000
0000
,
0000
0000
0000
0000
,
0000
0000
0000
0000
0000
0000
0000
3000
,
0001
0000
0010
0100
0010
0000
0001
1000
0100
0000
0100
0000
1000
0000
0001
0100
,
0010
0000
1000
0000
0001
0000
0100
0010
1000
0010
0100
0001
1000
0000
0001
0010
,
0100
0000
1000
0100
0010
0000
0100
1000
0001
0000
0001
0000
0100
0000
0010
0000
,
1000
0010
1000
0001
0100
0000
0010
1000
0001
1000
0100
0000
0010
0000
0001
1000
,
0100
0000
0010
0000
0001
0000
1000
0010
1000
0001
0010
0000
0100
0000
1000
0001
,
0100
0000
0001
0000
0010
0000
0100
1000
0001
1000
0010
0000
0100
0000
0001
0000
,
1000
0000
0100
0000
0010
0000
0001
1000
0100
1000
0001
0000
1000
0000
0010
0000
,
0100
0000
0001
0000
1000
0000
0010
0100
0001
1000
0010
0000
1000
0000
0100
0000
,
0010
0000
0001
0000
1000
0000
0100
1000
0001
0010
0100
0000
1000
0000
0001
0000
,
0100
0000
0010
0000
1000
0000
0001
0100
0010
1000
0010
0000
0100
0000
0001
0000
,
1000
0000
0100
0000
0010
0000
0001
1000
0100
1000
0001
0010
0100
0000
1000
0000
,
0001
0000
0100
0000
0010
0000
1000
0001
1000
0010
0100
0000
0001
0000
1000
0000
,
0100
0000
0010
0000
0001
0000
0010
0100
1000
0001
1000
0000
0001
0000
0100
0000
,
0010
0000
1000
0000
0001
0000
1000
0010
0100
0010
1000
0000
0001
0000
0010
0000
,
0100
0000
0010
0000
0001
0000
1000
0100
0010
0001
0010
0100
1000
0000
0001
0000
,
0100
0000
0010
0000
1000
0000
0010
1000
0001
0100
0001
0000
1000
0000
0100
0000
,
0010
0000
0001
0000
0010
0000
0100
1000
0001
0010
0001
0000
1000
0000
0001
0000
,
0100
0000
0010
0000
0100
0000
0001
0100
0010
1000
0010
0000
0100
0000
0001
0000
,
1000
0000
0100
0000
0010
0000
0001
1000
0100
0010
0100
1000
0001
0000
1000
0000
,
0010
0000
0100
0000
0001
0000
1000
0010
0100
0010
1000
0000
0001
0000
1000
0000
,
0100
0000
0010
0000
0001
0000
1000
0100
1000
0001
0010
0000
0100
0000
0010
0000
,
0001
0000
1000
0000
0010
0000
1000
0001
0100
0010
0100
0000
0001
0000
1000
0000
,
1001
0000
0000
0001
0000
0000
0010
0000
0000
0110
0000
0000
0100
0000
0000
1000
0100
1000
0100
0000
0000
0100
0000
0000
,
0110
0000
0000
0000
0000
0000
0010
0000
0000
0000
0000
0000
0001
0000
0000
1000
0000
0000
0010
0000
0000
0000
0000
0000
0100
0000
0000
0000
0000
0000
0010
0000
0000
1000
0000
0000
0001
0000
0100
0000
0001
0000
0100
0000
0000
0000
0000
0000
,
0001
0000
0000
1000
0000
0000
0010
0000
0000
0110
0000
0000
0100
0000
0000
0001
1000
0001
1000
0000
0000
1000
0000
0000
,
1001
0000
0000
0000
0000
0000
0001
0000
0000
0000
0000
0000
0010
0000
0000
0100
0000
0000
1000
0000
0000
0000
0000
0000
0001
0000
0000
0000
0000
0000
1000
0000
0000
0100
0000
0000
0010
0000
0001
0000
0010
0000
0001
0000
0000
0000
0000
0000
,
1000
0000
0000
0001
0000
0000
0010
0000
0000
0110
0000
0000
0100
0000
0000
1000
0100
1000
0100
0000
0000
0100
0000
0000
,
0110
0000
0000
0000
0000
0000
0010
0000
0000
0000
0000
0000
0001
0000
0000
1000
0000
0000
0010
0000
0000
0000
0000
0000
0100
0000
0000
0000
0000
0000
0010
0000
0000
1000
0000
0000
0001
0000
0100
0000
0001
0000
0100
0000
0000
0000
0000
0000
,
0001
0000
0000
1000
0000
0000
0001
0000
0000
0101
0000
0000
0100
0000
0000
0010
1000
0010
1000
0000
0000
1000
0000
0000
,
1001
0000
0000
0000
0000
0000
0001
0000
0000
0000
0000
0000
0010
0000
0000
0100
0000
0000
1000
0000
0000
0000
0000
0000
0001
0000
0000
0000
0000
0000
1000
0000
0000
0100
0000
0000
0010
0000
0001
0000
0010
0000
0001
0000
0000
0000
0000
0000
,
1000
0000
0000
0001
0000
0000
0100
0000
0000
0110
0000
0000
0010
0000
0000
1000
0010
1000
0010
0000
0000
0010
0000
0000
,
0110
0000
0000
0000
0000
0000
0100
0000
0000
0000
0000
0000
0001
0000
0000
1000
0000
0000
0100
0000
0000
0000
0000
0000
0010
0000
0000
0000
0000
0000
0100
0000
0000
1000
0000
0000
0001
0000
0010
0000
0001
0000
0010
0000
0000
0000
0000
0000
,
0001
0000
0000
1000
0000
0000
0100
0000
0000
0110
0000
0000
0010
0000
0000
0001
1000
0001
1000
0000
0000
1000
0000
0000
,
1001
0000
0000
0000
0000
0000
0001
0000
0000
0000
0000
0000
0100
0000
0000
0010
0000
0000
1000
0000
0000
0000
0000
0000
0001
0000
0000
0000
0000
0000
1000
0000
0000
0010
0000
0000
0100
0000
0001
0000
0100
0000
0001
0000
0000
0000
0000
0000
,
1000
0000
0000
0001
0000
0000
0100
0000
0000
0110
0000
0000
0010
0000
0000
1000
0010
1000
0010
0000
0000
0010
0000
0000
,
1010
0000
0000
0000
0000
0000
1000
0000
0000
0000
0000
0000
0001
0000
0000
1000
0000
0000
0010
0000
0000
0000
0000
0000
0100
0000
0000
0000
0000
0000
0010
0000
0000
1000
0000
0000
0001
0000
0100
0000
0001
0000
0100
0000
0000
0000
0000
0000
,
0001
0100
0010
0100
0001
0010
0100
1000
0010
0100
0010
1000
0100
0010
0001
0100
,
0010
1000
0100
0010
0100
1000
0010
0100
0001
0010
0200
0310
0002
0103
0020
1030
,
0200
0000
0000
2300
0000
0000
3020
0000
0000
0230
0000
0000
0302
0000
0000
0023
0000
0000
0230
0000
0000
2300
0000
3000
,
2000
3002
0203
0320
2030
0000
3002
2003
,
3200
0000
2300
3020
0230
0000
0302
0023
,
0230
0000
2300
3002
0203
0000
0302
0000
,
2003
0000
0000
3200
0000
0000
0320
0000
0000
0032
0000
0000
0203
0000
0000
0320
0000
0000
2030
0000
0000
3200
0000
0300
,
0200
2300
3002
0203
0302
0000
0023
0032
,
0203
0000
0320
2030
3200
0000
2300
3002
,
2003
0000
0000
0000
0000
0000
3020
0000
0000
0230
0000
0000
0000
0000
0000
0302
0000
0000
0203
0000
0300
0200
0000
0000
,
0302
0000
0000
0023
0000
0000
0230
0000
0000
2300
0000
0000
3020
0000
0000
0230
0000
0000
0320
0000
0000
2030
0000
3000
,
2000
0000
3020
0000
0230
0000
0302
0000
0023
0030
0010
0000
0002
0000
2003
0000
,
3020
0030
0010
0000
2000
0000
3002
0000
0023
0030
0010
0000
0200
0000
2300
0000
,
3020
0030
0010
0000
2000
0000
3002
0000
0203
0300
0100
0000
0002
0003
0001
0000
,
2000
0000
0000
3020
0000
0000
0230
0000
0000
0302
0000
0000
0023
0000
0000
0230
0000
0000
2300
0000
0000
3020
0000
0030
,
0020
0000
0230
0000
0302
0000
0023
0000
0230
0300
0100
0000
2000
0000
3002
0000
,
0203
0300
0100
0000
0002
0000
0023
0000
0230
0300
0100
0000
2000
0000
3002
0000
,
0203
0300
0100
0000
0020
0000
2030
3000
1000
0000
0002
0000
0023
0030
0020
0030
,
0022
0000
0000
0003
0000
0000
0031
0000
0000
0000
0000
0000
2000
0000
0000
0000
0000
0000
3020
0000
0000
0000
0000
0000
0230
0000
0000
0000
0000
0000
0320
0000
0000
0000
0000
0000
2030
0000
0000
0000
0000
0000
3200
0000
0000
0000
0300
0000
,
0200
0000
2300
0000
3002
0000
0203
0000
0302
0003
0001
0000
0020
0000
0032
0000
,
0203
0300
0100
0000
0020
0000
2030
0000
3200
0300
0100
0000
0020
0000
0032
0000
,
2003
3000
1000
0000
0020
0000
0230
0000
0302
0003
0001
0000
0020
0030
0010
0000
,
0002
0000
0000
0203
0000
0000
0320
0000
0000
2030
0000
0000
3200
0000
0000
0320
0000
0000
0032
0000
0000
0203
0000
0300
,
0200
0000
0320
0000
1030
0000
0200
0000
2300
3000
1000
0000
0002
0000
2003
3000
,
0001
0010
0100
1000
0010
0100
0001
1000
0001
0100
0010
1000
0100
0010
0001
1000
,
0010
0100
0001
1000
0100
1000
0001
0010
0001
1000
0001
0100
0010
1000
0100
1000
,
0020
0230
0302
2003
3002
0023
0230
2300
,
3020
0230
0302
2003
3002
0023
0230
2300
,
3020
0230
0302
2003
3002
0023
0230
2300
,
3020
0230
0302
2003
3002
0023
0230
2300
,
3001
1000
0100
0010
0001
1000
0100
0010
0001
0100
0010
1000
0001
0100
0010
1000
,
0001
0010
0100
1000
0001
0010
0100
1000
0010
0100
0001
1000
0010
0100
0001
1000
,
0001
0010
0100
1000
0010
0100
0010
1000
0100
0010
0001
0100
0010
0100
0001
0010
,
0100
1000
0010
0100
0010
1000
0100
0010
0001
0100
0010
0100
0001
0010
0100
1000
,
0020
0030
0020
0030
0020
0030
0020
0030
0000
0000
0000
0000
0000
0000
1000
0000
,
0010
0100
0001
0100
0010
1000
0001
1000
0100
0010
0001
1000
0100
1000
0001
0100
,
0010
1000
0001
0100
0001
1000
0010
0100
0001
1000
0100
1000
0001
0010
0100
1000
,
0001
0010
0001
1000
0010
0100
0001
1000
0100
0010
0100
1000
0001
0010
0001
1000
,
0010
1000
0001
0100
0010
1000
0001
0010
0100
0010
0001
1000
0010
0100
0001
1000
,
0100
0010
0001
1000
0100
1000
0001
0100
0010
1000
0001
0100
0001
1000
0100
0010
,
0100
1000
0001
0100
0010
1000
0001
0100
0001
1000
0100
1000
0001
0010
0100
1000
,
0001
0010
0001
1000
0010
0100
0001
0100
0010
0100
0001
0100
0010
0100
0001
0100
,
0010
1000
0001
1000
0100
0010
0001
0010
0100
1000
0001
0100
0001
1000
0010
1000
,
0100
0010
0001
0010
0100
1000
0001
1000
0010
0100
0001
1000
0010
1000
0001
0010
,
0100
1000
0001
0010
0001
1000
0100
0010
0001
1000
0010
1000
0001
0100
0010
1000
,
0001
0100
0001
1000
0100
0010
0001
1000
0010
0100
0010
1000
0001
0100
0001
1000
,
0100
1000
0001
0010
0100
1000
0001
0100
0010
0100
0001
1000
0100
0010
0001
1000
,
0010
0100
0001
1000
0010
1000
0001
0010
0100
1000
0001
0010
0001
1000
0010
0100
,
0010
1000
0001
0010
0100
1000
0001
0010
0001
1000
0010
1000
0001
0100
0010
1000
,
0001
0100
0010
0100
0001
0100
0010
0100
0001
0010
0100
0010
0001
0010
0100
0010
,
0001
1000
0010
1000
0001
0100
0010
1000
0001
1000
0100
0010
0001
1000
0100
1000
,
0010
0100
0001
1000
0010
1000
0001
0010
0001
1000
0100
0010
0001
1000
0010
0100
,
0001
1000
0100
1000
0001
0010
0001
1000
0010
0100
0010
1000
0001
0100
0001
1000
,
0100
0010
0001
0010
0100
1000
0001
0100
0010
1000
0001
0100
0001
1000
0100
0010
,
0100
1000
0001
0100
0001
1000
0010
1000
0001
0010
0100
1000
0001
0100
0010
1000
,
0001
0010
0100
0010
0001
1000
0100
1000
0001
0100
0001
1000
0010
0100
0001
1000
,
0100
0010
0001
1000
0100
1000
0001
0100
0010
1000
0001
0100
0001
1000
0010
1000
,
0001
0010
0100
0010
0001
1000
0010
1000
0001
1000
0010
1000
0001
1000
0010
1000
,
0001
0100
0010
1000
0001
0010
0100
0010
0001
1000
0010
0100
0001
1000
0100
1000
,
0010
0100
0001
1000
0100
1000
0001
0100
0001
1000
0010
0100
0001
1000
0100
0010
,
0001
1000
0010
1000
0001
0100
0001
1000
0100
0010
0100
1000
0001
0010
0001
1000
,
0010
0100
0001
0100
0010
1000
0001
0010
0100
1000
0001
0010
0001
1000
0010
0100
,
0010
1000
0001
0010
0001
1000
0100
1000
0001
0100
0010
1000
0001
0010
0100
1000
,
0001
0100
0010
0100
0001
1000
0010
1000
0001
0010
0001
1000
0100
0010
0001
1000
,
0010
0100
0001
1000
0010
1000
0001
0010
0100
1000
0001
0010
0001
1000
0100
1000
,
0010
0100
0001
0100
0010
0100
0001
0100
0010
1000
0100
0010
0100
1000
0100
0010
,
0100
1000
0001
0010
0100
1000
0001
0100
0001
1000
0010
0100
0001
1000
0100
1000
,
0010
0100
0010
1000
0100
1000
0001
0010
0001
1000
0100
1000
0010
0100
0001
1000
,
0001
0100
0010
1000
0100
0010
0001
1000
0010
0100
0010
1000
0100
0010
0001
1000
,
0010
0100
0010
1000
0100
1000
0001
0010
0001
1000
0010
1000
0100
0010
0001
1000
,
0010
0100
0010
1000
0100
0010
0100
1000
0001
0100
0010
1000
0100
1000
0001
0100
,
0001
1000
0010
1000
0100
0010
0001
1000
0010
0100
0010
1000
0100
0010
0100
1000
,
0001
0010
0100
1000
0010
0100
0010
1000
0001
0100
0010
1000
0100
0010
0100
1000
,
0001
0100
0010
1000
0100
0010
0001
0010
0100
0010
0001
0010
0100
0010
0001
0010
,
0100
1000
0001
0100
0001
1000
0010
0100
0001
1000
0100
0010
0001
1000
0010
1000
,
0100
0010
0100
1000
0010
1000
0001
0100
0001
1000
0010
1000
0100
0010
0001
1000
,
0001
0010
0100
1000
0010
0100
0001
1000
0100
0010
0100
1000
0010
0100
0001
1000
,
0100
0010
0100
1000
0010
1000
0001
0100
0001
1000
0100
1000
0010
0100
0001
1000
,
0100
0010
0100
1000
0010
0100
0010
1000
0001
0010
0100
1000
0010
1000
0001
0010
,
0001
1000
0100
1000
0010
0100
0001
1000
0100
0010
0100
1000
0010
0100
0010
1000
,
0001
0100
0010
1000
0100
0010
0100
1000
0001
0010
0100
1000
0010
0100
0010
1000
,
0100
0010
0100
1000
0100
0010
0100
1000
0010
0100
0001
0100
0010
0100
0001
0100
,
0010
1000
0001
0010
0001
1000
0100
0010
0001
1000
0010
0100
0001
1000
0100
1000
,
0010
0100
0010
1000
0100
0010
0001
1000
0010
0100
0010
1000
0100
0010
0001
1000
,
0001
0010
0100
1000
0010
0100
0001
1000
0001
0100
0010
1000
0100
0010
0100
1000
,
0001
0100
0010
1000
0100
0010
0001
1000
0010
0100
0010
1000
0100
1000
0001
0100
,
0001
1000
0010
1000
0100
0010
0100
1000
0001
0100
0010
1000
0100
1000
0001
0100
,
0001
1000
0100
1000
0010
0100
0001
1000
0100
0010
0100
1000
0010
0100
0010
1000
,
0001
1000
0100
1000
0010
0100
0001
1000
0100
1000
0001
0010
0001
1000
0100
1000
,
0001
0010
0100
1000
0010
0100
0001
0100
0010
0100
0001
0100
0010
0100
0001
0100
,
0010
1000
0001
0100
0010
1000
0001
1000
0100
1000
0001
0010
0001
1000
0010
1000
,
0100
0010
0100
1000
0010
0100
0001
1000
0100
0010
0100
1000
0010
0100
0001
1000
,
0001
0100
0010
1000
0100
0010
0001
1000
0001
0010
0100
1000
0010
0100
0010
1000
,
0001
0010
0100
1000
0010
0100
0001
1000
0100
0010
0100
1000
0010
1000
0001
0010
,
0001
1000
0100
1000
0010
0100
0010
1000
0001
0010
0100
1000
0010
1000
0001
0010
,
0100
1000
0001
0100
0010
1000
0001
0100
0001
1000
0100
1000
0001
0010
0001
1000
,
0010
1000
0001
0010
0100
1000
0001
0100
0001
1000
0100
0010
0001
1000
0010
0100
,
0001
1000
0100
0010
0001
0100
0010
0100
0001
0010
0100
1000
0010
0100
0010
1000
,
0100
0010
0001
0100
0010
0100
0001
0010
0100
1000
0010
0100
0010
1000
0100
0010
,
0001
1000
0100
1000
0010
0100
0001
0100
0010
1000
0001
1000
0010
0100
0010
1000
,
0100
0010
0001
1000
0010
0100
0010
1000
0100
0010
0001
1000
0010
0100
0001
1000
,
0100
0010
0001
0010
0100
1000
0010
0100
0010
1000
0001
1000
0100
1000
0001
0010
,
0001
1000
0010
0100
0001
1000
0100
0010
0100
1000
0001
0100
0001
1000
0100
1000
,
0001
0100
0001
1000
0010
0100
0001
1000
0100
0010
0001
1000
0001
0010
0100
1000
,
0001
0100
0010
1000
0010
0100
0001
1000
0100
0010
0001
0010
0100
1000
0001
1000
,
0010
0100
0001
0010
0100
1000
0010
0100
0001
0010
0100
1000
0010
0100
0001
0010
,
0100
0100
0000
0000
0000
0000
0000
1000
,
1001
0000
0001
0100
0010
1000
0100
0010
0001
0000
0001
0000
1000
0000
0010
0000
,
1000
0010
1000
0000
0001
0000
0001
0000
1001
0000
1000
0000
0010
0000
1000
0000
,
1001
0000
0001
1000
0010
0100
0010
1000
0100
0000
0100
0000
0010
0000
0001
0000
,
1000
0001
1000
0000
0010
0000
0100
0010
1000
0001
0010
0000
0100
0000
1000
0000
,
0001
0000
1000
0010
0100
0001
0010
0100
1000
0000
1000
0000
0001
0000
0100
0000
,
0001
0100
0001
0000
1000
0000
1000
0000
0001
0000
0001
0000
0100
0000
0001
1000
,
0100
0000
1000
0001
0100
0010
0100
0001
0010
0000
0010
0000
0100
0000
1000
0000
,
1001
0000
0001
0000
0101
0000
0100
0000
0010
0000
0010
1000
0001
0000
0100
0000
,
0010
1000
0001
0100
0001
1000
0100
1000
0001
0010
0001
1000
0010
0100
0001
1000
,
0100
1000
0001
0010
0001
1000
0010
1000
0001
0100
0001
1000
0100
0010
0001
1000
,
0010
1000
0001
0100
0001
1000
0100
1000
0001
0010
0001
1000
0010
0100
0001
1000
,
0100
1000
0001
0010
0001
1000
0010
1000
0001
0100
0001
1000
0001
0010
0001
1000
,
0010
1000
0001
0100
0001
1000
0100
1000
0001
0010
0001
1000
0010
0100
0001
1000
,
0100
1000
0001
0010
0001
1000
0010
1000
0001
0100
0001
1000
0100
0010
0001
1000
,
0010
1000
0001
0100
0001
1000
0100
1000
0001
0010
0001
1000
0010
0100
0001
1000
,
0100
0000
0010
0000
0100
0000
0010
0000
0001
1000
0010
1000
0100
0000
0000
0000
,
0010
0000
0100
1000
0001
0010
0100
0010
0001
0000
0001
0000
1000
0000
0001
0000
,
0100
0001
1000
0000
0010
0000
0010
0000
0100
0000
0100
0000
0010
0000
1000
0001
,
0010
0000
0100
1000
0100
0010
0001
1000
0100
0000
0100
0000
1000
0000
0001
0000
,
0100
0001
1000
0000
0010
0000
0100
0001
0010
0001
1000
0000
0100
0000
0010
0000
,
0100
0000
1000
0001
1000
0010
0100
0010
1000
0000
1000
0000
0010
0000
1000
0000
,
0100
0010
0001
0000
1000
0000
1000
0000
0100
0000
0100
0000
0010
0000
0100
1000
,
0001
0000
0100
0010
1000
0001
0100
0010
0100
0000
0100
0000
0001
0000
1000
0000
,
0100
0000
0100
0000
1000
0000
1000
0000
0001
0000
0010
0100
1000
0000
0100
0010
,
0001
0000
0100
0010
1000
0001
0100
0010
0100
0000
0100
0000
0001
0000
1000
0000
,
0001
1000
0100
0000
0010
0000
0010
0000
0001
0000
0001
0000
1000
0000
0001
1000
,
0010
0000
0100
0001
0100
0010
1000
0001
0100
0000
0100
0000
0001
0000
0010
0000
,
0100
1000
0001
0000
0010
0000
0100
1000
0010
1000
0001
0000
0100
0000
0010
0000
,
0100
0000
0001
1000
0001
0010
0100
0010
0001
0000
0001
0000
1000
0000
0001
0000
,
0100
0001
1000
0000
0010
0000
0010
0000
0100
0000
0100
0000
0010
0000
0100
0001
,
1000
0000
0100
1000
0100
0010
0001
1000
0100
0000
0100
0000
1000
0000
0001
0000
,
1000
0000
1000
0000
0001
0000
0001
0000
1000
0000
0010
0100
0001
0000
0010
0100
,
1000
0001
0010
0100
0010
0001
1000
0100
0010
0100
1000
0001
1000
0010
0100
0001
,
1000
0010
1000
0001
0100
0001
0010
0100
1000
0001
1000
0100
1000
0001
0100
0010
,
1000
0100
0010
0100
1000
0001
0100
0001
0010
0100
1000
0100
0010
0001
1000
0100
,
1000
0001
0100
0001
1000
0100
0010
0100
1000
0001
0100
0001
1000
0100
0010
0001
,
1000
0001
0100
0010
0100
0001
1000
0010
0100
0010
1000
0001
1000
0100
0010
0001
,
1000
0100
1000
0001
0010
0001
0100
0010
1000
0001
1000
0010
1000
0001
0010
0100
,
1000
0010
0100
0010
1000
0001
0010
0001
0100
0010
1000
0100
1000
0010
0100
0001
,
1000
0100
0010
0001
1000
0100
0010
0100
1000
0001
0010
0100
1000
0100
0010
0100
,
1000
0001
0100
0010
1000
0001
1000
0010
0100
0010
1000
0001
0010
0100
0010
0001
,
1000
0010
1000
0001
0100
0001
0010
0100
1000
0001
1000
0100
1000
0001
0100
0010
,
1000
0100
0010
0100
1000
0001
0100
0001
0010
0100
1000
0100
0010
0001
1000
0010
,
1000
0001
0010
0001
1000
0010
0100
0010
1000
0001
0010
0001
1000
0010
1000
0001
,
0010
0100
1000
0001
0010
0100
0010
0001
1000
0010
0100
0001
0100
0010
1000
0001
,
0010
0100
1000
0001
0010
0001
1000
0100
1000
0001
0100
0010
1000
0001
0100
0001
,
1000
0100
0010
0001
0100
0010
0100
0001
0010
0100
1000
0010
0100
0010
1000
0100
,
0010
0001
0010
0001
1000
0001
1000
0001
,
0100
0010
0100
0001
0010
0001
1000
0100
1000
0001
0010
0001
0100
0010
1000
0001
,
1000
0010
0100
0001
0010
0100
1000
0001
0100
0010
0100
0001
0010
0100
1000
0001
,
0100
0010
0100
0001
0010
0001
1000
0100
1000
0001
0100
0001
0010
0100
1000
0001
,
0100
0010
0100
0001
0010
0100
0010
0001
1000
0010
0100
0001
0010
0001
1000
0010
,
1000
0001
0100
0001
0010
0100
1000
0001
0100
0010
0100
0001
0010
0100
0010
0001
,
1000
0100
0010
0001
0100
0010
0100
0001
1000
0010
0100
0001
0010
0100
0010
0001
,
1000
0010
0100
0001
0010
0100
1000
0001
0100
0010
0100
0001
0010
0001
1000
0010
,
1000
0001
0010
0001
0100
0010
0100
0001
1000
0001
0010
0001
0100
0010
0100
0001
,
0010
0100
0010
0001
0100
0001
1000
0010
1000
0001
0100
0001
0010
0100
1000
0001
,
1000
0100
0010
0001
0100
0010
1000
0001
0010
0100
0010
0001
0100
0010
1000
0001
,
0010
0100
0010
0001
0100
0001
1000
0010
1000
0001
0010
0001
0100
0010
1000
0001
,
0010
0100
0010
0001
0100
0010
0100
0001
1000
0100
0010
0001
0100
0001
1000
0100
,
1000
0001
0010
0001
0100
0010
1000
0001
0010
0100
0010
0001
0100
0010
0100
0001
,
1000
0010
0100
0001
0010
0100
0010
0001
1000
0100
0010
0001
0100
0010
0100
0001
,
1000
0100
0010
0001
1000
0010
0100
0010
1000
0100
0010
0001
1000
0010
0100
0010
,
1000
0100
0010
0001
0100
0010
0100
0001
1000
0100
0010
0001
0100
0010
0100
0001
,
0010
0100
1000
0001
0100
0010
1000
0001
0010
0100
0010
0001
1000
0010
0100
0010
,
1000
0001
0100
0001
1000
0100
0010
0001
1000
0010
1000
0001
0100
0010
1000
0001
,
0010
0100
1000
0001
0100
0010
0100
0001
1000
0100
0010
0100
1000
0001
0100
0001
,
1000
0100
0010
0001
0010
0100
1000
0001
0100
0010
1000
0001
0010
0100
1000
0001
,
0100
0010
1000
0001
1000
0010
0100
0010
1000
0100
0010
0001
1000
0010
0100
0001
,
1000
0100
0010
0100
1000
0001
0010
0100
1000
0001
0100
0001
1000
0010
0100
0010
,
1000
0100
0010
0100
1000
0100
0010
0100
1000
0100
0010
0100
1000
0010
0100
0001
,
0010
0100
1000
0100
0010
0100
1000
0100
0010
0100
1000
0001
1000
0100
0010
0001
,
0100
0010
1000
0001
0010
0100
1000
0001
0100
0010
0100
0001
1000
0100
0010
0100
,
1000
0001
0010
0001
1000
0010
0100
0001
1000
0100
1000
0001
0010
0100
1000
0001
,
0100
0010
1000
0001
0010
0100
0010
0001
1000
0010
0100
0010
1000
0001
0010
0001
,
1000
0010
0100
0001
0100
0010
1000
0001
0010
0100
1000
0001
0100
0010
1000
0001
,
0010
0100
1000
0001
1000
0100
0010
0100
1000
0010
0100
0001
1000
0100
0010
0001
,
1000
0010
0100
0010
1000
0001
0100
0010
1000
0001
0010
0001
1000
0100
0010
0100
,
1000
0010
0100
0010
1000
0010
0100
0010
1000
0010
0100
0010
1000
0010
0100
0010
,
1000
0001
0100
0010
0100
0001
1000
0010
1000
0001
0100
0010
1000
0100
0010
0001
,
0100
0010
1000
0001
0010
0100
0010
0001
1000
0010
1000
0001
0010
0100
0010
0001
,
1000
0100
0010
0001
1000
0010
0100
0001
1000
0100
1000
0001
0010
0100
0010
0001
,
1000
0010
1000
0001
0010
0100
0010
0001
1000
0100
0010
0001
1000
0010
0100
0001
,
1000
0100
0010
0100
1000
0001
0010
0001
1000
0010
0100
0001
1000
0100
1000
0001
,
0100
0010
0100
0001
1000
0100
0010
0100
1000
0001
0100
0001
1000
0100
0010
0001
,
1000
0001
0100
0010
1000
0001
0100
0001
1000
0100
0010
0001
1000
0100
0010
0100
,
1000
0001
0100
0001
1000
0001
0100
0001
1000
0001
0100
0001
1000
0100
0010
0001
,
0100
0001
1000
0001
0100
0001
1000
0001
0100
0001
1000
0001
0100
0010
1000
0100
,
0010
0100
1000
0001
0100
0010
0100
0001
1000
0100
1000
0001
0100
0010
0100
0001
,
1000
0010
0100
0001
1000
0100
0010
0001
1000
0010
1000
0001
0100
0010
0100
0001
,
1000
0100
1000
0001
0100
0010
0100
0001
1000
0010
0100
0001
1000
0100
0010
0001
,
1000
0010
0100
0010
1000
0001
0100
0001
1000
0100
0010
0001
1000
0010
1000
0001
,
0010
0100
0010
0001
1000
0010
0100
0010
1000
0001
0010
0001
1000
0010
0100
0001
,
1000
0001
0010
0100
1000
0001
0010
0001
1000
0010
0100
0001
1000
0010
0100
0010
,
1000
0100
0010
0001
0100
0010
0100
0001
0010
0100
1000
0010
0100
0010
1000
0100
,
0010
0001
0100
0010
0100
0001
0010
0100
1000
0010
0100
0010
1000
0100
0010
0001
,
0200
0000
0000
0000
,
0000
0000
0000
0000
,
0300
0000
0000
0000
;
