#TITLE:Bellaqueo Intenso;
#SUBTITLE:-Dembow RMX-;
#ARTIST:Guayo & O.G. Black;
#TITLETRANSLIT:;
#SUBTITLETRANSLIT:;
#ARTISTTRANSLIT:;
#CREDIT:;
#BANNER:Bellaqueo Intenso banner.JPG;
#BACKGROUND:;
#LYRICSPATH:;
#CDTITLE:!tizaTitle.png;
#MUSIC:Guayo ''El Bandido'' & O[1].G Black - Bellaqueo Intenso [Dembow RmX](www.FlowExclusivo.Com).ogg;
#OFFSET:-0.040;
#SAMPLESTART:152.701;
#SAMPLELENGTH:21.000;
#SELECTABLE:YES;
#BPMS:0.000=94.000;
#STOPS:;
#BGCHANGES:;
// cache tags:
#FIRSTBEAT:16.500;
#LASTBEAT:319.750;
#SONGFILENAME:Songs/Reggaeton and more/Bellaqueo Intenso (dembow)/Pollinosis.sm;
#HASMUSIC:1;
#HASBANNER:1;
#MUSICLENGTH:211.691;
// end cache tags

//---------------dance-single - ----------------
#NOTES:
     dance-single:
     :
     Challenge:
     12:
     0.615,0.642,0.269,0.005,1.000,851.000,57.000,1.000,250.000,1.000:

0000
0000
0000
0000
,
0000
0000
0000
0000
,
0000
0000
0000
0000
,
0000
0000
0000
0000
,
0000
0000
1000
0000
0100
0000
1000
0000
0001
0100
0001
0100
0001
0000
0010
0000
,
0100
1000
0100
1000
0100
0000
1000
0000
0010
0100
0010
0100
0010
0000
0100
0000
,
0001
0010
0100
1000
0100
0000
0010
0000
0001
0100
0010
1000
0100
0000
1000
0000
,
0100
0010
0001
0010
0100
0000
1000
0000
0010
0100
0001
0100
0010
0000
1000
0000
,
0000
0100
0001
1000
0010
0001
0100
1000
,
0001
0010
M000
000M
0M00
10M0
0100
0010
,
0100
1000
0001
1000
0000
0001
0100
0010
,
0200
0000
1000
0000
0010
0000
0001
0000
0000
0000
0300
0000
0100
0001
0010
0100
,
1100
1000
0000
0000
0000
0000
1000
0010
0001
0010
1000
0100
0010
0100
1000
0001
,
0100
0000
0010
0000
0000
0000
0000
0000
0000
0000
0000
0000
0000
0000
0000
0000
1100
0000
1000
0000
1001
0000
0001
0000
0101
0000
0100
0000
0010
0100
0010
0100
,
0010
0000
1001
0000
0000
0000
0001
0100
0010
1000
0001
0010
0100
1000
0001
0100
,
0010
1000
0000
0000
0000
0000
1000
0100
0010
0001
0010
0100
0000
0010
0000
0001
,
0100
1000
0000
0000
0000
0000
0001
0010
1000
0100
0001
1000
0010
0001
0100
0010
,
1000
0100
0000
0000
0000
0000
0010
0001
0100
0010
0001
0010
0000
1000
0000
0100
,
0000
0010
0011
0000
0000
0000
0001
0100
0010
0010
1000
0100
0010
0010
0100
1000
,
0010
0010
0000
0000
0000
0000
1000
0001
1000
0001
1000
0001
0000
1001
0000
0000
,
0000
1000
0100
0010
0001
0010
0100
1000
0010
0000
1000
0010
0100
0001
0100
0010
,
1000
0100
0010
0000
0001
0100
0010
1000
0100
0010
0001
0010
0100
1000
0000
0000
,
0000
0001
0100
1000
0001
0010
1000
0100
0010
0000
0001
0100
1000
0001
1000
0001
,
0010
0000
1000
0000
0100
0000
0000
0000
0010
0000
0001
0000
0010
0000
0100
0000
1000
0000
1100
0000
0100
0000
1100
0000
1000
0000
0100
0010
0001
0000
1000
0000
,
1001
0001
0000
0000
1000
0100
0010
0100
1000
0000
0001
0000
1000
0000
1001
0000
,
0110
0100
0000
0000
0001
0010
0100
0010
0001
0000
0001
0100
1000
0000
0001
0000
,
0010
1000
0000
0000
0100
0010
0100
1000
0001
0000
0100
0000
0010
0000
1010
0000
,
0101
0000
0010
0000
0000
0000
0000
0000
1000
0000
0100
0000
1000
0000
0100
0000
0010
0100
0010
0000
0100
0000
1000
0100
1000
0000
0010
0000
0100
0001
0100
0000
,
0101
0000
0000
0000
0000
0000
0001
0000
0000
0000
0000
0000
0100
0000
0000
0010
0000
0000
0100
0000
0000
0010
0000
0000
0000
0000
0000
1000
0000
0000
0000
0010
0000
0000
0000
0000
0100
0000
0000
0001
0000
0000
0100
0000
0000
0001
0000
0000
,
0000
1000
0001
0000
0001
0100
0001
0100
0000
0010
0100
0010
0100
0010
0000
0000
,
1000
0100
0001
1000
0010
0001
0100
0010
0000
1000
0100
0010
0100
1000
0001
0100
,
0000
0000
0000
0110
0000
0000
0000
0000
0000
0000
0000
0000
0010
0000
0000
1000
0000
0000
0001
0000
0000
0100
0000
0000
0110
0000
0000
0000
0000
0000
MMMM
0000
0000
0000
0000
0000
M11M
0000
0000
0000
M00M
0000
0000
0000
0MM0
0000
0000
0000
,
M11M
0000
0010
0000
0100
0000
0000
1001
0000
0000
1010
0000
1000
0010
0100
0001
,
0101
0000
0110
0000
1010
0000
0000
0100
0000
1000
0100
0000
0010
0001
0000
0000
,
1000
0000
0100
0000
1000
0000
0000
1001
0000
0000
M10M
0000
0M10
M001
0M10
0100
,
1000
0000
0010
0000
0100
0000
0000
0101
0000
0000
1100
0011
0000
0000
1000
0100
,
0010
0000
0000
0MM1
M000
0000
0000
0000
M000
0001
0000
0000
0100
0000
0000
0010
000M
0000
1000
0000
0000
0010
0000
0000
0100
0000
0000
0001
M000
0000
0010
0000
0000
0100
0000
0000
M010
0000
0000
0001
0000
0000
0010
0000
0M00
1000
0000
0000
,
0001
0000
0000
0100
M0M0
0000
0000
0000
0000
0100
0000
0000
100M
0000
0000
0010
0000
0000
0100
0000
M000
0001
0000
0000
0100
0000
0000
0010
0000
0000
1000
0000
000M
0100
0000
0000
0000
0000
0000
0010
M000
0000
0000
0000
0M00
0001
0000
0000
,
0MM0
0000
0000
1000
00M0
0000
0000
0000
000M
0100
0000
0000
M010
0000
0000
0001
M000
0000
0010
0000
0000
0100
0000
0000
100M
0000
0000
0010
0000
0000
0001
0000
0M00
0010
0000
0000
1000
0000
0000
0100
0000
0000
0001
0000
00M0
0100
0000
0000
,
10M0
0000
0000
0000
0000
0000
0000
0000
0000
0000
0000
0000
0100
0000
0000
0000
000M
0000
0000
0000
0000
0000
0000
0000
0000
0000
0000
0000
0000
0000
0000
0000
M000
0000
0000
0000
0010
0000
0000
0000
0000
0000
0000
0000
0000
0000
0000
0000
M100
0000
0000
0000
0000
0000
0000
0000
0000
0000
0000
0000
0001
0000
0000
0000
M0M0
0000
0000
0000
0000
0000
0000
0000
0100
0000
0000
0000
0000
0000
0000
0000
0000
0000
0000
0000
0001
0000
0000
0000
0000
0000
0000
0000
0000
0000
0000
0000
1000
0000
0000
0000
0000
0000
0000
0000
0000
0000
0000
0000
0010
0000
0000
0000
0M00
0000
0000
0000
0000
0000
0000
0000
0001
0000
0000
0000
0000
0000
0000
0000
0000
0000
0000
0000
1000
0000
0000
0000
0000
0000
0000
0000
0000
0000
0000
0000
0001
0000
0000
0000
0000
0000
0100
0000
0000
0000
0000
0000
0010
0000
0000
0000
0000
0000
0000
0000
0000
0000
0000
0000
1000
0000
0000
0000
0000
0000
0100
0000
0000
0000
0000
0000
0010
0000
0000
0000
0000
0000
0000
0000
0000
0000
0000
0000
,
0001
0000
0000
1001
0MM0
0000
0000
0000
0000
1000
0000
0000
010M
0000
0000
M010
0000
0000
0M01
0000
0M00
10M0
0000
0000
001M
0000
0000
M100
0000
0000
00M1
0000
00M0
1M00
0000
0000
010M
0000
0000
MM10
000M
0000
01M0
0000
000M
1M00
0000
0000
,
M10M
0M10
M0M0
0001
M100
0010
0M01
10M0
010M
00M1
0M10
1M00
00M0
M001
0000
010M
,
0000
1M00
0000
0001
M000
1M00
01M0
001M
M001
10M0
0M10
010M
0M01
01M0
M010
100M
,
M001
1000
0M00
01M0
001M
M001
1M00
01M0
001M
M001
1M00
01M0
M0M0
MM1M
MMMM
MMM1
,
1000
0100
10M0
0000
00M1
0100
00M1
0000
1M00
0010
1M00
0000
0M01
0010
0M01
0000
,
10M0
0100
001M
0000
M001
0100
0010
0000
100M
0010
0100
0000
M001
0010
0100
1000
,
1M01
0000
0000
0000
00M0
0000
0000
0000
1M00
0000
0001
0000
10M0
0000
0000
0000
0110
0000
0000
0000
M000
0000
0000
0000
0001
0000
0100
0000
0010
1000
0001
0100
,
0001
0100
M000
0000
001M
1000
0M00
0000
10M0
0100
001M
0100
M010
0001
0010
0100
,
1000
0000
0000
0000
0010
0000
0M00
0000
0000
0000
0000
0000
00M1
0000
0000
1000
0000
0000
0M01
0000
0000
1000
0000
0000
00M1
0000
0000
0000
0000
0000
M100
0000
0000
0000
0000
0000
001M
0000
0000
0000
0000
0000
1M00
0000
0000
0000
0000
0000
,
10M0
0100
000M
0000
M010
0001
M100
0010
M100
0000
M001
0010
010M
0000
10M0
0000
,
1M01
0001
00M0
0000
100M
0010
0100
0010
100M
0000
010M
0000
M010
0000
0M01
0000
,
10M1
1000
0M00
0000
10M0
0100
001M
0001
1M01
0000
01M1
0001
1M01
0000
1000
0000
,
0110
0000
1001
0000
1000
0100
0010
0001
0000
0001
0100
0000
0010
1000
0001
0100
,
0000
0010
1000
0100
0010
0001
0010
0100
0000
1000
0100
0000
0000
0010
0001
0010
,
0100
1000
0010
0100
0010
1000
0001
1000
0000
0001
0100
0010
1000
0001
0100
0010
,
0000
0000
0000
0110
0000
0000
0000
0000
0000
0000
0000
0000
1000
0000
0000
0100
0000
0000
0010
0000
0000
0100
0000
0000
1100
0000
0000
0000
0000
0000
1001
0000
0000
0000
0001
0000
0400
0040
0000
0000
0000
0000
0000
0000
0330
0000
0000
0000
,
0110
0000
0010
0000
0100
0000
0000
1001
0000
0000
M000
0000
00M0
0000
0M00
0000
,
110M
0000
0010
0000
0101
0000
0000
1001
0000
0000
000M
0000
0M00
0000
M000
0000
,
10M0
0000
0100
0000
0010
0000
0000
0001
0000
0000
M000
0000
000M
0000
00M0
0000
,
0M01
0000
0100
0000
0010
0000
0000
1000
0000
0000
1100
0101
0000
0001
0100
0010
,
1000
0100
0000
0010
M001
0100
0010
0100
M001
0010
0100
1000
00M1
0100
0010
1000
,
001M
0100
M000
0001
0010
0100
10M0
0001
0100
0010
100M
0100
0000
0010
M000
0001
,
0100
0010
M100
0010
010M
0010
10M0
0100
0010
0001
1M00
0010
0100
0001
10M0
0100
,
0010
0001
M0M0
0100
0000
0010
100M
0100
0010
0001
M010
0100
0000
1000
00M0
0100
,
010M
0100
M000
0010
0M10
0001
M010
0100
100M
0100
0010
0001
M100
0010
100M
0010
,
0100
0001
M000
0010
010M
1000
0100
0010
MM01
0010
0100
1000
0M00
0001
00M0
1000
,
0000
0001
00M0
1000
0M00
0001
M100
0010
0100
0010
M10M
0010
M10M
0010
M10M
0010
,
M10M
0010
000M
1000
0100
0010
0M01
1000
0010
0100
M001
0100
0000
0010
000M
1000
,
0M01
0000
10M0
0100
000M
1000
0M10
1000
0001
0000
0MM0
0000
M00M
0000
MMMM
0000
,
M00M
0000
0000
0000
0000
0000
0MM0
0000
0000
0000
0000
0000
0110
0000
0000
0000
0000
0000
1000
0000
0000
0001
0000
0000
0000
0000
0000
0000
0000
0000
0000
0000
0000
0000
0000
0000
0000
0000
0000
0000
0000
0000
0001
0000
0000
0000
0010
0000
,
0000
0000
0100
0000
0000
0000
0000
0000
1000
0000
0000
0000
1100
0000
0000
0000
0000
0000
0000
0000
0000
0000
0000
0000
0000
0000
0000
0000
0000
0000
0000
0000
0000
0000
0000
0000
1000
0000
0000
0010
0000
0000
0000
0000
0000
0010
0000
0000
,
0100
0000
0000
0000
0000
0000
0000
0000
0000
0000
0000
1000
0000
0001
0000
0000
0000
0000
0000
0000
0000
0000
0000
0000
,
1111
0000
0000
0000
0MM0
0000
0000
0000
1000
0100
0010
0100
1000
0001
1000
0000
,
1000
0010
0100
0001
0100
0010
1000
0000
1000
0100
0010
0001
0010
0100
0010
0000
,
0010
0001
0100
0010
0100
0001
0010
0000
0010
0001
1000
0100
0010
0100
1000
0000
,
1000
0001
1000
0001
0010
0001
0100
0000
0100
0010
1000
0001
0010
0100
1000
0000
,
1001
0000
0001
0100
0010
1000
0100
0000
0010
0000
0001
0100
0001
0000
0101
0000
,
1001
0000
1000
0100
1000
0010
0100
0001
0010
0001
0010
0001
0010
0000
0100
0000
,
1001
0000
1000
0010
0100
0001
0010
0100
1000
0100
0010
0100
1000
0010
0100
0010
,
0100
0000
0010
0000
0100
0000
0010
0000
0000
0000
0010
0000
0000
0000
0000
0000
1000
0100
0010
0000
0001
0000
0100
0010
1000
0000
0001
0000
1000
0000
1001
0000
;
