#TITLE:La Nena De Papi;
#SUBTITLE:-Official Remix-;
#ARTIST:Plan B ft. Tito El Bambino;
#TITLETRANSLIT:;
#SUBTITLETRANSLIT:;
#ARTISTTRANSLIT:;
#CREDIT:;
#BANNER:banner.JPG;
#BACKGROUND:;
#LYRICSPATH:;
#CDTITLE:!tizaTitle.png;
#MUSIC:Plan_B_Ft._Tito_'El_Bambino'_-_La_Nena_de_Papa_(Official_Remix).ogg;
#OFFSET:-0.020;
#SAMPLESTART:125.001;
#SAMPLELENGTH:15.300;
#SELECTABLE:YES;
#BPMS:0.000=188.000,200.000=94.000,204.000=188.000,484.000=94.000,494.000=188.000;
#STOPS:221.000=0.160
,221.500=0.160
,236.000=0.160
,236.500=0.160
,386.000=2.240
,427.000=1.160
,427.333=0.540
,427.667=0.540
,502.500=0.320
,503.000=0.320
,517.000=0.080
,517.250=0.080
,517.500=0.080
,517.750=0.080
;
#BGCHANGES:;
// cache tags:
#FIRSTBEAT:24.000;
#LASTBEAT:746.500;
#SONGFILENAME:Songs/Reggaeton and more/La Nena De Papi [Official Remix]/Nenadepapirmx.sm;
#HASMUSIC:1;
#HASBANNER:1;
#MUSICLENGTH:252.573;
// end cache tags

//---------------dance-single - ----------------
#NOTES:
     dance-single:
     :
     Challenge:
     10:
     0.672,1.000,0.554,0.416,0.053,943.000,140.000,105.000,0.000,32.000:

0000
0000
0000
0000
,
0000
0000
0000
0000
,
0000
0000
0000
0000
,
0000
0000
0000
0000
,
0000
0000
0000
0000
,
0000
0000
0000
0000
,
1000
0000
0010
1000
0100
0000
0010
0000
,
1001
0000
0010
0001
0100
0000
1010
0000
,
0101
0000
1000
0100
0010
0000
0011
0001
,
0000
0000
0000
0000
1000
0010
0100
0000
,
2002
0003
0020
0000
,
0000
0000
0000
0000
0000
3030
0202
0300
,
2000
0000
0000
0003
0200
0000
0000
0000
,
0000
0000
3300
0100
1000
0010
0100
0001
,
0020
0000
0200
0000
,
0330
0000
0000
1000
0010
0100
0010
1000
,
0200
0000
0020
0000
,
0330
0000
0000
0000
1100
0100
0110
0000
,
0022
0000
0000
0030
2000
3000
0200
0300
,
0020
0000
0003
0031
,
2002
0000
0000
0003
0020
0030
0200
0300
,
3001
1000
0100
0010
0001
1000
0010
0100
,
0002
0000
2000
0000
0010
3003
0000
0000
,
0000
0000
0000
0100
0010
1000
0001
0100
,
0020
0000
2000
3030
1001
0000
2000
0000
,
0200
0000
0000
3000
0020
0300
0002
0033
,
1001
0000
0010
0100
1000
0001
0100
0010
,
1010
0000
0000
1000
0100
0001
1000
0010
,
0001
0100
0010
1000
0100
0010
0100
1000
,
1001
0000
0000
0000
1000
0100
0010
0000
,
1001
0000
0010
0100
1000
0100
0010
1000
,
0010
0000
0001
0100
0010
1000
0100
0010
,
0011
0000
1000
0010
0001
1000
0100
0001
,
1001
0000
0000
1000
0100
0010
0001
0010
,
1100
0000
0011
0000
0000
1000
0010
0100
,
0001
0010
0100
1000
1001
0000
0000
0000
,
1100
0100
0010
0001
0011
0001
0100
0010
,
1000
0100
1000
0010
0101
0000
0000
0000
,
1001
0000
1000
0010
0100
0000
0011
0010
,
0100
1000
1100
1000
1001
0000
0000
0000
,
1000
0010
0001
1000
0100
0001
0010
1000
,
0001
0100
1000
0010
0101
0000
0000
0000
,
1000
0100
0010
0001
1000
0100
0010
0001
,
1000
0010
0100
0001
1000
0010
0100
0001
,
0010
0100
0010
0001
1000
0100
0010
0100
,
1000
0001
0100
0010
0100
0001
0100
0010
,
1000
0010
0100
0001
0100
0010
1000
0100
,
0010
0100
1000
0010
0100
0001
0100
1000
,
0001
0010
1000
0100
0001
0100
1000
0010
,
0100
0001
0010
0100
1000
0100
0010
0001
,
1000
0010
0100
0001
1000
0100
0010
0001
0010
0100
1000
0001
0100
0000
0010
0000
,
1000
0100
1000
0010
0100
0001
0010
0001
,
0100
0001
1000
0100
1000
0000
1001
0000
,
1000
0010
0001
0010
1000
0000
1000
0100
,
0001
0100
1000
0010
0101
0000
0000
0100
,
1100
1000
0010
0100
1000
0100
0010
0001
,
0010
0100
1100
0000
0000
0010
0011
0001
,
0100
0010
0100
0001
0010
0100
1000
0100
,
0010
0001
1001
0000
0000
1000
0010
0100
,
0001
1000
0001
0100
0010
1000
0100
0010
,
0001
0100
0010
0100
0001
0000
0101
0000
,
1000
0000
1100
0000
0100
0010
0001
0010
,
0100
1000
1010
0000
0101
0000
0011
0000
,
1100
0000
0110
0000
1001
0000
1000
0010
,
0100
1001
0000
0000
,
1010
0000
0011
0000
1000
0001
1000
0001
,
1000
0000
0110
0000
0000
0000
0000
1000
,
0010
0100
0000
0000
0101
0000
1000
0100
,
0010
0100
1100
1001
,
0001
0000
0110
0000
0010
0100
0010
0100
,
0010
0000
1001
0000
0000
0000
0000
1000
,
1000
1000
0000
0000
0001
0010
0100
1000
,
1001
1010
0102
0000
,
2000
0000
0000
0000
0000
0000
0000
3003
,
0000
0000
2200
0300
0002
0000
0000
0000
,
0010
0000
3003
0000
0000
0000
0000
1000
,
0010
0100
0010
1000
0101
0000
0110
0000
,
2020
0000
0000
0000
3030
0000
0000
1000
,
0100
0001
1000
0010
0002
0000
0000
0000
,
2000
0000
3003
0000
,
1000
0000
0010
0000
0101
0000
1000
0100
,
0220
0330
0022
0033
,
2200
3300
0000
0000
,
2200
0000
0020
0030
,
0002
3303
0000
0000
,
2000
0000
0200
0000
,
0022
0000
0000
3333
0000
0000
0000
0000
,
0002
0000
0200
0000
,
2000
0000
3313
0000
,
2002
0000
0010
0000
,
0100
3003
0000
0000
,
0220
0000
1000
0000
,
0001
0330
0000
0000
,
2020
0000
0001
0000
,
0100
3030
0000
0000
,
2200
0000
0011
0000
,
0022
0000
0000
0000
0000
0000
0000
0000
0000
0000
0000
0000
0000
0000
0000
0000
0000
0000
0000
0000
0330
0000
0000
0000
0000
0000
0000
3003
0000
0000
0000
0000
0000
0000
0000
0000
1001
0000
0000
0000
0000
0000
1000
0000
0000
0000
0000
0000
,
0100
0010
0001
0000
1001
0001
0100
0010
,
1000
0100
0110
0010
1001
0000
1000
0100
,
0010
0100
1000
0100
0010
0001
0010
0100
,
0010
0001
0100
0010
1000
0000
1000
0100
,
0001
1000
0001
1000
0010
0001
0100
1000
,
0001
1000
0001
0010
1000
0000
1000
0100
,
0010
0001
1000
0010
0100
0001
0100
0010
,
1000
0001
0010
0100
1000
0000
1000
1000
,
0010
0010
0100
0100
0001
0010
0100
1000
,
0100
0000
0000
0010
0000
0000
0001
0000
0000
0000
0000
0000
1001
0000
0000
0000
0000
0000
1001
0000
1000
0000
0100
0000
,
0010
0001
0100
0010
1000
0100
0010
0001
,
1000
0100
0010
0100
1000
0001
0100
0010
,
1000
0010
0100
0010
1000
0100
0001
1000
,
0010
0001
0100
0010
1000
0100
0010
0001
,
1000
0010
0001
0010
1000
0100
0001
0100
,
1000
0010
0100
0010
1000
0001
0100
0010
,
0100
0001
0010
0100
1000
0001
0100
0010
,
1010
0010
0110
0100
0001
0010
0100
1000
,
0000
0000
0000
0000
1000
0010
1000
0010
,
0100
0001
0010
0100
1000
0100
1000
0100
,
1000
0010
1000
0010
0100
0001
0100
0001
,
0010
0100
1000
0010
0100
0001
0010
0100
,
1000
0100
0010
0001
0100
0010
1000
0100
,
0010
0001
1000
0001
1000
0001
1000
0001
,
0110
0000
0000
0000
0000
0000
0000
0000
1000
0000
0100
0000
0010
0000
0001
0010
0100
0000
1000
0000
0010
0000
0100
0000
0010
0000
0100
0000
0001
0000
1000
0000
,
0100
0010
0100
1000
0001
1000
1001
0000
1000
0100
1000
0010
0100
0001
0100
0001
,
0010
0100
1000
0001
0100
0010
1010
0000
1000
0000
0100
0000
0010
0000
0001
0000
,
1001
0000
0001
0100
0010
1000
0010
0100
,
0001
0000
1000
0100
0010
0001
1000
0001
,
0100
0000
1000
0010
0100
0001
0100
0010
,
1010
1000
0100
0010
0001
1000
0010
0100
,
0001
0100
0010
1000
1001
0000
1000
0100
,
0110
0000
0010
0000
0001
1000
0001
1000
0001
0000
0100
0000
0010
0000
1000
0000
,
0100
0010
0001
0100
1000
0001
0010
1000
,
1001
0001
0100
0010
1010
1000
0100
0010
,
0011
0001
1000
0001
1001
1000
0010
0100
,
0001
0010
0100
1000
1000
0100
0100
0010
,
0010
0001
0001
0100
0010
1000
0100
0010
,
0001
0100
1000
0001
0010
1000
0100
0010
,
0100
1000
0001
0100
0010
0100
0101
0000
,
1010
1000
0010
0100
0001
0010
0100
1000
,
0100
0010
0001
0000
1001
0000
1001
0000
,
1000
0010
0000
0010
1000
0010
1000
0010
,
0000
0000
0100
0001
0000
0000
1001
0000
,
1000
0010
0000
0100
0001
0010
0100
1000
,
0000
1001
0000
0110
,
1000
0010
0000
0010
1000
0100
0010
0001
,
1001
0000
1000
0010
0100
0000
0011
0000
,
1000
0010
0000
0100
0001
0010
0100
1000
,
0100
1001
0000
2002
,
0000
0010
3003
0000
,
0000
0000
2200
0001
,
0000
0010
3300
0000
,
0000
2000
3200
0320
0032
0203
0020
0000
,
0000
1000
0330
0000
,
0000
2000
3020
0230
0302
0023
0200
0000
,
0000
0001
0330
0000
,
0000
0000
1000
0100
0010
0000
2002
0000
,
0000
0000
0010
0000
0010
0000
0010
3003
,
0000
0000
1100
0202
,
0000
0010
1000
0313
,
0001
0100
0010
1000
0001
2000
0002
0000
,
0000
0000
0010
3003
0000
0000
0000
0000
,
0000
1000
0100
0010
0001
0100
0020
0000
,
0000
0000
0200
0000
0000
0330
0000
0000
,
0000
0000
0000
1100
,
0100
0010
0000
0001
0100
0010
1010
1010
,
0000
0000
0101
0101
0000
0000
1001
0000
,
1010
1010
0000
1000
0100
0010
0011
0011
,
0000
1001
0000
1010
,
0101
0011
0000
1100
0100
0010
0011
0000
,
0000
1001
0000
1100
,
0110
1001
0000
1001
0110
1100
0101
0000
,
0000
1001
0000
0000
,
0000
0220
0330
0022
,
0033
2200
3300
0000
,
0000
2200
0000
0020
,
0030
0002
3303
0000
,
0000
2000
0000
0200
,
0000
0000
0022
0000
0000
3333
0000
0000
,
0000
0002
0000
0200
,
0000
2000
0000
3313
,
0001
0100
0000
0010
1000
0100
0010
0001
,
0000
1000
0010
0100
0000
0100
0101
0000
,
0001
0010
0000
0100
1000
0010
0100
0001
,
0000
1000
1001
0001
0000
1000
1010
0010
,
0100
0101
0000
1000
0100
0010
0001
1000
,
0000
0001
0101
0100
0010
1000
0100
0000
,
0010
0001
0000
0001
0100
0010
1000
0100
,
0010
0000
0001
0100
0010
1001
0000
0000
;
