#TITLE:Dark Rituals For the Glory of Satan;
#SUBTITLE:;
#ARTIST:Loffciamcore;
#TITLETRANSLIT:;
#SUBTITLETRANSLIT:;
#ARTISTTRANSLIT:;
#CREDIT:;
#BANNER:Jello shot - bn.png;
#BACKGROUND:Jello shot - bg.png;
#LYRICSPATH:;
#CDTITLE:;
#MUSIC:Dla Szatana Chwaey To Mroczne Rytuaey.ogg;
#OFFSET:0.009;
#SAMPLESTART:15.901;
#SAMPLELENGTH:16.000;
#SELECTABLE:YES;
#DISPLAYBPM:240.000;
#BPMS:0.000=240.000;
#STOPS:;
#BGCHANGES:;
// cache tags:
#FIRSTBEAT:16.000;
#LASTBEAT:561.500;
#SONGFILENAME:Songs/Speedcore Rejects/Dark Rituals For the Glory of Satan - [Garrett + Arvin]/Dla Szatana Chwaey To Mroczne Rytuaey.sm;
#HASMUSIC:1;
#HASBANNER:1;
#MUSICLENGTH:141.482;
// end cache tags

//---------------dance-single - G. Moese & A. Ghasse----------------
#NOTES:
     dance-single:
     G. Moese & A. Ghasse:
     Challenge:
     17:
     1.000,1.000,0.233,0.163,1.000,1034.000,33.000,23.000,32.000,0.000:
0000
0000
0000
0000
,
0000
0000
0000
0000
,
0000
0000
0000
0000
,
0000
0000
0000
0000
,
1001
0000
0004
0103
0010
0100
0004
0003
,
1000
0000
0100
0000
0010
0100
1000
0000
,
0010
0000
0010
0100
0001
0100
0001
1000
,
0000
0000
0001
0000
1000
0000
0000
0000
0001
0100
0001
1000
0010
1000
0001
0100
,
0001
1000
0000
0010
0000
0100
0000
0001
,
1000
0100
0000
0010
0000
0100
1000
0001
,
0100
0000
0010
0100
0000
0001
0010
0001
,
0100
0010
0000
0100
0000
0000
0000
0000
,
0001
0010
0100
1000
0000
0000
0001
0100
,
0001
1000
0100
0010
0000
0000
0100
1000
,
0001
0000
0100
0001
0000
1000
0100
0010
,
0001
0000
1000
0000
0010
0000
0000
0000
0100
0001
1000
0010
0100
0001
0100
0010
,
1000
0001
0000
0010
0000
0000
0000
0000
,
0100
0000
1000
0000
0000
0000
0001
0000
1000
0100
1000
0001
0010
0100
1000
0001
,
1000
0001
0000
0100
0000
0001
0000
0100
,
0000
0010
0000
1000
0001
0000
0001
0000
,
1001
1000
0000
0010
0000
0000
0000
0100
,
0001
0000
1000
0000
0000
0000
0100
0000
1000
0001
1000
0010
0100
0001
1000
0010
,
1000
0001
0000
0010
0000
0100
0000
1000
,
0001
0010
0100
1000
0001
0010
0001
1000
0010
0000
0000
0000
0100
0000
0001
0000
,
0100
0000
0010
0000
1000
0000
0001
0000
1000
0010
1000
0001
0100
0001
1000
0010
,
1000
0001
0100
0010
1000
0001
0010
0100
1000
0001
0100
0001
1000
0100
0010
0001
,
1000
0010
1000
0001
0100
0001
1000
0010
0100
0001
1000
0100
1000
0001
0010
0001
,
1000
0010
0100
0001
1000
0010
1000
0001
0400
0000
0310
0000
0400
0000
0310
0000
,
0110
0000
0000
0000
0000
0000
1000
0100
1000
0001
0010
0001
1000
0100
0010
0001
,
1000
0100
1000
0001
0100
0001
1000
0010
0100
0010
1000
0001
0100
0001
1000
0010
,
1000
0001
1000
0100
0010
0001
0010
0100
1000
0001
0400
0000
0301
1000
0001
0000
,
4000
3000
0004
0003
0010
0100
0010
0100
1000
0000
0000
0000
1000
0000
0000
0000
,
0001
0010
0100
1000
0001
0010
0100
1000
0001
0100
0010
1000
0001
0100
0010
1000
,
0001
0010
0001
1000
0010
0100
0001
1000
0001
0000
0000
0000
0000
0000
0000
0000
,
1000
0100
0010
0001
1000
0001
0100
0000
0010
0000
0000
0000
0100
0000
0000
0000
,
0001
0100
0001
0100
0040
0000
0230
0300
,
0002
0003
0020
0030
0200
0300
2000
3000
,
0020
0130
0002
0003
1001
0000
0000
0000
,
1000
0100
1000
0001
0400
0000
0000
0000
0300
0000
0000
0000
0400
0000
0000
0000
,
03M0
0000
0000
0000
0000
0000
00M0
00M0
00M0
00M0
00M0
00M0
00M0
00M0
00M0
0000
,
0001
0000
0010
0000
0100
0000
1000
0000
0001
0100
0010
0100
0010
1000
0001
0100
,
0001
1000
0010
1000
0010
0100
0001
1000
0100
0010
0001
1000
0100
1000
0001
0010
,
0001
1000
0100
0010
0001
1000
0001
0100
0010
0100
0001
1000
0001
0100
0010
1000
,
0001
0100
0001
0100
0040
0000
0000
0000
1030
0000
0000
0000
1000
0000
0000
0000
,
1001
0000
0000
0000
0000
0000
0000
0000
0001
0100
0001
1000
0010
1000
0010
0100
,
0010
1000
0001
0100
0010
1000
0001
0010
0100
0010
0001
1000
0100
0010
0100
1000
,
0001
0010
0001
1000
0100
1000
0001
0010
0001
1000
0010
1000
0001
0100
0010
1000
,
0001
0100
0010
0100
0001
1000
0010
0100
0004
0000
0003
0000
0004
0000
0003
0000
,
4000
3000
0000
0000
0000
0000
0000
0000
0040
0030
0000
0000
0000
0000
0000
0000
1000
0000
0001
0000
0010
0000
0001
0000
1000
0000
0100
0000
1000
0000
0001
0000
,
0010
0100
1000
0001
1000
0100
1000
0001
0100
0001
1000
0010
0100
0001
1000
0001
,
0100
0000
0010
0000
0100
0000
0001
0000
1000
0000
0001
0000
0400
0300
0000
0000
0001
0000
0010
0000
0001
0000
1000
0000
0100
0000
0010
0000
0100
0000
1000
0000
,
0001
0010
0100
1000
0001
0100
0001
1000
0004
0000
0003
0000
0100
0000
0100
0000
,
0010
0000
0000
0000
1000
0000
0000
0000
0001
0100
0001
1000
0010
1000
0010
0100
,
0001
1000
0100
1000
0100
0010
0001
1000
0001
0000
0000
0000
0000
0000
0000
0000
,
2000
0000
0000
0000
0000
0000
0000
3001
0100
0001
1000
0100
0010
0001
1000
0001
,
0400
0000
0000
0000
0000
0000
0000
0300
0101
0000
0000
0000
0001
0000
0001
0000
,
1000
0010
0400
0301
,
1000
0000
0100
0000
0010
0100
1000
0000
,
1001
0000
0004
0103
0010
0100
0004
0003
,
00M0
0000
0000
0000
0000
0000
00M0
00M0
00M0
00M0
00M0
00M0
00M0
00M0
00M0
00M0
,
10M1
1000
0100
0010
,
0100
1000
0010
0100
,
0001
0010
0100
1000
,
0001
0100
0010
0100
0001
0000
0010
0000
,
0100
1000
0010
0100
,
0010
0100
0001
1000
,
0100
0010
0001
1000
,
0010
0000
0100
0100
0001
0000
1000
0100
,
0000
1000
0100
0010
0100
0000
1000
0010
,
0000
0000
0100
0001
0010
0000
0100
1000
,
0000
0001
0100
0010
0100
0001
0000
1000
,
0001
0000
0100
0100
0001
0010
0000
0100
,
0000
1000
0000
0001
0000
0100
0000
0020
,
0030
0000
0100
0000
0001
0000
1000
0100
,
0000
1000
0100
0010
0100
1000
0000
0001
,
0100
0000
0010
0010
1000
0000
0001
0100
,
0000
0000
0000
0000
0001
0010
0000
0100
,
0000
0000
0000
0000
1000
0100
0000
1000
,
0000
1000
0000
0010
0000
0100
0000
0001
,
0000
0000
0000
0000
1000
0000
1000
0000
0001
0010
0100
1000
0001
0100
0010
1000
,
0001
0000
0000
0000
1000
0100
0000
1000
,
0000
0000
0000
0000
0010
0100
0000
0001
,
0000
1000
0000
0100
0000
1000
0000
0001
,
0010
0000
0000
0000
0100
0000
0100
0000
1000
0100
1000
0001
0100
0010
1000
0000
,
0001
0010
0100
1000
0000
1000
0000
0001
,
1000
0100
1000
0001
0100
0001
1000
0010
1000
0001
0010
0001
1000
0010
1000
0001
,
0100
0001
1000
0010
0100
0010
1000
0001
0100
0010
1000
0010
0100
0010
1000
0001
,
2000
0000
0000
0000
0000
0000
0000
0000
0000
0000
0000
0000
3001
0000
0000
0000
0000
0000
0001
0000
0000
0000
0000
0000
2000
0000
0000
3000
0000
0000
0000
0000
0000
0000
0000
0000
0040
0000
0000
0000
0030
0000
0000
0000
0000
0000
0000
0000
,
1000
0100
1000
0001
0010
0100
1000
0001
1000
0100
1000
0001
0010
0100
1000
0001
,
0100
0001
1000
0010
0100
0010
1000
0001
0100
0001
1000
0010
0100
0001
1000
0001
,
0010
0000
0400
0300
1000
0000
0004
0003
0400
0300
0040
0030
1000
0100
1000
0001
,
0100
0000
0001
0001
2000
0000
3000
0000
,
0001
0100
0001
1000
0010
1000
0010
0100
0001
1000
0010
1000
0001
0010
0001
1000
,
0100
0000
0000
0000
0000
0000
0000
0000
1000
0100
1000
0001
0010
0100
1000
0001
,
4000
0000
0000
3000
0001
0100
0010
0100
0001
0000
1000
0000
0100
0000
0010
0000
,
0004
0000
0000
0000
1003
0000
1000
0000
0001
0100
0010
0100
0001
1000
0010
1000
,
0004
0000
0000
0000
0000
0000
0003
0000
0040
0030
0000
0000
0400
0300
0000
0000
,
0040
0030
0000
0000
0004
0003
0000
0000
2000
0000
0000
0000
0000
0000
0000
0000
,
3004
0000
0000
0000
0000
0000
0003
0000
0M00
0000
0000
0000
0000
0000
0M00
0M00
,
0M00
0M00
0M00
0M00
0M00
0M00
0M00
0000
1000
0000
0100
0000
1000
0000
0010
0000
,
0400
0000
0000
0000
0000
0000
0000
0000
0000
0000
0000
0000
0000
0000
0000
0000
0000
0000
0000
0000
0300
0000
0000
0000
0001
0000
0000
1000
0000
0000
0100
0000
0000
1000
0000
0000
0001
0000
0000
0010
0000
0000
0100
0000
0000
1000
0000
0000
,
0001
0010
0001
1000
0010
0100
0001
1000
0001
0100
0010
1000
0001
0100
0001
1000
,
0001
0010
0100
1000
0001
0010
0001
1000
0100
0010
0100
1000
0001
0100
0001
1000
,
0004
0003
0004
0003
0100
0001
1000
0100
,
1000
0010
1000
0001
0100
0001
0100
0010
0100
0001
1000
0010
0100
0001
1000
0100
,
1000
0001
0010
0100
1000
0001
0010
0001
1000
0100
1000
0001
0010
0100
1000
0001
,
2000
0000
0000
0000
3000
0000
0000
0000
0001
0100
0010
0100
0001
1000
0010
0100
,
0004
0003
0000
0000
4000
3000
4000
3000
0010
0000
0000
0000
0100
0000
0000
0000
,
0001
1000
0100
1000
0001
0010
0100
0010
0001
1000
0010
0100
0010
1000
0001
0010
,
0100
1000
0001
0010
0100
0010
0001
1000
0010
0100
0010
1000
0004
0000
0000
0000
,
1003
0000
0000
0000
0000
0000
0000
0000
0001
0100
0010
0100
0001
0100
0010
1000
,
0004
1003
0100
1000
,
0001
0100
0001
1000
0010
1000
0001
0100
0010
0100
0001
1000
0001
0100
0001
1000
,
0100
1000
0001
0010
0001
1000
0100
0010
0001
1000
0100
1000
0001
0010
0001
1000
,
0001
0100
0010
0100
0001
1000
0010
0100
0004
0000
0000
0000
0000
0000
0000
0000
,
1003
0000
0100
0100
0020
0030
0020
0030
,
0004
0003
0100
0000
0010
0000
0100
0000
,
0001
0010
0100
0000
1100
0000
1000
0000
,
0010
0100
0010
1000
,
1010
0000
1010
0000
0101
0000
0001
0010
,
0400
0300
0000
1000
0000
0000
0010
0000
0000
0100
0000
0000
,
0001
0100
0010
1000
0001
0010
0100
1000
0001
0000
0000
0000
0000
0000
0000
0000
,
0000
0000
0000
0000
0000
0000
0000
0000
1000
0100
0010
0001
1000
0001
0100
0001
,
1000
0000
0000
0000
0001
0000
0001
0000
1000
0100
0010
0001
1000
0010
0100
0001
,
1000
0100
0010
0001
1000
0001
0100
0010
0100
0001
1000
0100
1000
0001
0010
0100
,
1000
0001
0100
0010
0100
0001
1000
0100
2000
0000
0000
3000
0010
0000
0000
0000
,
0100
0001
0010
0100
0000
0100
1000
0000
,
0020
0030
0100
0001
0100
0000
0004
0013
,
0100
0010
0004
0003
1000
0000
0001
0000
,
0100
0010
0100
0000
0001
0000
0001
0000
,
1000
0100
1000
0010
0000
0010
0100
0001
,
0010
0100
1000
0001
2002
3003
1000
0000
,
0040
0130
0001
0010
,
0100
1000
0001
0000
0100
0000
0100
0001
,
0010
0100
1000
0010
0000
0010
0100
0000
,
0002
0003
1000
0000
0100
0000
0040
0000
,
0130
0040
0031
1000
,
0010
0100
0001
0000
0010
0000
0010
0000
,
0100
1000
1100
0000
0000
0000
0000
0000
,
0011
0011
2002
0000
,
0000
0000
0000
3003
0000
0000
0000
0000
;
