#TITLE:Northern Limit;
#SUBTITLE:;
#ARTIST:Kobaryo;
#TITLETRANSLIT:;
#SUBTITLETRANSLIT:;
#ARTISTTRANSLIT:;
#CREDIT:;
#BANNER:../BN.png;
#BACKGROUND:../BG.png;
#LYRICSPATH:;
#CDTITLE:../CDTitleBRAEDEN.png;
#MUSIC:Northern Limit.ogg;
#OFFSET:1.537;
#SAMPLESTART:13.550;
#SAMPLELENGTH:23.000;
#SELECTABLE:YES;
#BPMS:0.000=135.000,68.000=270.000,196.000=135.000,324.000=270.000;
#STOPS:;
#BGCHANGES:;
// cache tags:
#FIRSTBEAT:4.000;
#LASTBEAT:452.000;
#SONGFILENAME:Songs/Index Gradation/Northern Limit - [Braeden]/Northern Limit.sm;
#HASMUSIC:1;
#HASBANNER:1;
#MUSICLENGTH:150.520;
// end cache tags

//---------------dance-single - Happy Feet----------------
#NOTES:
     dance-single:
     Happy Feet:
     Challenge:
     26:
     1.000,1.000,0.186,0.359,1.000,980.000,28.000,54.000,0.000,22.000:

0000
0000
0000
0000
,
2000
0000
0000
3000
1001
0000
0001
1000
,
0200
0310
1010
0002
,
2003
0000
3000
0000
1010
0000
0000
0010
,
0100
1000
1100
0000
2002
0000
0000
3003
,
0101
0000
0001
0000
1010
0000
1000
1000
,
0010
0000
0100
0000
0011
0000
0001
1000
,
0002
0000
0000
0000
0003
0000
1000
0100
0010
0000
0000
0000
0000
0000
0001
0000
,
0100
0010
1000
0000
1001
0000
0000
0000
,
0202
0000
0000
0303
,
2000
0000
0001
0000
,
3020
0000
0100
0000
,
0032
0000
0200
0300
,
0023
0000
0000
0000
,
0230
0000
2300
0000
,
3002
0000
0000
0000
,
0203
0000
0310
0000
,
1001
0000
0000
0000
1000
0000
0001
0100
0001
0000
0100
0000
0010
0000
1000
0000
,
0100
0000
0010
0000
0001
0000
0010
0000
0100
1000
0100
1000
0001
0000
0100
0000
,
0010
0000
0000
0000
1000
0000
0001
0100
0001
0000
1000
0000
0100
0000
0010
0001
,
1000
0000
0100
0000
0010
0000
0001
0000
1000
0100
0010
0001
0010
0100
1000
0001
,
0100
0000
0000
0000
0010
0000
1000
0100
0010
0000
0001
0000
0100
0000
0100
0000
,
0010
0000
1000
0000
0100
0000
0010
0000
0001
0100
0010
1000
0001
0000
0100
0000
,
0010
0000
0000
0000
1000
0000
0001
0100
0001
0000
1000
0000
0100
0000
0010
0001
,
0040
0000
0130
1000
0400
0000
0300
0000
0010
0001
0010
0001
0040
0000
0000
0030
,
0110
0000
0000
0000
1000
0000
0001
0100
0010
0000
1000
0000
0100
0000
0010
0000
,
0002
0000
0000
0000
1003
0000
0100
0000
0010
0001
0010
0001
0010
0000
0100
0000
,
2000
0000
0000
0000
3001
0000
0010
0100
1000
0000
0001
0000
0100
0000
0010
1000
,
0001
0000
0100
0000
0010
0000
1000
0000
0100
0010
0001
0010
0100
1000
0001
0100
,
0010
0000
0000
0000
1000
0000
0010
0100
0010
0000
1000
0100
0010
0000
0001
0000
,
2000
0000
0000
0000
0000
0000
0000
0000
0000
0000
0000
0000
3001
0000
0000
0100
0000
0000
0001
0000
0000
0000
0000
0000
1000
0000
0010
0000
1000
0000
0010
0000
0000
0100
0000
0000
0001
0000
0000
0000
0000
0000
0100
0000
0000
0000
0000
0000
,
0010
0000
0000
0000
1000
0000
0100
0010
0100
0000
1000
0000
0001
0000
0100
0010
,
0100
0010
1000
0100
0010
0001
0010
0100
1000
0001
0100
0010
0100
0001
0010
0001
,
1000
0000
0100
0000
0010
0000
0001
1000
0001
0000
1000
0000
0100
0000
0010
0000
,
0001
1000
0001
0000
1000
0000
0100
0000
0010
0001
0010
0001
1000
0000
0100
0000
,
0010
0000
0001
0000
0100
0000
0010
1000
0010
0000
0100
0000
0001
0000
0100
0001
,
1000
0000
0010
0000
0100
0000
0001
0000
0100
0010
1000
0100
0010
0100
1000
0001
,
0100
0000
0010
0000
1000
0000
0100
1000
0010
0000
0100
0000
0001
0000
0100
0000
,
0010
1000
0010
0000
0100
0000
0001
0000
0010
0100
0010
0001
0010
0000
0100
0000
,
1000
0100
0010
0100
1000
0000
0001
0100
0010
0000
1000
0000
0100
0000
0010
0001
,
0010
0100
1000
0001
0100
0010
0100
0001
0010
0001
1000
0100
0010
0100
1000
0001
,
0100
0000
0010
0000
0100
0000
0010
1000
0010
0000
0100
0000
0001
0000
1000
0000
,
0100
0010
0100
0000
0010
0000
0001
0000
1000
0010
0100
0001
1000
0000
0100
0000
,
0010
0000
0001
0000
0010
0000
0001
0100
0010
0000
1000
0000
0100
0000
0010
0001
,
0100
0000
0010
0000
0100
0000
0001
0000
0010
0100
1000
0001
0100
0010
1000
0100
,
0010
0000
0001
0000
1000
0000
0100
1000
0010
0000
0100
0000
0001
0000
1000
0000
,
0100
0010
0100
0000
1000
0000
0001
0100
0010
1000
0100
0010
0100
0000
0010
0000
,
0001
1000
0010
0100
0001
0000
1000
0100
0010
0001
0010
0000
0100
0000
1000
0001
,
0100
0010
1000
0100
0010
0100
1000
0001
0010
0100
1000
0001
0100
0010
0100
0001
,
2000
0000
0000
0000
,
0000
0000
3001
0010
,
0100
0000
4000
3004
0403
0300
0040
0030
,
2000
0000
3002
0000
,
4003
3000
0040
0430
0340
0030
4000
3000
,
0000
0000
0002
0103
,
0040
0030
4000
3400
0340
0030
0040
0030
,
0002
0000
0000
0000
0000
0000
0000
0000
0000
0000
0000
0000
0003
0000
1000
0100
0020
0000
0000
0000
0000
0000
0000
0000
0000
0000
0000
0000
0030
0000
0001
0100
,
0040
0030
4000
3040
0430
0300
0004
0003
,
1000
0000
0000
0000
0000
0000
0001
0100
0020
0000
1030
0000
0020
0000
0130
0000
,
0004
0000
0003
0000
1000
0000
0010
0100
0010
0000
0100
0000
0010
0000
1000
0000
,
2000
0000
0000
3010
0010
0100
0000
0002
,
1003
0000
0010
0000
0100
0000
0001
0100
0010
0000
1000
0000
0010
0000
0100
0000
,
0100
0000
0000
0000
0000
0000
0000
0000
0000
0000
0000
0000
0001
0010
0100
1000
0001
0000
0000
0000
0100
0000
0000
0000
0010
0000
0000
0000
1000
0000
0000
0000
,
0020
0000
0000
0000
0130
0000
0001
0100
0010
0000
0100
0000
0001
0000
0100
0000
,
0020
0000
0030
0100
0202
0000
0000
0303
,
0202
0000
0000
0000
0000
0000
0313
1000
2010
0000
0000
0000
3100
0000
0010
0000
,
0000
2002
0110
0010
,
0020
0000
0030
0000
3113
0000
0000
1000
,
0100
0010
0001
0000
0202
0000
0000
0000
,
0010
0000
1000
0000
1010
0000
0010
0010
,
0000
1000
1313
0200
,
2000
0000
0000
0000
0000
0000
0000
0000
0000
0000
0000
0000
0000
0000
0001
0010
0001
0000
0000
0000
0000
0000
0000
0000
0000
0000
0000
0000
0010
0000
0000
0000
,
0001
0010
0001
0000
3311
0000
0000
0000
,
0012
0000
0000
0000
,
2000
0000
0020
0000
,
0200
0000
3333
0000
,
0002
0000
0203
0000
,
0320
0000
0000
0000
,
2030
0000
3020
0000
,
1030
0000
0000
0000
,
1010
0000
0001
0000
,
1000
0100
0010
0001
0010
0100
1000
0001
0100
0010
0100
0001
0010
0001
1000
0100
,
0010
0001
0010
0100
1000
0001
0100
0010
0100
0001
0010
0001
1000
0100
0010
0001
,
1000
0010
0100
0001
0010
0001
1000
0100
0010
0001
0010
0100
1000
0001
0010
0100
,
1000
0001
0100
0010
0100
0001
0010
0001
1000
0100
0010
0001
0010
0100
1000
0001
,
0100
0010
0100
0001
0010
0001
1000
0100
0010
0001
1000
0100
1000
0001
0100
0010
,
1000
0100
0010
0001
0010
0100
1000
0001
0100
0010
0100
0001
0010
0001
1000
0100
,
0010
0001
0010
0100
1000
0001
0100
0010
1000
0100
0010
0001
0010
0100
1000
0010
,
1000
0100
0010
0001
0010
0100
1000
0001
0040
0000
0000
0000
0000
0000
0000
0000
,
0031
0010
0100
1000
0001
0100
0010
0100
0001
0010
0001
1000
0100
0010
0001
0010
,
0100
1000
0001
0100
0010
0100
0001
0010
0001
1000
0100
0010
0100
1000
0001
0010
,
0100
1000
0001
0100
0010
0100
0001
0010
0001
1000
0100
0010
0001
0010
0100
1000
,
0001
0010
0100
1000
0100
0010
0100
1000
0001
0100
0010
0100
0001
0010
0001
1000
,
0100
0010
0100
1000
0001
0100
0010
0100
0001
0010
0001
1000
0100
0010
0100
1000
,
0001
0010
0100
1000
0001
0100
0010
0100
0001
0010
0001
1000
0100
0010
0100
1000
,
0001
0010
0100
1000
0001
0100
0010
0100
0001
0010
0001
1000
0100
0010
0100
1000
,
0001
0010
0100
1000
0001
0100
0010
0100
0040
0000
0000
0000
0000
0000
0000
0000
,
0130
0001
0100
0010
1000
0100
0010
0001
0010
0100
1000
0001
0100
0010
0100
0001
,
0010
0100
1000
0001
0100
0010
0100
0001
0010
0001
1000
0100
0010
0001
0010
0100
,
1000
0001
0100
0010
0100
0001
0010
0001
1000
0100
0010
0100
1000
0001
0010
0100
,
1000
0001
0100
0010
0100
0001
0010
0001
1000
0100
0010
0100
1000
0001
0010
0100
,
1000
0001
0100
0010
0100
0001
0010
0001
1000
0100
0010
0100
1000
0001
0010
0100
,
1000
0001
0100
0001
0010
0100
1000
0001
0010
0100
1000
0001
0010
0001
1000
0100
,
0010
0001
0010
0100
1000
0001
0100
0010
1000
0100
0010
0100
1000
0001
0010
0100
,
1000
0001
0100
0010
0100
0001
0010
0001
4000
0000
0000
0000
0000
0000
0000
0000
,
3001
0010
0100
1000
0001
0100
0010
0100
0001
0010
0001
1000
0100
0010
0100
1000
,
0001
0010
0100
1000
0001
0100
0010
0100
0001
0010
0001
1000
0100
0010
0100
1000
,
0001
0010
0100
1000
0001
0100
0010
1000
0100
0010
0100
1000
0001
0010
0100
1000
,
0001
0100
0010
0100
0001
0010
0001
1000
0100
0010
0100
1000
0001
0100
0010
1000
,
0001
0010
0100
1000
0001
0100
0010
0100
0001
0010
0001
1000
0100
1000
0001
0010
,
0100
1000
0001
0100
0010
0100
0001
0010
0001
1000
0100
0010
0001
0010
0100
1000
,
0001
0100
0010
0100
0001
0010
0001
1000
0100
0010
0001
0100
0010
1000
0001
0010
,
0100
1000
0001
0100
0010
0100
0001
0010
0001
1000
0100
0010
0001
0010
0100
1000
,
0001
0000
0000
0000
;
