#TITLE:Sun Son Sunday;
#SUBTITLE:(Orange Mix);
#ARTIST:Vospi;
#TITLETRANSLIT:;
#SUBTITLETRANSLIT:;
#ARTISTTRANSLIT:;
#CREDIT:;
#BANNER:SonSonSunday-bn.png;
#BACKGROUND:SonSonSunday-bg.png;
#LYRICSPATH:;
#CDTITLE:!cartoonTitle.png;
#MUSIC:Sun Son Sunday (Orange mix).ogg;
#OFFSET:0.000;
#SAMPLESTART:34.252;
#SAMPLELENGTH:12.000;
#SELECTABLE:YES;
#BPMS:0.000=175.069;
#STOPS:;
#BGCHANGES:;
// cache tags:
#FIRSTBEAT:0.000;
#LASTBEAT:308.000;
#SONGFILENAME:Songs/Definitive Keyboard Megapack/Sun Son Sunday (Orange mix) (cartoon)/Sun Son Sunday (Orange mix).sm;
#HASMUSIC:1;
#HASBANNER:1;
#MUSICLENGTH:107.049;
// end cache tags

//---------------dance-single - Blank----------------
#NOTES:
     dance-single:
     Blank:
     Challenge:
     14:
     1.000,1.000,1.000,0.504,1.000,845.000,378.000,54.000,0.000,15.000:

1000
0010
0001
0100
0020
0000
0000
0000
,
0000
0000
0000
0000
,
0000
0000
0000
0000
,
0000
0000
0000
0030
,
0200
0010
0001
0302
0100
1000
0100
0010
,
0100
0023
0100
1000
0100
0031
0010
0001
,
2100
0001
3010
0021
0100
1000
0100
0001
,
1000
0231
0010
1000
0010
0301
0010
0100
,
2000
0100
0001
3020
0100
0001
0100
1000
,
0100
0032
0010
0100
1000
0100
1000
0103
,
2100
0010
0001
3120
0001
0100
1000
0100
,
0001
0132
0010
0100
1000
0100
0013
0001
,
1000
0100
0010
0001
1100
0001
0110
1000
0011
1000
0110
0001
1010
0001
0110
1000
,
0011
0100
1010
0001
0110
1000
0011
0100
1001
0010
1100
0001
1010
0001
0110
0001
,
1010
0100
0011
0100
1001
0010
1001
0100
0011
0100
1010
0001
0110
1000
0101
0010
,
1001
0100
1010
0001
0110
0001
1100
0010
0101
1000
0110
1000
0011
0100
1001
0010
,
1100
0001
1010
0001
0110
1000
0011
0100
1010
0001
0110
0001
1010
0100
0011
1000
,
0110
1000
0101
1000
0101
0010
1001
0100
1001
0010
0101
0010
1001
0100
0011
1000
,
0011
0100
1001
0010
1100
0001
0110
0001
1010
0100
1001
0010
0101
1000
0011
0100
,
1010
0100
1001
0010
1100
0001
0110
1000
0011
0100
1010
0001
1100
0010
1001
0000
,
0110
0001
0001
0001
0001
0001
0001
0011
1001
0001
0001
0011
0001
0001
0001
0011
,
0001
0011
0001
0001
0001
0001
0001
0011
1001
0001
0001
0011
0001
0001
0001
0011
,
0001
0011
0001
0001
0001
0001
0001
0011
1001
0001
0001
0011
0001
0001
0001
0011
,
0001
0011
0001
0001
0001
0001
0001
0011
1001
0001
0001
0011
0001
0001
0001
0011
,
0001
0011
0001
0001
0001
0001
0001
0011
1001
0001
0001
0011
0001
0001
0001
0011
,
0001
0011
0001
0001
0001
0001
0001
0011
1001
0001
0001
0011
0001
0001
0001
0011
,
0001
0011
0001
0001
0001
0001
0001
0011
1001
0001
0001
0011
0001
0001
0001
0011
,
0001
0011
0001
0001
0001
0001
0001
0011
1001
0001
0001
0011
0001
0001
0001
0011
,
1100
0000
0011
0000
1100
0000
0220
0000
0000
0330
0000
0000
0000
0000
0000
0000
,
0000
0000
0000
0000
0000
0000
0000
0000
0000
0022
0000
0000
0000
0000
0000
0033
0000
0000
0000
0000
0022
0000
0000
0000
0000
0000
0000
0000
0033
0000
0000
0000
0000
0000
0000
0000
0000
0000
0000
0000
0000
0000
0000
0000
0000
0000
0000
0000
,
0000
1100
0000
0011
0000
0110
0000
2200
0000
3300
0000
0000
0000
0000
0000
0000
,
0000
0000
0000
0000
0000
0000
0000
0000
0000
0022
0000
0000
0000
0000
0000
0033
0000
0000
0000
0000
0022
0000
0000
0000
0000
0000
0000
0000
0033
0000
0000
0000
0000
0000
0000
0000
0000
0000
0000
0000
0000
0000
0000
0000
0000
0000
0000
0000
,
1000
0010
1000
0111
1000
0010
0100
1011
0100
0001
0100
1011
0100
1000
0010
1101
,
0010
0100
1000
0111
1000
0010
0001
1110
0001
0010
1000
0111
1000
0100
0001
1110
,
0002
0000
0000
0000
,
0000
0000
0000
0000
0000
0000
0000
0003
,
0000
1100
0001
1100
0001
1100
0001
1100
0001
1100
0001
1100
0000
0110
1000
0110
,
0000
0011
1000
0011
1000
0011
1000
0011
1000
0011
1000
0011
1000
0011
1000
0011
,
0000
0110
0001
0110
0001
0110
0001
0110
0001
0110
0001
0110
0000
1010
0100
1010
,
0000
1001
0100
1001
0100
1001
0100
1001
0100
1001
0100
1001
0100
1001
0100
1001
,
0000
0101
0010
0101
0010
0101
0010
0101
0010
0101
0010
0101
0000
1100
0001
1100
,
0000
1010
0100
1010
0100
1010
0100
1010
0100
1010
0100
1010
0100
1010
0100
1010
,
0000
1010
0001
1010
0001
1010
0001
1010
0001
1010
0001
1010
0000
0110
1000
0110
,
0000
0110
0001
0110
0001
0110
0001
0110
0001
0110
0001
0110
0001
0110
0001
0110
,
0000
1100
0001
1100
0001
1100
0001
1100
0001
1100
0001
1100
0000
0110
1000
0110
,
0000
0011
1000
0011
1000
0011
1000
0011
1000
0011
1000
0011
1000
0011
1000
0011
,
0000
0110
0001
0110
0001
0110
0001
0110
0001
0110
0001
0110
0000
0011
1000
0011
,
0000
1100
0001
1100
0001
1100
0001
1100
0001
1100
0001
1100
0001
1100
0001
1100
,
0000
1100
0001
1100
0001
1100
0001
1100
0001
1100
0001
1100
0000
0110
0001
0110
,
0000
0011
1000
0011
1000
0011
1000
0011
1000
0011
1000
0011
1000
0011
1000
0011
,
0000
1010
0100
1010
0100
1010
0100
1010
0100
1010
0100
1010
0000
0101
0010
0101
,
0000
1010
0100
1010
0000
1010
0000
2020
0000
0000
0000
0000
0000
0000
0000
0000
,
0000
3032
0000
0000
0000
0203
0000
0320
0000
0000
0000
0000
0000
0000
0000
0000
,
0000
0032
0000
0023
0000
0230
0000
0320
0000
0000
0000
2030
0000
0000
0000
0000
,
0000
3020
0000
0000
0000
0230
0000
0322
0000
0000
0000
0000
0000
0000
0000
0000
,
0000
2033
0000
3002
0000
0203
0000
0320
0000
0000
0000
2030
0000
0000
0000
3000
,
0011
0100
1000
0100
0110
0001
0100
0010
,
1000
0001
1100
0010
0001
0010
0100
1000
,
0100
0010
0001
0100
0011
1000
0100
0010
,
0002
0000
0000
0000
0000
0000
0000
0003
,
0000
1100
0001
1100
0001
1100
0001
1100
0001
1100
0001
1100
0000
0110
0001
0110
,
0000
0011
1000
0011
1000
0011
1000
0011
1000
0011
1000
0011
1000
0011
1000
0011
,
0000
0110
0001
0110
0001
0110
0001
0110
0001
0110
0001
0110
0000
0011
1000
0011
,
0000
1100
0001
1100
0001
1100
0001
1100
0001
1100
0001
1100
0001
1100
0001
1100
,
0000
0110
1000
0110
1000
0110
1000
0110
1000
0110
1000
0110
0000
1100
0001
1100
,
0000
0011
1000
0011
1000
0011
1000
0011
1000
0011
1000
0011
1000
0011
1000
0011
,
0000
1100
0001
1100
0001
1100
0001
1100
0001
1100
0001
1100
0000
0110
1000
0110
,
0000
0011
1000
0011
0000
0011
0000
0022
0000
0000
0000
0000
0000
0000
0000
0033
,
0000
1100
0001
1100
0001
1100
0001
1100
0001
1100
0001
1100
0000
0110
0001
0110
,
0000
1100
0001
1100
0001
1100
0001
1100
0001
1100
0001
1100
0001
1100
0001
1100
,
0000
0110
0001
0110
0001
0110
0001
0110
0001
0110
0001
0110
0000
1100
0001
1100
,
0000
0011
1000
0011
1000
0011
1000
0011
1000
0011
1000
0011
1000
0011
1000
0011
,
0000
1100
0001
1100
0001
1100
0001
1100
0001
1100
0001
1100
0000
0011
0100
0011
,
0000
1100
0001
1100
0001
1100
0001
1100
0001
1100
0001
1100
0001
1100
0001
1100
,
0000
0011
1000
0011
1000
0011
1000
0011
1000
0011
1000
0011
0000
0110
0001
0110
,
0000
0011
1000
0011
0000
0011
0000
0022
0000
0000
0000
0000
0000
0000
0033
0000
,
2222
0000
0000
0000
,
3333
0000
0000
0000
;
