#TITLE:Hiho;
#SUBTITLE:(Red Monster Hyper Mix);
#ARTIST:Captain Jack;
#TITLETRANSLIT:;
#SUBTITLETRANSLIT:;
#ARTISTTRANSLIT:;
#CREDIT:;
#BANNER:Hiho-bn.PNG;
#BACKGROUND:Hiho-bg.PNG;
#LYRICSPATH:;
#CDTITLE:cd.png;
#MUSIC:Hiho (Red Monster Hyper Mix).mp3;
#OFFSET:-4.240;
#SAMPLESTART:5.440;
#SAMPLELENGTH:12.000;
#SELECTABLE:YES;
#BPMS:0.000=173.020;
#STOPS:68.000=1.031
,225.000=0.347
;
#BGCHANGES:;
// cache tags:
#FIRSTBEAT:3.500;
#LASTBEAT:228.000;
#SONGFILENAME:Songs/toune 2/Hiho (Red Monster Hyper Mix)/Hiho (Red Monster Hyper Mix).sm;
#HASMUSIC:1;
#HASBANNER:1;
#MUSICLENGTH:86.316;
// end cache tags

//---------------dance-single - ----------------
#NOTES:
     dance-single:
     :
     Hard:
     9:
     0.657,0.594,0.324,0.046,0.237,365.000,28.000,4.000,0.000,0.000:
0000
0000
0000
0000
0000
0000
0000
0100
,
1000
0000
0010
0100
0010
0000
0001
0100
,
1000
0000
0000
0001
1000
0000
0100
0000
0010
0000
0000
0000
1000
0000
0100
0000
,
0010
0001
0010
1000
0100
1000
0100
0001
,
0010
0000
1000
0100
0010
0001
0100
0010
,
0001
0000
1000
0100
0010
0000
0100
0010
,
0001
0000
0000
0100
1000
0000
0100
0000
0010
0000
0000
0000
0100
0000
0010
0000
,
1000
0001
0100
0100
0010
1000
0100
0001
,
1000
0000
0100
0010
0001
0100
0010
0001
,
1000
0000
0100
0000
0010
0000
0100
0010
0000
0100
0000
0010
0001
0000
1000
0000
,
0100
0000
0010
0000
0100
0010
0000
1000
0000
1000
0000
0001
0100
0000
0010
0000
,
0100
0000
1001
0000
1000
0100
0010
0000
,
0100
0000
0010
0000
0001
0000
1000
0010
0000
1000
0000
0100
0001
0000
0000
0000
,
0100
0000
0010
0000
0001
0000
0100
0010
0000
0001
0000
1000
0100
0000
0100
0000
,
0010
0000
0100
0000
1000
0100
0000
0010
0000
0001
0000
0100
0010
0000
0100
0000
,
0010
0000
1001
0000
0100
1000
0010
0000
,
1000
0000
0100
0000
0010
0000
1000
0100
1000
0000
0100
0000
0010
0000
0000
0000
,
2001
0000
3001
0000
0100
0010
0001
0000
,
0010
1000
0100
0000
0101
0000
1100
0000
,
0010
0010
0100
0000
0001
0000
0001
0000
,
0001
0000
0100
0000
1000
0100
0000
0100
,
0000
0101
0000
0001
1000
0001
1000
0000
,
0001
0100
1000
0100
1000
0010
0000
0010
,
1000
0100
1000
0000
0101
0000
1010
0000
,
0100
0000
1000
0000
0100
0100
0000
1000
,
0000
0001
0100
1000
0001
0100
1000
0000
,
0100
1000
0100
1000
0100
1000
0000
1010
,
0000
1100
0000
0001
0100
1000
0100
1000
,
0100
1000
0010
0000
0100
0001
0000
0011
,
0000
0011
0000
0100
1000
0100
1000
0000
,
0001
0100
1000
0001
0010
0100
0000
0011
,
0000
0011
0000
0100
1000
0000
1100
0000
,
1001
0000
0010
0000
1000
0100
0000
1000
,
0000
0100
1000
0100
1000
0100
1000
0000
,
1001
0000
0000
0010
1000
0010
1000
0000
,
1100
0000
0000
0001
0100
1000
0100
1000
,
0100
1000
0011
0000
1010
0000
1100
0000
,
1000
0100
1000
0000
0100
1000
0100
0000
,
1000
0000
0001
0000
0100
0000
0000
0010
1000
0000
0100
0000
1000
0000
0000
0000
,
0001
0100
1000
0001
0010
1000
0010
0100
,
0001
0100
1000
0000
0100
1000
0001
0010
,
0100
0010
0100
0000
0001
0100
1000
0000
,
0001
0000
0100
0000
1000
0000
0000
0010
0001
0000
0010
0000
0100
0000
0000
0000
,
0001
0010
0100
0010
0100
0001
0100
1000
,
0001
0010
0100
0000
0010
1000
0010
1000
,
0010
0000
0000
0000
1000
0000
0100
0000
1000
0000
0010
1000
0000
0100
0000
0010
,
0100
0000
1000
0000
0001
0000
0100
0000
1000
0100
0000
1000
0000
0100
0000
0001
,
0100
0000
0010
0000
0011
0000
1000
0100
,
1000
0000
0000
0000
0100
0000
1000
0000
0100
0000
1000
0100
0000
0001
0000
1000
,
0100
0000
0000
0000
0010
0000
1000
0000
0100
0000
0010
0100
0000
1000
0000
0010
,
0100
0000
0010
0000
1000
0000
0001
0000
0010
1000
0000
0100
0000
0100
0000
0001
,
0010
1000
0001
0000
1100
0000
0100
1000
,
0100
0000
0000
0000
1000
0000
0010
0000
1000
0000
0100
0010
0100
0000
0010
0000
,
1000
1002
0100
0010
,
1003
0210
0001
1000
,
0310
2010
0100
0001
,
3100
0000
0000
0000
0110
0000
0000
0000
1000
0000
0000
0100
0010
0000
0100
0000
,
1001
0000
0000
0000
;

//---------------dance-single - ----------------
#NOTES:
     dance-single:
     :
     Medium:
     7:
     0.535,0.495,0.405,0.035,0.000,285.000,35.000,3.000,0.000,0.000:
0000
0000
0000
0000
0000
0000
0000
1000
,
0100
0000
0000
0010
1000
0000
0000
0100
,
1000
0000
0001
0100
1000
0000
0000
0000
,
0010
1000
0010
0000
0100
1000
0100
0000
,
0001
0000
0000
0000
0001
0100
1000
0000
,
0001
0000
0000
0010
1000
0000
0000
0100
,
1000
0000
0001
0010
0100
0000
0000
0000
,
0010
0100
0010
0000
0001
0100
1000
0001
,
0100
0000
0000
1000
0001
0010
1000
0000
,
0010
0100
0010
0000
0001
0100
1000
0000
,
0010
0100
0010
0000
0001
0100
1000
0000
,
1001
0010
1001
0100
,
1001
1001
1001
1001
,
0010
0100
0010
0000
0001
0000
0100
1000
,
0100
1000
0100
0000
0001
0000
0010
0100
,
0010
1001
0010
1001
,
0100
1100
1100
1100
,
1001
0000
0100
0000
1000
0100
1000
0000
,
0010
0100
0010
0000
0001
0000
0100
0000
,
1000
0001
0001
0000
1000
0000
0010
0000
,
0100
0000
0001
0000
0001
0100
0000
0010
,
0000
1010
0000
0100
1000
0001
0100
0000
,
0001
0100
1000
0001
0000
0001
0000
0010
,
0000
0100
0010
0000
0001
0000
0100
0000
,
1000
0000
0100
0000
0010
1000
0000
0100
,
0000
0100
1000
0100
1000
0001
0100
0000
,
0000
1000
0001
0010
0100
0010
0000
0001
,
0000
0001
0000
0001
0100
0000
1000
0000
,
0001
0000
0010
0000
0100
0010
0000
0011
,
0000
0011
0000
0100
1000
0100
1000
0000
,
0001
0010
0100
0010
0100
0001
0000
0001
,
0000
0001
0100
0000
1001
0000
0110
0000
,
1100
0000
1100
0000
0100
0001
0000
0100
,
0000
0100
1000
0100
1000
0100
1000
0000
,
1001
0000
0000
0010
1000
0010
1000
0000
,
1100
0000
0000
0001
0100
1000
0001
0100
,
1000
0001
0100
0000
0010
0000
1000
0000
,
0100
1000
0100
0000
0000
1000
0001
0000
,
0000
0001
0010
0000
1000
0100
1000
0000
,
0000
0001
0100
1000
0001
0000
0010
0100
,
0010
0001
0100
0000
1000
0100
1000
0100
,
0100
0010
0100
0000
0001
0100
1000
0000
,
0000
0001
0010
0000
1000
0100
1000
0000
,
0000
0000
0100
1000
0100
0000
0010
0100
,
0010
0001
0100
0000
0000
0000
1000
0100
,
1000
0000
0001
1000
0010
0000
0100
0000
,
1000
0010
1000
0010
1000
0000
0100
1000
,
0100
1001
0010
1100
,
0010
1001
1001
1001
,
1001
0000
0010
0100
0010
0000
0001
0100
,
1000
0000
0001
0100
1000
0000
0001
0010
,
0100
0010
1001
0010
,
0011
1100
1100
1100
,
1100
0200
1000
0010
,
0301
0002
0010
1000
,
0103
0200
1000
0001
,
0310
0000
1001
0000
0100
0000
1000
0010
,
1001
0000
0000
0000
;

//---------------dance-single - ----------------
#NOTES:
     dance-single:
     :
     Easy:
     2:
     0.260,0.264,0.070,0.116,0.000,141.000,6.000,10.000,0.000,0.000:
0000
0000
0000
0000
,
1000
0000
0100
0000
,
0100
0010
0100
0000
,
0001
0000
1000
0000
,
0010
0000
0010
0100
,
0010
0000
0100
0000
,
0100
0010
1000
0000
,
0001
0000
0010
0000
,
1000
0000
0010
0100
,
0002
0000
0013
0000
,
2000
0000
3010
0000
,
0110
0000
0110
0000
,
1000
0001
1000
0100
,
0002
0000
0013
0000
,
0002
0000
1003
0010
,
0001
0000
0001
0000
,
1000
1000
1000
1000
,
0100
0000
0100
0100
,
0000
0001
0010
1000
,
0000
0010
0000
0001
,
0000
0010
0000
0001
,
0000
0001
0100
1000
,
0000
1000
0000
0001
,
0000
0001
0010
1000
,
0100
1000
0000
0001
,
0000
0000
0100
1000
,
0000
1000
0000
0001
,
0000
0010
1000
0100
,
0010
0001
0000
1000
,
0000
0000
0100
0100
,
0000
1000
0000
0001
,
0000
1000
0100
1000
,
0100
0001
0000
1000
,
0000
0000
0100
0100
,
0000
0000
1000
1000
,
0000
0000
1000
0010
,
0100
1000
0000
1000
,
0000
1000
0000
0010
,
0000
0001
0100
0100
,
0000
1000
0000
0001
,
0000
1000
0100
0100
,
1000
1000
0000
0100
,
0000
0001
0100
0100
,
0000
1000
0000
0001
,
0000
1000
0000
0100
,
0100
0020
0000
1030
,
0000
0200
0000
1300
,
0000
1100
0000
0101
,
0000
0100
0100
0100
,
0100
0002
0000
0013
,
0000
0020
0000
0130
,
1000
0001
0000
0100
,
0000
0100
0100
0100
,
0100
2000
0000
0001
,
0000
0010
0000
3100
,
0000
2000
0000
3010
,
0000
1001
0000
0000
,
1001
0000
0000
0000
;
