#TITLE:Paper Mario;
#SUBTITLE:Doopliss battle;
#ARTIST:Nintendo;
#TITLETRANSLIT:;
#SUBTITLETRANSLIT:;
#ARTISTTRANSLIT:;
#CREDIT:CX gamer;
#BANNER:Title screen-bn.png;
#BACKGROUND:Title screen-bg.png;
#LYRICSPATH:;
#CDTITLE:CDTitle.png;
#MUSIC:Doopliss battle.mp3;
#OFFSET:0.000;
#SAMPLESTART:0.020;
#SAMPLELENGTH:12.000;
#SELECTABLE:YES;
#BPMS:0.000=160.000,3.500=201.000,160.000=198.000,184.500=201.000,340.250=198.000;
#STOPS:3.500=0.224
;
#BGCHANGES:;
// cache tags:
#FIRSTBEAT:3.500;
#LASTBEAT:352.500;
#SONGFILENAME:Songs/toune 2/Doopliss battle/Doopliss battle.sm;
#HASMUSIC:1;
#HASBANNER:1;
#MUSICLENGTH:105.665;
// end cache tags

//---------------dance-double - Blank----------------
#NOTES:
     dance-double:
     Blank:
     Hard:
     13:
     1.000,1.000,1.000,1.000,1.000,921.000,184.000,124.000,0.000,260.000:

00000000
00000000
00000000
00000000
00000000
00000000
00000000
00000000
00000000
00000000
00000000
00000000
00000000
00000000
00000000
00000000
00000000
00000000
00000000
00000000
00000000
00000000
00000000
00000000
00000000
00000000
00000000
00000000
00000000
00000000
00000000
00000000
00000000
00000000
00000000
00000000
00000000
00000000
00000000
00000000
00000000
00000000
00000000
00000000
00000000
00000000
00000000
00000000
00000000
00000000
00000000
00000000
00000000
00000000
00000000
00000000
00000000
00000000
00000000
00000000
00000000
00000000
00000000
00000000
00000000
00000000
00000000
00000000
00000000
00000000
00000000
00000000
00000000
00000000
00000000
00000000
00000000
00000000
00000000
00000000
00000000
00000000
00000000
00000000
00000000
00000000
00000000
00000000
00000000
00000000
00000000
00000000
00000000
00000000
00000000
00000000
00000000
00000000
00000000
00000000
00000000
00000000
00000000
00000000
00000000
00000000
00000000
00000000
00000000
00000000
00000000
00000000
00000000
00000000
00000000
00000000
00000000
00000000
00000000
00000000
00000000
00000000
00000000
00000000
00000000
00000000
00000000
00000000
00000000
00000000
00000000
00000000
00000000
00000000
00000000
00000000
00000000
00000000
00000000
00000000
00000000
00000000
00000000
00000000
00000000
00000000
00000000
00000000
00000000
00000000
00000000
00000000
00000000
00000000
00000000
00000000
00000000
00000000
00000000
00000000
00000000
00000000
00000000
00000000
00000000
00000000
00000000
00000000
10000002
00000003
00000000
00000000
00000000
00000000
00000000
00000000
00000000
00000000
00000000
00000000
00000000
00000000
00000000
00000000
00000000
00000000
00000000
00000000
00000000
00000000
00000000
00000000
,
00000000
00000000
20001200
00000000
00000000
00000000
00000000
00000000
30010000
00000000
00000000
00100000
00000000
00000000
01000000
00000000
00000000
00000000
00000000
00000000
10000000
00000000
00000300
00000000
00000000
00000000
00010000
00000000
00000000
00000000
00000000
00000000
,
00000000
01000000
00000000
00000000
00010000
00000000
00000000
00100000
00000000
00000000
00000000
00000000
00000000
10000000
00000000
00000000
00000000
00000000
00000000
00000000
20000000
00000000
00000000
00000020
00000000
00010000
00000000
00000000
30100000
00000000
00000000
01000000
,
00000000
00000000
00000032
00000000
00000000
00000000
01000000
00000000
00000000
00000000
00000000
00000000
00000000
00010000
00000000
00000000
00000000
00000000
00000000
10000000
00000000
00000000
00000000
00000000
00000000
00102000
00000003
00000000
00000000
00000000
00000000
01003000
,
00000000
00000000
00000000
00000000
00000000
00000000
20000000
00000000
00000101
00000000
00000000
00000000
30010000
00000000
00000000
00100000
00000000
00000000
01000000
00000000
00000000
00000000
00000000
00000000
10001010
00000000
00000000
00000000
00000000
00000000
00010000
00000000
,
00000000
00000000
00000000
00000000
00000000
01000000
00000000
00000000
00000000
00000000
00000000
00100110
00000000
00000000
00000000
00000000
00000000
10000000
00000000
00000000
00000000
00000000
00000000
00000000
20001001
00000000
00000000
00000000
00000000
00010000
00000000
00000000
,
30100000
00000000
00000000
01000110
00000000
00000000
00000000
00000000
00000000
00000000
01000000
00000000
00000000
00000000
00000000
00000000
00000000
00010000
00000000
00000000
00000000
00000000
00000011
10000000
00000000
00000000
00000000
00000000
00000000
00102100
00000000
00000000
,
00000000
00000000
00000000
01003100
00000000
00000000
00000000
00000000
00000000
00000000
20000110
00000000
00000000
00001000
00000000
00000000
30010001
00000000
00000000
00100010
00000000
00000000
01000100
00000000
00000000
00001000
00000000
00000000
10000101
00000000
00000000
00000010
,
00000000
00000000
00010100
00000000
00000000
00000010
00000000
00000000
00000001
01000000
00000000
00000010
00000000
00000000
00000101
00100000
00000000
00001000
00000000
00000000
00000001
10000000
00000000
00000010
00000000
00000000
00001100
00000000
20000000
00000001
00000000
00000000
,
00000100
00010000
00000000
00000010
30100000
00000000
00001001
01000000
00000000
00000100
00000000
00000000
00000010
00000000
01000000
00000001
00000000
00000000
00000100
00000000
00000000
00010010
00000000
00000000
00001001
00000000
00000000
10000100
00000000
00000000
00000010
00000000
,
00000000
00101001
00000000
00000000
00000100
00000000
00000000
01000011
00000000
00000000
00001000
00000000
00000000
00000101
20000000
00000000
00000010
00000000
00000000
00000001
30010000
00000000
00000010
00100000
00000000
00000100
01000000
00000000
00001000
00000000
00000000
00000010
,
10000000
00000000
00001100
00000000
00000000
00000001
00010000
00000000
00000010
00000000
00000000
00000100
00000000
01000000
00001000
00000000
00000000
00000010
00000000
00100000
00001100
00000000
00000000
00000001
00000000
10000000
00000010
00000000
00000000
00000100
00000000
00000000
,
20001001
00000000
00000000
00000010
00000000
00010000
00000100
00000000
30100000
00001001
00000000
01000000
00000010
00000000
00000000
00000100
00000000
00000000
01001000
00000000
00000000
00000010
00000000
00000000
00000100
00010000
00000000
00001001
00000000
00000000
00000010
10000000
,
00000000
00000100
00000000
00000000
00000000
00102010
00000000
00000000
00000000
00000000
00000000
01003001
00000000
00000000
00000000
00000000
00000000
00000000
00220000
00330000
00000000
00000000
00000000
00000000
20000000
30000000
02000000
03000000
00200000
00300000
00020000
00000000
,
00030000
00000000
22000000
33000000
00000000
00220000
00330000
00000000
02200000
03300000
00000000
20200000
00000000
00000000
32320000
00000000
,
00000000
00000000
03030100
00000000
00000000
00000010
00000000
00000000
00000001
00000000
00000000
00000100
00000000
00000000
00000010
00000000
00000000
00001000
00000000
00000000
00000001
00000000
00000000
00000100
00000000
00000000
00000010
00000000
00000000
00000001
00000000
00000000
,
00000100
00000000
00000000
00000010
00000000
00000000
00000001
00000000
00000000
00001000
00000000
00000000
00000100
00000000
00000000
00000001
00000000
00000000
00000010
00000000
00000000
00000100
00000000
00000000
00000010
00000000
00000000
00001000
00000000
00000000
00000001
00000000
,
00000000
00000100
00000000
00000000
00000010
00000000
00000000
00001000
00000000
00000000
00000001
00000000
00000000
00000010
00000000
00000000
00001000
00000000
00000000
00000100
00000000
00000000
00000010
00000000
00000000
00001000
00000000
00000000
00000100
00000000
00000000
00000001
,
00000000
00000000
00000100
00000000
00000000
00000010
00000000
00000000
00000001
00000000
00000000
00000100
00000000
00000000
00000010
00000000
00000000
00000001
00000000
00000000
00000100
00000000
00000000
00000010
00000000
00000000
00001000
00000000
00000000
00000001
00000000
00000000
,
00000100
00000000
00000000
00000010
00000000
00000000
00000001
00000000
00000000
00000100
00000000
00000000
00000010
00000000
00000000
00000001
00000000
00000000
00001000
00000000
00000000
00000100
00000000
00000000
00000001
00000000
00000000
00000010
00000000
00000000
00000100
00000000
,
00000000
00000010
00000000
00000000
00001000
00000000
00000000
00000001
00000000
00000000
00000100
00000000
00000000
00000010
00000000
00000000
00001000
00000000
00000000
00000001
00000000
00000000
00000010
00000000
00000000
00001000
00000000
00000000
00000100
00000000
00000000
00000010
,
00000000
00000000
00001000
00000000
00000000
00000100
00000000
00000000
00000001
00000000
00000000
20020100
00000000
00000000
00000010
00000000
00000000
00000001
00000000
00000000
30030100
00000000
00000000
00000010
00000000
00000000
00000001
00000000
00000000
00200100
00000000
00000000
,
00000010
00000000
00000000
02001000
00000000
00000000
00000001
00000000
00000000
00000100
00000000
00000000
00000010
00000000
00000000
00000001
00000000
00000000
00000100
00000000
00000000
00000010
23300000
00000000
00000001
00000000
00000000
00001000
00020000
00000000
00000100
00000000
,
00000000
00000001
00000000
00000000
00000010
00000000
00000000
00000100
00230000
00000000
00000010
00000000
00000000
00001000
00000000
00000000
00000001
00000000
00000000
00000100
02300000
00000000
00000010
00000000
00000000
00001000
00000000
00000000
00000001
00000000
00000000
00000010
,
33200000
00000000
00001000
00000000
00000000
00000100
00000000
00000000
00000010
00000000
00000000
00001000
00300000
00000000
00000100
00000000
00000000
00000001
00000000
00000000
00000100
00000000
00000000
00000010
02000000
00000000
00000001
00000000
00000000
00000100
00000000
00000000
,
00000010
00000000
00000000
00000001
20000000
00000000
00000100
00000000
00000000
00000010
00000000
00000000
00001000
00000000
00000000
00000001
33200000
00000000
00000100
00000000
00000000
00000010
00000000
00000000
00000001
00000000
00000000
00000100
00020000
00000000
00000010
00000000
,
00000000
00000001
00330000
00000000
00001000
00000000
00000000
00000100
00000000
00000000
00000001
00000000
00000000
00000010
00000000
00000000
00000100
00000000
00000000
00000010
00000000
00000000
00001000
00000000
00000000
00000001
00000000
00000000
00000100
00000000
00000000
00000010
,
00000000
00000000
00001000
00000000
00000000
00000001
00000000
00000000
00000010
00000000
00000000
00001000
00000000
00000000
00000100
00000000
00000000
00000012
00000000
00000000
01000000
00000000
00000000
00100000
00000000
00000000
01000000
00000000
00000000
10000000
00000000
00000000
,
01000000
00000000
00000000
00100000
00000000
00000000
01000000
00000000
00000000
10000000
00000000
00000000
01000000
00000000
00000000
00100000
00000000
00000000
01000000
00000000
00000000
10000000
00000000
00000000
01000000
00000000
00000000
00100000
00000000
00000000
01000000
00000000
,
00000000
10010000
00000000
00000000
01000000
00000000
00000000
00100000
00000000
00000000
01000000
00000000
00000000
10000000
00000000
00000000
01000000
00000000
00000000
00100000
00000000
00000000
01000000
00000000
00000000
10000000
00000000
00000000
01000000
00000000
00000000
00100000
,
00000000
00000000
01000000
00000000
00000000
10000000
00000000
00000000
01000000
00000000
00000000
00100000
00000000
00000000
00010000
00000000
00000000
00100000
00000000
00000000
01000000
00000000
00000000
10000203
00000000
00000000
00100000
00000000
00000000
00010000
00000000
00000000
,
00100000
00000000
00000000
01000020
00000000
00000000
00100000
00000000
00000000
00010000
00000000
00000000
00100000
00000000
00000000
01000000
00000000
00000000
00100000
00000000
00000000
00010000
00000000
00000000
00100000
00000000
00000000
01000000
00000000
00000000
00100000
00000000
,
00000000
10010000
00000000
00000000
00100000
00000000
00000000
01000000
00000000
00000000
00100000
00000000
00000000
00010000
00000000
00000000
00100000
00000000
00000000
01000000
00000000
00000000
00100000
00000000
00000000
00010000
00000000
00000000
00100000
00000000
00000000
01000000
,
00000000
00000000
00100000
00000000
00000000
00010000
00000000
00000000
00100000
00000000
00000000
01000000
00000000
00000000
10000000
00000000
00000000
01000000
00000000
00000000
00100000
00000000
00000000
00011332
00000000
00000000
01000000
00000000
00000000
00100100
00000000
00000000
,
01000010
00000000
00000000
10001000
00000000
00000000
01000000
00000000
00000000
00100100
00000000
00000000
01000000
00000000
00000000
10000000
00001023
00000000
01000000
00000000
00000000
00100000
00000100
00000000
01000000
00000000
00000000
10000000
00000001
00000000
01000000
00000000
,
00000000
00100000
00001000
00000000
01000000
00000000
00000000
10010000
00000000
00000231
01000000
00000000
00000000
00100000
00000000
00000010
01000000
00000000
00001000
10000000
00000000
00000001
01000000
00000000
00000000
00100000
00000000
00000010
01000000
00000000
00000000
10000000
,
00000000
00002301
01000000
00000000
00000000
00100000
00000000
00000000
01000010
00000000
00000000
10000000
00000000
00000000
01000000
00000100
00000000
00100000
00000000
00000000
00010000
00000000
00000001
00100000
00000000
00000000
01000000
00003120
00000000
10000000
00000000
00000000
,
00100000
00000001
00000000
00010000
00000100
00000000
00100000
00001000
00000000
01000000
00000102
00000000
00100000
00000000
00000000
00010000
00001000
00000000
00100000
00000000
00000000
01001233
00000000
00000000
00100000
00000000
00000000
00010001
00000000
00000000
00100000
00000000
,
00000000
01000010
00000000
00000000
00100000
00000000
00000000
10010001
00000000
00000000
00100000
00000000
00000000
01002310
00000000
00000000
00100000
00000000
00000000
00010001
00000000
00000000
00100010
00000000
00000000
01003102
00000000
00000000
00100000
00000000
00000000
00011000
,
00000000
00000000
00100000
00000000
00000000
01000123
00000000
00000000
00100000
00000000
00000000
00011000
00000000
00000000
00100000
00000000
00000000
01000130
00000000
00000000
10000000
00000000
00000000
01000010
00000000
00000000
00100000
00000000
00000000
00010001
00000000
00000000
,
21001100
00000000
00000000
00000000
00000000
00000000
00000001
00000000
00000000
00000010
00000000
00000000
00000100
00000000
00000000
00000000
00000000
00000000
00000011
00000000
00000000
00000000
00000000
00000000
32000110
00000000
00000000
00000000
00000000
00000000
00001100
00000000
,
00000000
00000000
00000000
00000000
00000101
00000000
00000000
00000000
00000000
00000000
00001010
00000000
00000000
00000000
00000000
00000000
00001001
03200000
00000000
00000000
00000000
00000000
00000010
00000000
00000000
00000100
00000000
00000000
00001000
00000000
00000000
00000000
,
00000000
00000000
00000101
00000000
00000000
00000000
00000000
00000000
00000000
00320000
00001010
00000000
00000000
00000000
00000000
00000000
00001001
00000000
00000000
00000000
00000000
00000000
00000110
00000000
00000000
00000000
00000000
00000000
00001001
00000000
00000000
00000000
,
00000000
00000000
20131100
00000000
00000000
00000000
00000000
00000000
00000001
00000000
00000000
00000010
00000000
00000000
00000100
00000000
00000000
00000000
00000000
00000000
00000011
00000000
00000000
00000000
00000000
00000000
00000110
32000000
00000000
00000000
00000000
00000000
,
00001100
00000000
00000000
00000000
00000000
00000000
00000101
00000000
00000000
00000000
00000000
00000000
00001010
00000000
00000000
00000000
00000000
03120000
00001001
00000000
00000000
00000000
00000000
00000000
00030010
00000000
00000000
00000100
00000000
00000000
00001000
00000000
,
00000000
00000000
00000101
00000000
00000000
00000000
00001010
00000000
00000000
00001001
00000000
00000000
00000110
00000000
00000000
00001001
,
00000000
00000000
00000000
00000000
12002000
00000000
00000000
00000000
00000000
00000000
00003001
00000000
00000000
00000010
00000000
00000000
00000100
00000000
00000000
00000000
00000000
00000000
00001000
00000000
03000000
00000000
00000000
00000000
00000001
00000000
00000000
00000000
,
00000000
00000000
00000000
00000100
00000000
00000000
00000001
00000000
00000000
00000010
00000000
00000000
00000000
00000000
00000000
00001000
00000000
00000000
00000000
00000000
00000000
00000000
00002000
00000000
00000000
00200000
00000000
00000001
00000000
00000000
00003010
00000000
,
00000000
00000100
00000000
00000000
00320000
00000000
00000000
00000000
00000100
00000000
00000000
00000000
00000000
00000000
00000000
00000001
00000000
00000000
00000000
00000000
00000000
00001000
00000000
00000000
00000000
00000000
00000000
20000010
00030000
00000000
00000000
00000000
,
00000000
30000100
00000000
00000000
00000000
00000000
00000000
00000000
00002000
00000000
01010000
00000000
00000000
00000000
00003001
00000000
00000000
00000010
00000000
00000000
00000100
00000000
00000000
00000000
00000000
00000000
10101000
00000000
00000000
00000000
00000000
00000000
,
00000001
00000000
00000000
00000000
00000000
00000000
00000000
00000100
00000000
00000000
00000000
00000000
00000000
01100010
00000000
00000000
00000000
00000000
00000000
00001000
00000000
00000000
00000000
00000000
00000000
00000000
10012000
00000000
00000000
00000000
00000000
00000001
,
00000000
00000000
00003010
00000000
00000000
01100100
00000000
00000000
00000000
00000000
00000000
00000000
00000100
00000000
00000000
00000000
00000000
00000000
00000000
00000001
00000000
00000000
00000000
00000000
00110000
00001000
00000000
00000000
00000000
00000000
00000000
21000010
,
00000000
00000000
00000000
00000000
00000000
31000100
00000000
00000000
00000000
00000000
00000000
00000000
01102000
00000000
00000000
10000000
00000000
00000000
00013001
00000000
00000000
00100010
00000000
00000000
01000100
00000000
00000000
10000000
00000000
00000000
01011000
00000000
,
00000000
00100000
00000000
00000000
01000001
00000000
00000000
00100000
00000000
00000000
00010000
00000100
00000000
00100000
00000000
00000000
01010000
00000010
00000000
10000000
00000000
00000000
00010000
00001000
00000000
00100000
00000000
00000000
11000000
00000000
00002000
00010000
,
00000000
00000000
01000000
00000001
00000000
00100000
00003010
00000000
10010000
00000100
00000000
01000000
00000000
00000000
00100000
00000000
00000100
00010000
00000000
00000000
01000000
00000000
00000000
00100001
00000000
00000000
10010000
00000000
00000000
01001000
00000000
00000000
,
00100000
00000000
00000000
10010010
00000000
00000000
01000000
00000000
00000000
00110100
00000000
00000000
10000000
00000000
00000000
01010000
00002000
00000000
00100000
00000000
00000000
00010000
00003001
00000000
00100000
00000010
00000000
01000000
00000100
00000000
10000000
00000000
,
00000000
00100000
00001000
00000000
11000000
00000000
00000000
00010000
00000001
00000000
00100000
00000000
00000000
01000000
00000000
00000100
10000000
00000000
00000000
00100000
00000000
00000010
11000000
00000000
00000000
00010000
00000000
00001000
00100000
00000000
00000000
01000000
,
00000000
00000000
10012000
00000000
00000000
00100000
00000000
00000001
01000000
00000000
00003010
10010000
00000000
00000100
00100000
00000000
00000000
01000000
00000000
00000000
10000100
00000000
00000000
00100000
00000000
00000000
01000000
00000001
00000000
10010000
00000000
00000000
,
00100000
00001000
00000000
01000000
00000000
00000000
00000000
20100010
00000000
00000000
00000000
00000000
00000000
30010100
00000000
00000000
00000000
00000000
00000000
00000000
00000022
00000033
00000000
00000000
00000000
00000000
00002000
00003000
00000200
00000300
00000020
00000030
,
00000002
00000003
00000000
00002200
00003300
00000000
00000022
00000033
00000000
00000220
00000330
00000000
00002020
00000000
00000000
00003232
,
00000000
00000000
00000000
00000000
01000303
00000000
00000000
00100000
00000000
00000000
00010000
00000000
00000000
01000000
00000000
00000000
00100000
00000000
00000000
10000000
00000000
00000000
00010000
00000000
00000000
01000000
00000000
00000000
00100000
00000000
00000000
00010000
,
00000000
00000000
01000000
00000000
00000000
00100000
00000000
00000000
00010000
00000000
00000000
10000000
00000000
00000000
01000000
00000000
00000000
00010000
00000000
00000000
00100000
00000000
00000000
01000000
00000000
00000000
00100000
00000000
00000000
10000000
00000000
00000000
,
00010000
00000000
00000000
01000000
00000000
00000000
00100000
00000000
00000000
10000000
00000000
00000000
00010000
00000000
00000000
00100000
00000000
00000000
10000000
00000000
00000000
01000000
00000000
00000000
00100000
00000000
00000000
10000000
00000000
00000000
01000000
00000000
,
00000000
00010000
00000000
00000000
01000000
00000000
00000000
00100000
00000000
00000000
00010000
00000000
00000000
01000000
00000000
00000000
00100000
00000000
00000000
00010000
00000000
00000000
01000000
00000000
00000000
00100000
00000000
00000000
10000000
00000000
00000000
00010000
,
00000000
00000000
01000000
00000000
00000000
00100000
00000000
00000000
00010000
00000000
00000000
01000000
00000000
00000000
00100000
00000000
00000000
00010000
00000000
00000000
10000000
00000000
00000000
01000000
00000000
00000000
00010000
00000000
00000000
00100000
00000000
00000000
,
01000000
00000000
00000000
00100000
00000000
00000000
10000000
00000000
00000000
00010000
00000000
00000000
01000000
00000000
00000000
00100000
00000000
00000000
10000000
00000000
00000000
00010000
00000000
00000000
00100000
00000000
00000000
10000000
00000000
00000000
01000000
00000000
,
00000000
00100000
00000000
00000000
10000000
00000000
00000000
01000000
00000000
00000000
00010000
00000000
00000000
01002002
00000000
00000000
00100000
00000000
00000000
00010000
00000000
00000000
01003003
00000000
00000000
00100000
00000000
00000000
00010000
00000000
00000000
01000020
,
00000000
00000000
00100000
00000000
00000000
10000200
00000000
00000000
00010000
00000000
00000000
01000000
00000000
00000000
00100000
00000000
00000000
00010000
00000000
00000000
01000000
00000000
00000000
00100000
00002330
00000000
00010000
00000000
00000000
10000000
00000002
00000000
,
01000000
00000000
00000000
00010000
00000000
00000000
00100000
00000000
00000000
01000000
00000023
00000000
00100000
00000000
00000000
10000000
00000000
00000000
00010000
00000000
00000000
01000000
00000230
00000000
00100000
00000000
00000000
10000000
00000000
00000000
00010000
00000000
,
00000000
00100000
00003320
00000000
10000000
00000000
00000000
01000000
00000000
00000000
00100000
00000000
00000000
10000000
00000030
00000000
01000000
00000000
00000000
00010000
00000000
00000000
01000000
00000000
00000000
00100000
00000200
00000000
00010000
00000000
00000000
01000000
,
00000000
00000000
00100000
00000000
00000000
00010000
00002000
00000000
01000000
00000000
00000000
00100000
00000000
00000000
10000000
00000000
00000000
00010000
00003320
00000000
01000000
00000000
00000000
00100000
00000000
00000000
00010000
00000000
00000000
01000000
00000002
00000000
,
00100000
00000000
00000000
00010000
00000033
00000000
10000000
00000000
00000000
01000000
00000000
00000000
00010000
00000000
00000000
00100000
00000000
00000000
01000000
00000000
00000000
00100000
00000000
00000000
10000000
00000000
00000000
00010000
00000000
00000000
01000000
00000000
,
00000000
00100000
00000000
00000000
10000000
00000000
00000000
00010000
00000000
00000000
00100000
00000000
00000000
10000000
00000000
00000000
01000000
00000000
00000000
00120000
00000000
00000000
00000100
00000000
00000000
00000010
00000000
00000000
00000100
00000000
00000000
00001000
,
00000000
00000000
00000100
00000000
00000000
00000010
00000000
00000000
00000100
00000000
00000000
00001000
00000000
00000000
00000100
00000000
00000000
00000010
00000000
00000000
00000100
00000000
00000000
00001000
00000000
00000000
00000100
00000000
00000000
00000010
00000000
00000000
,
00000100
00000000
00000000
00001001
00000000
00000000
00000100
00000000
00000000
00000010
00000000
00000000
00000100
00000000
00000000
00001000
00000000
00000000
00000100
00000000
00000000
00000010
00000000
00000000
00000100
00000000
00000000
00001000
00000000
00000000
00000100
00000000
,
00000000
00000010
00000000
00000000
00000100
00000000
00000000
00001000
00000000
00000000
00000100
00000000
00000000
00000010
00000000
00000000
00000001
00000000
00000000
00000010
00000000
00000000
00000100
00000000
00000000
02031000
00000000
00000000
00000010
00000000
00000000
00000001
,
00000000
00000000
00000010
00000000
00000000
00200100
00000000
00000000
00000010
00000000
00000000
00000001
00000000
00000000
00000010
00000000
00000000
00000100
00000000
00000000
00000010
00000000
00000000
00000001
00000000
00000000
00000010
00000000
00000000
00000100
00000000
00000000
,
00000010
00000000
00000000
00001001
00000000
00000000
00000010
00000000
00000000
00000100
00000000
00000000
00000010
00000000
00000000
00000001
00000000
00000000
00000010
00000000
00000000
00000100
00000000
00000000
00000010
00000000
00000000
00000001
00000000
00000000
00000010
00000000
,
00000000
00000100
00000000
00000000
00000010
00000000
00000000
00000001
00000000
00000000
00000010
00000000
00000000
00000100
00000000
00000000
00001000
00000000
00000000
00000100
00000000
00000000
00000010
00000000
00000000
13320001
00000000
00000000
00000100
00000000
00000000
01000010
,
00000000
00000000
00100100
00000000
00000000
10001000
00000000
00000000
00000100
00000000
00000000
01000010
00000000
00000000
00000100
00000000
00000000
00001000
10230000
00000000
00000100
00000000
00000000
00000010
01000000
00000000
00000100
00000000
00000000
00001000
00010000
00000000
,
00000100
00000000
00000000
00000010
10000000
00000000
00000100
00000000
00000000
00001001
00000000
02310000
00000100
00000000
00000000
00000010
00000000
00100000
00000100
00000000
10000000
00001000
00000000
00010000
00000100
00000000
00000000
00000010
00000000
00100000
00000100
00000000
,
00000000
00001000
00000000
23010000
00000100
00000000
00000000
00000010
00000000
00000000
00100100
00000000
00000000
00001000
00000000
00000000
00000100
01000000
00000000
00000010
00000000
00000000
00000001
00000000
00010000
00000010
00000000
00000000
00000100
31200000
00000000
00001000
,
00000000
00000000
00000010
00010000
00000000
00000001
01000000
00000000
00000010
10000000
00000000
00000100
01020000
00000000
00000010
00000000
00000000
00000001
10000000
00000000
00000010
00000000
00000000
12330100
00000000
00000000
00000010
00000000
00000000
00010001
00000000
00000000
,
00000010
00000000
00000000
00100100
00000000
00000000
00000010
00000000
00000000
00011001
00000000
00000000
00000010
00000000
00000000
23100100
00000000
00000000
00000010
00000000
00000000
00010001
00000000
00000000
00100010
00000000
00000000
31020100
00000000
00000000
00000010
00000000
,
00000000
10000001
00000000
00000000
00000010
00000000
00000000
01230100
00000000
00000000
00000010
00000000
00000000
10000001
00000000
00000000
00000010
00000000
00000000
01300100
00000000
00000000
00001000
00000000
00000000
00100100
00000000
00000000
00000010
00000000
00000000
00010001
,
00000000
00000000
11002100
00000000
00000000
00000000
00000000
00000000
00010000
00000000
00000000
00100000
00000000
00000000
01000000
00000000
00000000
00000000
00000000
00000000
00110000
00000000
00000000
00000000
00000000
00000000
01103200
00000000
00000000
00000000
00000000
00000000
,
11000000
00000000
00000000
00000000
00000000
00000000
01010000
00000000
00000000
00000000
00000000
00000000
10100000
00000000
00000000
00000000
00000000
00000000
10010000
00000320
00000000
00000000
00000000
00000000
00100000
00000000
00000000
01000000
00000000
00000000
10000000
00000000
,
00000000
00000000
00000000
00000000
01010000
00000000
00000000
00000000
00000000
00000000
00000000
00000032
10100000
00000000
00000000
00000000
00000000
00000000
10010000
00000000
00000000
00000000
00000000
00000000
01100000
00000000
00000000
00000000
00000000
00000000
10010000
00000000
,
00000000
00000003
00000000
00000000
00000000
00000000
00000000
00000000
;
