#TITLE:37 Dicks;
#SUBTITLE:;
#ARTIST:m1dy;
#TITLETRANSLIT:;
#SUBTITLETRANSLIT:;
#ARTISTTRANSLIT:;
#CREDIT:Arvin <3 Cosmic Pope;
#BANNER:Bn-Dicks.png;
#BACKGROUND:Bg-Dicks.png;
#LYRICSPATH:;
#CDTITLE:;
#MUSIC:37 Dicks.ogg;
#OFFSET:0.011;
#SAMPLESTART:14.116;
#SAMPLELENGTH:9.600;
#SELECTABLE:YES;
#DISPLAYBPM:200.000;
#BPMS:0.000=200.000;
#STOPS:;
#BGCHANGES:;
// cache tags:
#FIRSTBEAT:12.000;
#LASTBEAT:463.375;
#SONGFILENAME:Songs/SPEEEDCOOOORE/37 Dicks - [Arvin+Pope]/37 Dicks.sm;
#HASMUSIC:1;
#HASBANNER:1;
#MUSICLENGTH:140.373;
// end cache tags

//---------------dance-single - A. Ghassemi, B. Abea----------------
#NOTES:
     dance-single:
     A. Ghassemi, B. Abea:
     Challenge:
     14:
     1.000,1.000,0.328,0.007,1.000,1166.000,46.000,1.000,40.000,2.000:

0000
0000
0000
0000
,
0000
0000
0000
0000
,
0000
0000
0000
0000
,
0001
1000
0001
1000
0001
1000
0001
1000
0001
1000
0001
1000
0000
0000
0000
0000
,
0001
1000
0010
1000
0001
0000
1000
0001
0100
0001
1000
0000
0001
0010
0100
0010
,
0001
1000
0100
1000
0001
0000
1000
0001
0010
0001
1000
0000
0010
0100
0001
0000
,
1000
0001
0100
0001
1000
0000
0001
1000
0010
1000
0001
0000
1000
0100
0010
0100
,
1000
0001
0100
0001
1000
0000
0001
1000
0010
1000
0001
0000
1000
0000
1000
0001
,
1000
0100
0010
0100
1000
0000
0001
0100
0010
0100
0001
0000
1000
0100
0010
0001
,
1000
0010
0100
0010
1000
0000
0001
0010
0100
0010
0001
0000
1000
0010
0100
0000
,
0001
1000
0001
1000
0001
1000
0001
1000
0001
1000
0001
1000
0001
1000
0001
1000
,
0001
0000
0000
0000
0000
0000
0000
0000
0000
0000
0000
0000
0000
0000
0000
0000
0000
0000
0000
0000
0000
0000
0000
0000
0000
0000
0000
0000
0000
0000
0000
0000
0000
0000
0000
0000
0000
0000
0000
0000
0000
0000
0000
0000
0000
0000
0000
0000
2000
0000
0000
0000
0000
0000
0000
0000
0000
0000
0000
0000
0000
0000
0000
3000
,
1001
0000
0000
0000
0000
0000
1000
0000
0100
0000
0000
0010
0000
0000
0001
0000
,
0100
0010
1000
0100
0010
0000
0001
1000
,
0010
0000
0100
0000
0000
0000
0001
0000
0010
0000
0000
0100
0000
0000
1000
0000
,
0010
0100
0001
0010
0100
0000
1000
0001
,
0100
0000
0010
0000
0000
0000
1000
0000
0100
0000
0000
0010
0000
0000
0001
0000
,
0100
0010
1000
0100
0010
0000
0001
1000
,
0100
0000
0010
0000
0000
0000
0001
0000
0100
0000
0000
0010
0000
0000
1000
0000
,
1001
0000
0000
0000
0000
0000
M000
0000
0000
000M
0000
0000
M000
0000
0000
0000
0000
0000
0001
1000
0001
1000
0001
1000
,
0001
0100
0010
1000
0010
0100
0001
0010
,
0100
1000
0100
0010
0001
1000
0010
0100
,
0001
0100
0010
1000
0001
0010
0100
1000
,
0100
0000
0010
0000
0001
0000
1000
0000
0010
0000
0100
0000
0001
0000
1000
0001
,
1000
0010
0100
0001
0100
0010
1000
0100
,
0010
0001
0010
0100
1000
0001
0100
0010
,
1000
0010
0100
0001
1000
0100
0010
0001
,
1000
0010
0100
0010
1000
0000
0001
0010
0100
0010
0001
0000
1000
0100
0010
0001
,
1000
0010
0100
0001
0100
0010
1000
0001
1000
0010
0100
0001
0100
0010
1000
0001
,
0010
0100
1000
0100
0010
0001
1000
0001
1000
0010
0100
0001
1000
0100
1000
0001
,
0100
0010
1000
0010
0100
0001
1000
0010
0100
0001
0100
0010
1000
0001
0010
0100
,
1000
0001
0100
0001
1000
0010
0100
0001
0100
0010
1000
0001
1000
0010
0100
0001
,
1000
0010
0100
0001
1000
0100
0010
0001
0010
0100
1000
0001
1000
0100
0010
0001
,
0010
0100
1000
0001
0100
0010
1000
0010
0100
0001
1000
0001
1000
0100
0010
0001
,
1000
0010
1000
0001
0010
0100
1000
0100
0010
0001
1000
0100
0010
0001
0010
0100
,
1000
0000
1111
0000
,
0001
0010
0001
0000
1000
0100
1000
0000
0001
0100
0001
0000
1000
0010
1000
0000
,
0001
1000
0001
0000
0100
0010
0100
0000
0001
1000
0001
0000
0010
0100
0010
0000
,
0001
0100
0010
0000
1000
0010
0100
0000
0001
0010
0100
0000
1000
0100
0010
0000
,
0001
1000
0010
0000
0100
0001
1000
0000
0010
0100
0001
0000
1000
0010
0100
0000
,
0001
0010
0001
0000
1000
0100
1000
0000
0001
0100
0001
0000
1000
0010
1000
0000
,
0001
1000
0001
0000
0100
0010
0100
0000
0001
1000
0001
0000
0010
0100
0010
0000
,
1001
0000
000M
M000
000M
M000
000M
M000
,
000M
M000
000M
M000
000M
M000
000M
M000
,
1001
0011
0110
1100
,
1010
0110
0101
0011
,
1001
1010
0110
0101
,
1001
0000
1010
0000
0110
0000
0101
1010
,
1001
0101
0110
1010
,
1100
0110
0011
0101
,
1001
1100
0110
0011
,
1001
0000
0000
0000
1100
0000
0000
0000
1000
0100
0000
0010
0001
0000
1000
0000
,
0001
0000
0000
0000
0010
0000
0100
0000
1000
0100
1000
0001
0100
0000
0010
0000
,
0000
0000
0100
0000
0001
0000
1000
0000
0001
0010
0100
1000
0001
0000
0010
0000
,
0011
0000
0000
0000
0001
0000
1000
0000
0010
0100
0001
1000
0001
0000
0010
0000
,
0000
0000
0100
0000
1000
0000
0001
0000
0100
0010
1000
0001
0100
0000
0010
0000
,
1010
0000
0000
0000
1000
0000
0001
0000
0010
0100
1000
0001
0010
0000
0100
0000
,
0000
0000
0010
0000
0001
0000
1000
0000
0010
0100
0001
1000
0001
0000
1000
0000
,
1001
0000
0M00
00M0
0M00
00M0
0000
0M00
,
1001
0000
0000
0000
0000
0000
0000
0000
0000
0000
0000
0000
0000
0000
0000
0000
0000
0000
0000
0000
0000
0000
0000
0000
1000
0000
0001
0000
1000
0000
0001
0000
1000
0000
0001
0000
1000
0000
0000
0001
0000
0000
1000
0000
0000
0001
0000
0000
,
0100
0010
1000
0001
0010
0100
0010
0001
,
1000
0010
0100
0001
1000
0001
0010
0100
,
1000
0001
0100
0010
0100
0001
0010
0100
,
1000
0000
0001
0000
0100
0000
0010
0000
0100
0000
0001
0000
0010
0000
0100
1000
,
0100
1000
0001
0100
0010
1000
0001
0010
,
0100
1000
0100
0010
0001
1000
0001
0100
,
0010
0000
0000
0000
1000
0000
0000
0000
0001
0000
0000
0000
0010
0000
0000
0000
0001
0000
0000
0000
1000
0000
0000
0000
0001
0100
0001
0000
1000
0000
0001
0000
,
1000
0000
0004
0000
1003
0000
0004
0000
1003
0000
0004
0000
1003
0100
0040
0000
,
0031
1000
0100
1000
0010
0100
0001
1000
0100
0010
0001
1000
0010
1000
0001
0010
,
0100
1000
0001
0100
0010
0100
0001
1000
0010
1000
0001
0010
0100
1000
0001
0010
,
0100
0010
0001
1000
0010
0100
0010
0100
0001
1000
0100
1000
0001
0100
0010
1000
,
0010
0100
0001
0010
0001
1000
0100
0010
0100
1000
0001
0010
0001
1000
0010
0100
,
0001
1000
0100
1000
0001
0010
0100
1000
0001
0100
0001
1000
0100
0010
0001
1000
,
0010
0100
0001
0010
0100
0010
0001
1000
0001
0010
0001
1000
0100
0010
0001
0100
,
00M1
1000
0100
1000
0001
0000
1000
0001
0100
0001
1000
0000
0001
0010
0100
0000
,
000M
00M0
0000
000M
00M0
0000
00MM
0000
,
1100
0000
0000
0000
0000
0000
0100
0000
0010
0000
0000
0001
0000
0000
1000
0000
,
0010
0100
0001
0010
0100
0000
1000
0001
,
0100
0000
0010
0000
0000
0000
1000
0000
0100
0000
0000
0010
0000
0000
0001
0000
,
0100
0010
1000
0100
0010
0000
0001
1000
,
0010
0000
0100
0000
0000
0000
0001
0000
0010
0000
0000
0100
0000
0000
1000
0000
,
0010
0100
0001
0010
0100
0000
1000
0001
,
0010
0000
0100
0000
0000
0000
1000
0000
0010
0000
0000
0100
0000
0000
0001
0000
,
1001
0000
0000
0000
0000
0000
000M
0000
0000
M000
0000
0000
000M
0000
0000
0000
0000
0000
1000
0001
1000
0001
1000
0001
,
1000
0010
0100
0001
0100
0010
1000
0100
,
0010
0001
0010
0100
1000
0001
0100
0010
,
1000
0010
0100
0001
1000
0100
0010
0001
,
0010
0000
0100
0000
1000
0000
0001
0000
0100
0000
0010
0000
1000
0000
0001
1000
,
0001
0100
0010
1000
0010
0100
0001
0010
,
0100
1000
0100
0010
0001
1000
0010
0100
,
0001
0100
0010
1000
0001
0010
0100
1000
,
0001
0000
0100
0000
0010
0000
0100
0000
0001
0000
1000
0000
0001
0010
0100
1000
,
0001
0100
0010
1000
0010
0100
0001
1000
0001
0100
0010
1000
0010
0100
0001
1000
,
0100
0010
0001
0010
0100
1000
0001
1000
0001
0100
0010
1000
0001
0010
0001
1000
,
0010
0100
0001
0100
0010
1000
0001
0100
0010
1000
0010
0100
0001
1000
0100
0010
,
0001
1000
0010
1000
0001
0100
0010
1000
0010
0100
0001
1000
0001
0100
0010
1000
,
0001
0100
0010
1000
0001
0010
0100
1000
0100
0010
0001
1000
0001
0010
0100
1000
,
0100
0010
0001
1000
0010
0100
0001
0100
0010
1000
0001
1000
0001
0010
0100
0010
,
0001
1000
0001
1000
0001
1000
0001
1000
0001
1000
0001
1000
0001
1000
0001
0000
,
0M00
00M0
0M00
00M0
1111
0000
0000
0000
,
10M0
0001
0100
0001
1000
0000
0001
1000
0010
1000
0001
0000
1000
0100
0010
0100
,
1000
0001
0010
0001
1000
0000
0001
1000
0100
1000
0001
0000
0100
0010
1000
0000
,
0M01
1000
0010
1000
0001
0000
1000
0001
0100
0001
1000
0000
0001
0010
0100
0010
,
0001
1000
0010
1000
0001
0000
1000
0001
0100
0001
1000
0000
0001
0000
0001
1000
,
0M01
0010
0100
0010
0001
0000
1000
0010
0100
0010
1000
0000
0001
0010
0100
1000
,
0001
0100
0010
0100
0001
0000
1000
0100
0010
0100
1000
0000
0001
0100
0010
0000
,
1M00
0001
0100
0001
1000
0000
0001
1000
0010
1000
0001
0000
1000
0100
0010
0100
,
1000
0001
0010
0001
1000
0000
0001
1000
0100
1000
0001
0000
0100
0010
0100
0010
,
1000
0001
0010
0001
1000
0100
0010
0001
1000
0010
1000
0001
0100
0010
1000
0001
,
0010
0100
1000
0100
0010
0001
1000
0010
1000
0001
0100
0010
1000
0001
0010
0001
,
1000
0100
0010
0001
1000
0100
1000
0001
0100
0010
0100
0001
1000
0001
0010
0001
,
1000
0100
0010
0001
1000
0010
1000
0001
0100
0010
0100
0001
1000
0100
1000
0001
,
0010
0100
1000
0001
0010
0001
1000
0010
1000
0001
0100
0010
1000
0001
0010
0001
,
0010
0100
1000
0001
0100
0010
1000
0001
1000
0100
0010
0001
1000
0010
0100
0010
,
1000
0001
0010
0001
1000
0100
0010
0001
1000
0010
1000
0001
0100
0010
1000
0001
,
1000
0000
0000
0100
0000
0000
1000
0000
0000
0100
0000
0000
1000
0000
0000
0100
0000
0000
1000
0000
0000
0100
0000
0000
1000
0000
0000
0100
0000
0000
1000
0000
0000
0100
0000
0000
1000
0000
0000
0100
0000
0000
1000
0000
0000
0100
0000
0000
1000
0000
0000
0100
0000
0000
1000
0000
0000
0000
0000
0000
0000
0000
0000
0000
;
