#TITLE:Free;
#SUBTITLE:;
#ARTIST:Kitsune²;
#TITLETRANSLIT:;
#SUBTITLETRANSLIT:;
#ARTISTTRANSLIT:Kitsune²;
#CREDIT:owenviau1;
#BANNER:BN.PNG;
#BACKGROUND:BG.PNG;
#LYRICSPATH:;
#CDTITLE:ov1_title.png;
#MUSIC:Kitsune - Free.mp3;
#OFFSET:-0.142;
#SAMPLESTART:50.494;
#SAMPLELENGTH:29.999;
#SELECTABLE:YES;
#BPMS:0.000=190.000,30.000=280.000,32.000=190.000,94.000=280.000,96.000=190.000,158.000=280.000,160.000=190.000,318.000=191.000,350.000=280.000,352.000=190.000;
#STOPS:30.000=0.020
,30.250=0.020
,30.500=0.020
,31.000=0.060
,31.500=0.060
,94.000=0.020
,94.250=0.020
,94.500=0.020
,95.000=0.060
,95.500=0.060
,158.000=0.020
,158.250=0.020
,158.500=0.020
,159.000=0.060
,159.500=0.060
,350.000=0.020
,350.250=0.020
,350.500=0.020
,351.000=0.060
,351.500=0.060
,410.000=0.020
,410.125=0.060
,410.167=0.100
,410.333=0.100
;
#BGCHANGES:;
// cache tags:
#FIRSTBEAT:0.000;
#LASTBEAT:508.000;
#SONGFILENAME:Songs/Owenviau1 Simfiles 4/Free - Kitsune^2 [owenviau1]/Kitsune - Free.sm;
#HASMUSIC:1;
#HASBANNER:1;
#MUSICLENGTH:164.892;
// end cache tags

//---------------dance-single - ----------------
#NOTES:
     dance-single:
     :
     Challenge:
     13:
     1.000,1.000,0.515,0.879,1.000,1175.000,85.000,145.000,25.000,3.000:

MMMM
2000
3200
0320
,
0032
0000
0000
0000
0000
0000
0000
0000
0000
0000
0000
0000
0003
0000
2000
3002
,
0203
0000
0000
0000
0000
0310
1000
0001
,
0020
0000
0000
0030
0000
0000
1000
0000
0100
0000
0010
0000
0002
0000
0000
0000
0000
0000
0023
0000
0000
0000
0000
0000
,
MM3M
0002
2003
3020
,
0230
0000
0000
0000
0000
0000
0000
0000
0000
0000
0000
0000
0300
0000
0002
2003
,
3002
0000
0000
0000
0000
0013
0100
1000
,
0001
0000
0000
0000
0000
0000
0000
0000
0000
0000
0000
0000
0001
0000
0000
0000
0010
0000
0000
0000
0100
0000
0000
0000
2000
0000
0000
3200
0000
0000
0320
0000
0000
0000
0000
0000
0032
0000
0000
0000
0000
0000
2003
0000
0000
0000
0000
0000
,
3110
0000
0010
0000
1100
0000
1000
0100
0010
0001
1000
0000
1001
0000
0001
1000
,
0100
0000
0001
0000
1010
0000
0100
0010
0001
0000
0110
0000
0001
1000
0010
0100
,
0001
0000
1000
0000
0110
0000
1000
0001
0100
0010
1000
0000
1100
0000
1000
0100
,
0010
0001
0100
0000
0110
0000
0010
1000
0001
0000
1001
0000
1000
0100
0010
0001
,
0010
0000
0100
0000
1010
0000
0100
0001
0010
0100
1000
0000
1010
0000
0100
0010
,
0001
0000
0010
0000
1001
0000
0010
0100
1000
0000
0110
0000
0100
1000
0100
0010
,
0001
0000
1000
0000
1001
0000
0010
0100
0001
0010
0100
0000
1010
0000
0100
0001
,
0010
0100
1000
0000
0110
0000
0001
1000
0010
0000
0101
0000
1000
0010
0100
0010
,
1001
0000
0100
0000
1100
0000
1000
0100
0010
0001
1000
0000
1001
0000
0001
1000
,
0100
0000
0001
0000
1010
0000
0100
0010
0001
0000
0110
0000
0001
1000
0010
0100
,
0001
0000
1000
0000
0110
0000
1000
0001
0100
0010
1000
0000
1100
0000
1000
0100
,
0010
0001
0100
0000
0110
0000
0010
1000
0001
0000
0110
0000
1000
0100
0010
0001
,
0010
0000
0100
0000
1001
0000
1000
0100
0010
0001
1000
0000
1001
0000
0001
1000
,
0100
0000
0001
0000
1010
0000
0100
0010
0001
0000
0101
0000
0001
1000
0010
0100
,
0001
0000
1000
0000
0110
0000
1000
0001
0100
0010
1000
0000
1100
0000
1000
0100
,
0010
0001
0100
0000
0110
0000
1000
0000
0002
2003
3020
0000
2030
0000
3002
0000
,
1003
0000
0100
0000
0010
0000
0001
1000
0001
0010
0100
0000
1000
0000
0010
0000
,
1001
0000
1000
0000
0001
0000
0100
0000
0010
0000
1000
0000
0001
1000
0010
0100
,
1001
0000
0001
0000
1000
0000
0010
0000
1000
0001
0100
0000
0010
0000
0001
0000
,
1001
0000
0000
0000
0000
0000
0010
0000
0000
0000
0000
0000
1000
0000
0000
0000
0100
0000
0000
0000
0010
0000
0000
0000
0001
0000
0000
0000
0000
0000
0010
0000
0000
0000
0000
0000
0100
0000
0000
0010
0000
0000
0001
0000
0000
0100
0000
0000
,
1001
0000
1000
0000
1100
0000
0010
0000
0100
0010
0001
0000
0010
0000
0100
0000
,
1010
0000
1000
0000
0100
0000
0010
0000
0001
0000
1000
0000
0100
0010
0001
1000
,
1100
0000
1000
0000
0100
0000
0010
0000
0001
0000
1000
0000
0010
0000
0100
0010
,
0001
0000
0010
0000
1100
0000
0001
0000
0010
0000
0100
0000
0001
0010
0100
1000
,
1001
0000
1000
0000
0100
0000
0010
0000
0001
0010
0100
0000
0010
0000
1000
0000
,
0100
0000
0010
0000
0101
0000
0001
0000
0010
0000
0100
0000
1000
0100
0010
0001
,
0110
0000
1000
0000
0010
0000
1000
0000
0001
0010
0100
0000
0001
0000
0010
0000
,
0100
0000
0000
0000
0000
0000
1000
0000
0000
0000
0000
0000
0001
0000
0000
0000
0100
0000
0000
0000
0010
0000
0000
0000
1000
0000
0000
0000
0000
0000
0100
0000
0000
0000
0000
0000
0010
0000
0000
0001
0000
0000
1000
0000
0000
0010
0000
0000
,
1001
0000
0001
0000
0101
0000
0100
0000
0001
0010
0100
0000
1000
0000
0100
0000
,
1010
0000
1000
0000
0100
0000
0010
0000
0001
0000
1000
0000
0100
0010
0001
1000
,
1100
0000
1000
0000
0100
0000
0010
0000
0001
1000
0001
0000
0010
0000
0100
0000
,
0001
0000
0000
0000
0000
0000
0010
0000
0000
0000
0000
0000
1000
0000
0000
0000
0100
0000
0000
0000
0010
0000
0000
0000
0002
0000
0000
0023
0000
0000
0230
0000
0000
0000
0000
0000
2300
0000
0000
0000
0000
0000
3002
0000
0000
0000
0000
0000
,
1103
0000
0010
0000
0100
0000
0001
0000
0010
0100
1000
0000
1000
0000
0001
0000
,
0100
0000
0010
0000
1000
0000
0001
0000
1000
0100
0010
0000
0100
0000
0001
0000
,
1001
0000
0010
0000
0100
0000
0001
0000
1000
0001
0100
0000
0010
0000
0001
0000
,
0100
0000
0010
0000
1000
0000
0001
0000
0010
1000
0001
0000
0100
0000
0010
0000
,
1100
0000
0001
0000
0100
0000
0010
0000
1000
0001
1000
0000
0100
0000
0010
0000
,
0001
0000
0100
0000
0010
0000
1000
0000
0100
0010
0001
0000
0001
0000
1000
0000
,
1001
0000
0010
0000
1000
0000
0001
0000
0010
0100
1000
0000
1000
0000
0001
0000
,
0100
0000
0010
0000
1000
0000
0001
0000
1000
0100
0010
0000
0100
0000
0001
0000
,
1001
0000
0010
0000
0100
0000
0001
0000
1000
0001
0100
0000
0010
0000
0001
0000
,
0100
0000
0010
0000
1000
0000
0001
0000
0010
1000
0001
0000
0100
0000
0010
0000
,
1001
0000
0001
0000
0100
0000
0010
0000
1000
0001
1000
0000
0100
0000
0010
0000
,
0001
0000
0100
0000
0010
0000
1000
0000
0100
0010
0001
0000
0001
0000
1000
0000
,
1001
0000
0100
0000
0010
0000
0001
0000
0010
0100
1000
0000
1000
0000
0001
0000
,
0100
0000
0010
0000
1000
0000
0001
0000
1000
0100
0010
0000
0100
0000
0001
0000
,
1001
0000
0010
0000
0100
0000
0001
0000
1000
0001
0100
0000
0010
0000
0001
0000
,
0100
0000
0010
0000
1000
0000
0001
0000
0010
1000
0001
0000
0100
0000
0000
0000
,
1001
0000
0010
0100
1000
0001
1000
0100
0010
0001
0100
0001
0010
0100
1000
0010
,
0100
0010
1000
0001
0010
0100
0010
0001
1000
0010
0100
0001
1000
0001
0010
0100
,
1000
0010
1000
0100
0010
0001
0100
0001
0010
0100
1000
0100
0010
0001
1000
0010
,
0100
0001
0010
0001
1000
0010
1000
0100
0010
0001
1000
0010
0100
0001
0010
0000
,
1010
0000
1000
0100
0010
0001
0100
0010
1000
0100
0010
0001
0010
0100
1000
0010
,
0100
0001
0010
0001
1000
0100
1000
0010
0100
0001
0010
0100
1000
0001
1000
0010
,
0100
0001
0010
0001
1000
0010
0100
0001
1000
0100
1000
0010
0100
0001
0010
0001
,
1000
0010
1000
0100
0010
0001
0100
0001
0010
0100
1000
0010
0100
0001
1000
0000
,
0101
0000
1000
0010
0100
0001
1000
0100
0010
0001
0100
0010
1000
0001
0010
0001
,
1000
0010
1000
0100
0010
0001
0010
0100
1000
0001
1000
0010
0100
0001
0010
0100
,
1000
0001
1000
0010
1000
0100
0010
0001
0100
0001
0010
0100
1000
0100
0010
0001
,
1000
0010
1000
0100
0010
0001
0100
0001
0010
0100
1000
0001
0100
0010
1000
0000
,
1010
0000
0001
1000
0100
0010
0001
0010
0100
1000
0010
0100
0010
1000
0100
0010
,
0001
1000
0010
0100
0001
0010
0100
1000
0100
1000
0010
0100
0001
0010
0100
1000
,
0001
1000
0010
0100
0001
0010
0001
1000
0010
1000
0100
0010
0001
1000
0001
0100
,
0010
1000
0001
0100
0010
1000
0100
0010
0001
0100
0010
1000
0001
0000
0000
0000
,
2002
3003
0000
2020
3030
0000
0000
2200
,
3300
0000
2002
3003
0022
0000
0033
0000
0000
0000
0000
0000
0000
0000
0000
0000
,
0000
0000
0220
0000
0300
0030
2020
0000
3030
0000
0000
0000
0000
0000
2200
0000
,
3300
0000
0220
0330
0022
0000
0033
0000
0000
0000
0000
0000
0000
0000
0000
0000
,
2200
3300
0000
0022
0033
0000
0000
2002
,
3003
0000
0220
0330
2002
0000
3003
0000
0000
0000
0000
0000
0000
0000
0000
0000
,
2200
3300
0000
0202
0303
0000
0000
2020
,
3000
0000
0400
0000
0000
0000
0000
0000
0330
0000
0000
4400
0000
3300
0000
0000
,
1001
0000
1000
0001
0100
0000
0010
0000
0100
0000
0001
0000
0010
0000
1000
0001
,
0100
0000
0010
0000
0001
0000
1000
0010
0100
0000
0010
0000
0001
0010
0100
1000
,
0100
0000
0010
0000
0001
0000
1000
0001
0100
0000
1000
0000
0010
0001
1000
0010
,
0100
0000
0010
0000
0001
0000
1000
0100
0010
0000
0001
0000
0010
0100
1000
0001
,
1000
0000
0010
0000
0100
0000
0001
1000
0010
0000
0100
0000
0001
1000
0010
1000
,
0100
0000
0001
0000
1000
0000
0010
0100
0010
0000
0001
0000
1000
0100
0010
0001
,
1000
0000
0100
0000
0001
0000
0100
0010
1000
0000
0001
0000
0001
1000
0100
0010
,
0001
0000
0010
0000
0100
0000
1000
0001
0200
0320
2030
0000
3002
0000
0203
0000
,
0320
2030
3002
0023
,
0230
0000
0000
0302
0000
0000
0000
0000
,
0023
0000
0000
0000
,
2030
0000
0000
3000
,
MMMM
0020
0230
0302
,
2003
0000
0000
3020
0000
0000
0230
0000
,
0302
0000
0000
0000
0000
0000
0003
0000
0020
0000
0000
0000
0000
0000
0000
2030
,
3002
0000
0000
0000
0000
0000
0000
0000
0000
0000
0000
0000
0000
0000
0000
0000
0000
0000
0000
0000
0000
0000
0000
0000
0003
0000
0000
0000
0000
0000
0000
00M0
,
MM0M
00M0
0000
0000
0000
0000
0000
0000
2000
0000
0000
0000
0000
0000
0000
0000
3200
0000
0000
0000
0000
0000
0000
0000
0320
0000
0000
0000
0000
0000
0000
0000
,
0032
0000
0203
0000
,
0320
0000
0000
0000
0000
0000
0000
0000
0030
0000
0000
0000
2000
0002
0000
0000
,
0000
0000
0000
0000
0000
0000
0000
0000
0000
0000
0000
0000
3003
0000
0000
M00M
,
MMMM
M00M
0000
0000
2000
0000
0000
0000
0000
0000
0000
0000
3020
0000
0000
0000
,
0230
0000
0002
00M0
0000
0000
0000
0000
,
0303
0000
0000
0000
,
0000
0000
0000
0000
0000
0000
0000
0000
1000
0000
0000
0000
1001
0000
0010
0100
,
1000
0001
1000
0100
0010
0001
0100
0001
0010
0100
1000
0010
0100
0010
1000
0001
,
0010
0100
0010
0001
1000
0010
0100
0001
1000
0001
0010
0100
1000
0010
1000
0100
,
0010
0001
0100
0001
0010
0100
1000
0100
0010
0001
1000
0010
0100
0001
0010
0001
,
1000
0010
1000
0100
0010
0001
1000
0010
0100
0001
0010
0000
1010
0000
1000
0100
,
0010
0001
0100
0010
1000
0100
0010
0001
0010
0100
1000
0010
0100
0001
0010
0001
,
1000
0100
1000
0010
0100
0001
0010
0100
1000
0001
1000
0010
0100
0001
0010
0001
,
1000
0010
0100
0001
1000
0100
1000
0010
0100
0001
0010
0001
1000
0010
1000
0100
,
0010
0001
0100
0001
0010
0100
1000
0010
0100
0001
1000
0000
0101
0000
1000
0010
,
0100
0001
1000
0100
0010
0001
0100
0010
1000
0001
0010
0001
1000
0010
1000
0100
,
0010
0001
0010
0100
1000
0001
1000
0010
0100
0001
0010
0100
1000
0001
1000
0010
,
1000
0100
0010
0001
0100
0001
0010
0100
1000
0100
0010
0001
1000
0010
1000
0100
,
0010
0001
0100
0001
0010
0100
1000
0001
0100
0010
1000
0000
1010
0000
0001
1000
,
0100
0010
0001
0010
0100
1000
0010
0100
0010
1000
0100
0010
0001
1000
0010
0100
,
0001
0010
0100
1000
0100
1000
0010
0100
0001
0010
0100
1000
0001
1000
0010
0100
,
0001
0010
0001
1000
0010
1000
0100
0010
0001
1000
0001
0100
0010
1000
0001
0100
,
0010
1000
0100
0010
0002
0023
0230
0000
2300
0000
3020
0000
2031
0000
0000
0000
,
3020
0230
0302
0023
,
0230
2300
3020
0230
,
0320
0032
2003
3002
,
0203
0320
2030
3200
,
0320
0032
2003
3020
,
0230
0000
0000
0302
0000
0000
2003
0000
0000
3020
0230
0302
,
2003
3200
0320
0032
2003
3020
2030
3200
0320
0032
0000
0000
,
0003
0000
0000
0000
;

//---------------dance-single - ----------------
#NOTES:
     dance-single:
     :
     Hard:
     9:
     0.484,0.500,0.012,0.182,0.018,527.000,2.000,30.000,18.000,0.000:

0000
0100
0010
0001
,
1000
0010
0100
0000
,
0001
1000
0010
0100
,
0001
0010
0100
1000
,
0000
0001
0100
0001
,
0010
0100
1000
0000
,
0010
1000
0001
0000
,
1000
0000
0001
0000
,
1000
0010
0100
0001
,
0010
0100
1000
0000
0001
0000
0100
0000
,
0010
1000
0001
0000
1000
0001
0010
0000
,
0010
0100
1000
0000
0001
0000
0100
0000
,
0010
0000
1000
0000
1000
0001
0010
0000
,
0100
0000
0001
0000
1000
0001
0010
0100
,
1000
0000
0001
0000
0100
0001
0100
0000
,
0010
0000
1000
0000
0001
1000
0001
0010
,
0100
0000
1000
0000
0010
1000
0010
0000
,
0100
0000
0001
0000
1000
0001
0010
0100
,
1000
0001
0100
0010
,
1000
0001
0010
0000
0100
0000
0001
1000
,
0001
0000
0010
0000
0100
1000
0001
0000
,
0100
0000
0010
0000
1000
0001
0100
0000
,
0010
1000
0001
0010
,
0100
1000
0001
0000
0000
0000
0000
0000
,
0010
0100
0001
1000
,
0100
0000
0010
0000
0001
1000
0001
0010
,
0100
0000
1000
0000
0010
0000
0100
0001
,
0010
0000
0100
0000
1000
0000
0001
1000
,
0001
0000
0010
0000
0100
0000
1000
0010
,
1000
0000
0100
0000
0001
0000
1000
0010
,
0100
0000
0001
0000
0010
0000
0100
0001
,
1000
0000
0010
0100
0001
0000
0001
0010
,
0100
1000
0010
0100
,
0001
1000
0001
0000
0010
0000
0100
1000
,
0100
0000
0010
0000
0001
0000
0100
0010
,
1000
0000
0001
1000
0001
0000
0010
0000
,
0100
0000
1000
0001
0100
0000
0010
0000
,
1000
0000
0100
0001
0010
0000
0100
0000
,
1000
0001
1000
0000
0010
0000
0100
0000
,
0001
0000
1000
0100
0010
0000
0000
0000
,
0001
0000
1000
0000
0010
0100
0010
0000
,
1000
0000
0001
0000
1000
0001
1000
0000
,
0010
0000
0100
0000
0001
0010
0001
0000
,
1000
0000
0100
0000
0010
0001
0010
0000
,
0001
0000
0100
0000
0010
1000
0010
0000
,
1000
0000
0100
0000
0001
1000
0001
0000
,
0010
0000
0100
0000
0001
1000
0001
0000
,
0100
0000
0010
0000
1000
0100
1000
0000
,
0010
0000
0100
0000
0001
0010
0001
0000
,
0100
0000
0010
0000
1000
0001
1000
0000
,
0100
0000
0010
0000
0001
0100
0001
0000
,
0010
0000
0100
0000
1000
0010
1000
0000
,
0010
0000
0100
0000
0001
1000
0001
0000
,
0010
0000
0100
0000
1000
0010
1000
0000
,
0100
0000
0010
0000
0001
0100
0001
0000
,
0010
0100
1000
1001
,
0010
0000
0100
0000
0001
0000
0010
0100
,
0010
0000
0001
0000
1000
0000
0010
1000
,
0010
0000
0100
0000
0001
0000
1000
0001
,
1000
0000
0010
0000
0100
0000
0001
0010
,
0001
0000
0100
0000
0010
0000
1000
0100
,
1000
0000
0010
0000
0100
0000
0001
0100
,
0001
0000
0010
0000
0100
0000
1000
0010
,
1000
0000
0100
0000
0010
0000
0001
0100
,
0001
0000
0010
0000
0100
0000
1000
0001
,
1000
0000
0100
0000
0010
0000
0001
0100
,
0001
0000
0100
0000
0010
0000
1000
0010
,
1000
0000
0100
0000
0010
0100
0010
0000
,
0001
0000
0100
0000
0001
0100
0001
0000
,
0010
0000
0001
0000
1000
0010
1000
0000
,
0100
0000
0001
0000
0010
0001
0010
0000
,
0001
0100
0010
1000
,
0001
0000
0000
0010
0000
0000
0000
0000
,
0100
1000
0000
0000
,
0001
0000
0000
0000
,
0010
0000
0000
0000
,
1000
0000
0000
0100
0000
0000
0000
0000
,
0000
0000
0000
0000
,
0001
0000
0000
0100
0000
0000
0000
0010
,
0000
0000
0000
1001
,
0100
0010
0001
1000
,
0010
0100
0001
1000
,
0100
0010
0001
0100
,
0010
1000
0001
0010
,
0010
0001
0100
0010
,
1000
0100
1000
1000
,
0001
0010
0100
1000
,
0001
0100
0000
0000
,
0020
2030
3002
0023
,
0230
0000
0000
0302
0000
0000
0000
0000
,
0023
0000
0000
0000
,
2030
0000
0000
3000
,
MMMM
0020
0230
0302
,
2003
0000
0000
3020
0000
0000
0230
0000
,
0302
0000
0000
0000
0000
0000
0003
0000
0020
0000
0000
0000
0000
0000
0000
2030
,
3002
0000
0000
0000
0000
0000
0000
0000
0000
0000
0000
0000
0000
0000
0000
0000
0000
0000
0000
0000
0000
0000
0000
0000
0003
0000
0000
0000
0000
0000
0000
00M0
,
MM0M
00M0
0000
0000
0000
0000
0000
0000
2000
0000
0000
0000
0000
0000
0000
0000
3200
0000
0000
0000
0000
0000
0000
0000
0320
0000
0000
0000
0000
0000
0000
0000
,
0032
0000
0203
0000
,
0320
0000
0000
0000
0000
0000
0000
0000
0030
0000
0000
0000
2000
0002
0000
0000
,
0000
0000
0000
0000
0000
0000
0000
0000
0000
0000
0000
0000
3003
0000
0000
M00M
,
MMMM
M00M
0000
0000
2000
0000
0000
0000
0000
0000
0000
0000
3020
0000
0000
0000
,
0230
0000
0002
00M0
0000
0000
0000
0000
,
0303
0000
0000
0000
,
0000
0000
1000
0010
,
0100
0000
0001
0000
1000
0001
1000
0000
,
0010
0000
0100
0000
0001
0010
0001
0000
,
1000
0000
0010
0000
1000
0100
1000
0000
,
0010
0000
0100
0001
0010
0100
1000
0000
,
0001
0000
0100
0001
0100
0000
0010
0000
,
1000
0000
0100
1000
0100
0000
0010
0000
,
0001
0000
0100
0000
0010
1000
0010
0000
,
0100
0000
0001
1000
0001
0000
0010
0000
,
0100
0000
1000
0100
1000
0000
0001
0000
,
0100
0000
0010
1000
0010
0000
0100
0000
,
0001
0000
0010
0000
0100
1000
0100
0000
,
0001
0000
0100
0001
0100
0010
0100
0000
,
0001
0000
1000
0001
1000
0000
0100
0000
,
0010
0000
0001
0100
0001
0010
0100
0000
,
1000
0000
0001
0000
1000
0010
1000
0000
,
0100
0010
0001
0100
,
0010
1000
0010
0100
,
0001
0010
0100
0010
,
0001
0100
0001
1000
,
0001
0100
0001
0010
,
0100
1000
0100
0010
,
0100
1000
0001
0100
,
0010
1000
0001
0010
;
